<?xml version="1.0" standalone="no"?>
<!DOCTYPE svg PUBLIC "-//W3C//DTD SVG 1.1//EN" "http://www.w3.org/Graphics/SVG/1.1/DTD/svg11.dtd" >
<svg xmlns="http://www.w3.org/2000/svg" xmlns:xlink="http://www.w3.org/1999/xlink" version="1.1">
<metadata>
Created by FontForge 20170731 at Tue Oct 15 18:58:08 2019
 By Aleksey,,,
Copyright 2014-2017 Indian Type Foundry (info@indiantypefoundry.com) with Reserved Font Name 'Poppins'. Copyright 2019 Google LLC.
</metadata>
<defs>
<font id="DMSans-Bold" horiz-adv-x="0" >
  <font-face 
    font-family="DM Sans"
    font-weight="700"
    font-stretch="normal"
    units-per-em="1000"
    panose-1="0 0 0 0 0 0 0 0 0 0"
    ascent="800"
    descent="-200"
    x-height="496"
    cap-height="700"
    bbox="-57 -274 1206 975"
    underline-thickness="50"
    underline-position="-175"
    unicode-range="U+000D-FB02"
  />
<missing-glyph horiz-adv-x="537" 
d="M68 0v700h401v-700h-401zM138 57h261v586h-261v-586z" />
    <glyph glyph-name="fi" unicode="fi" horiz-adv-x="606" 
d="M88 0v389h-68v107h68v58q0 90 45.5 128t123.5 38h55v-109h-35q-33 0 -47 -13t-14 -44v-58h320v-496h-128v389h-192v-389h-128zM473 567q-35 0 -57.5 21t-22.5 53t22.5 52.5t57.5 20.5t57.5 -20.5t22.5 -52.5t-22.5 -53t-57.5 -21z" />
    <glyph glyph-name="fl" unicode="fl" horiz-adv-x="618" 
d="M88 0v389h-68v107h68v58q0 90 45.5 128t123.5 38h55v-109h-35q-33 0 -47 -13t-14 -44v-58h107v-107h-107v-389h-128zM424 0v720h128v-720h-128z" />
    <glyph glyph-name=".notdef" horiz-adv-x="537" 
d="M68 0v700h401v-700h-401zM138 57h261v586h-261v-586z" />
    <glyph glyph-name=".null" 
 />
    <glyph glyph-name="nonmarkingreturn" horiz-adv-x="333" 
 />
    <glyph glyph-name="CR" unicode="&#xd;" horiz-adv-x="600" 
 />
    <glyph glyph-name="space" unicode=" " horiz-adv-x="238" 
 />
    <glyph glyph-name="exclam" unicode="!" horiz-adv-x="296" 
d="M92 221l-14 479h137l-15 -479h-108zM149 -7q-36 0 -58.5 22t-22.5 53q0 32 22.5 54t58.5 22q34 0 56.5 -22t22.5 -54q0 -31 -22.5 -53t-56.5 -22z" />
    <glyph glyph-name="quotedbl" unicode="&#x22;" horiz-adv-x="348" 
d="M211 546l-12 209h110l-11 -209h-87zM50 546l-11 209h110l-12 -209h-87z" />
    <glyph glyph-name="numbersign" unicode="#" horiz-adv-x="860" 
d="M140 0l37 175h-144v115h169l31 146h-147v115h172l37 172h120l-37 -172h190l37 172h120l-36 -172h130v-115h-155l-31 -146h133v-115h-158l-37 -175h-121l38 175h-190l-37 -175h-121zM322 290h190l32 146h-190z" />
    <glyph glyph-name="dollar" unicode="$" horiz-adv-x="597" 
d="M264 -87v77q-97 11 -158 68t-63 153h135q2 -40 24.5 -70t61.5 -41v211q-9 3 -18.5 6t-19.5 6q-81 28 -123.5 72t-42.5 117q-1 86 56 138.5t148 60.5v81h67v-82q90 -9 145.5 -62.5t58.5 -137.5h-137q-1 29 -18.5 53.5t-48.5 34.5v-186q8 -3 16 -5.5t16 -5.5q52 -18 95 -42
t69 -63.5t26 -101.5q0 -52 -25.5 -97t-75 -74.5t-121.5 -33.5v-76h-67zM194 521q0 -32 19 -51.5t51 -33.5v166q-31 -6 -50.5 -27t-19.5 -54zM417 185q0 40 -24 63t-62 39v-190q40 6 63 29t23 59z" />
    <glyph glyph-name="percent" unicode="%" horiz-adv-x="872" 
d="M212 356q-48 0 -87 21.5t-62 61.5t-23 95t23 95t62 61.5t88 21.5q48 0 86.5 -21.5t61.5 -61.5t23 -95t-23 -95t-62 -61.5t-87 -21.5zM174 0l395 700h125l-395 -700h-125zM212 445q29 0 50 22.5t21 66.5t-20.5 67t-50.5 23t-50.5 -23t-20.5 -67t20.5 -66.5t50.5 -22.5z
M660 -12q-48 0 -87 21.5t-62 61.5t-23 95t23 94.5t62 61t88 21.5q48 0 86.5 -21.5t61.5 -61t23 -94.5t-23 -95t-61.5 -61.5t-87.5 -21.5zM660 77q30 0 50.5 22.5t20.5 66.5t-20.5 67t-50.5 23t-50.5 -23t-20.5 -67t20.5 -66.5t50.5 -22.5z" />
    <glyph glyph-name="ampersand" unicode="&#x26;" horiz-adv-x="772" 
d="M292 -11q-77 0 -134 26.5t-88.5 74.5t-31.5 112q0 68 38 123t113 88q-30 35 -43 66t-13 66q0 48 24 85.5t68.5 59.5t106.5 22q63 0 107 -23t66.5 -62t20.5 -87h-122q0 37 -21.5 55.5t-51.5 18.5q-34 0 -54.5 -19t-20.5 -49q0 -25 16 -51t47 -60l196 -194q21 34 44 79
l22 44h131l-35 -68q-40 -81 -80 -137l161 -159h-153l-78 78q-51 -47 -108.5 -68t-126.5 -21zM162 210q0 -49 36.5 -82.5t97.5 -33.5q87 0 151 62l-185 183q-51 -22 -75.5 -55t-24.5 -74z" />
    <glyph glyph-name="quotesingle" unicode="'" horiz-adv-x="189" 
d="M51 546l-12 209h112l-13 -209h-87z" />
    <glyph glyph-name="parenleft" unicode="(" horiz-adv-x="399" 
d="M239 -145q-56 56 -99.5 129.5t-69 161.5t-25.5 187t25.5 187t69 161.5t99.5 129.5h128v-12q-90 -95 -143 -214.5t-53 -251.5t53 -251.5t143 -214.5v-12h-128z" />
    <glyph glyph-name="parenright" unicode=")" horiz-adv-x="399" 
d="M32 -145v12q90 95 143 214.5t53 251.5t-53 251.5t-143 214.5v12h128q56 -56 99.5 -129.5t69 -161.5t25.5 -187t-25.5 -187t-69 -161.5t-99.5 -129.5h-128z" />
    <glyph glyph-name="asterisk" unicode="*" horiz-adv-x="506" 
d="M209 360l19 141l-112 -88l-48 85l131 52l-130 50l45 81l115 -87l-20 143h93l-20 -143l114 87l44 -80l-130 -52l131 -52l-47 -83l-112 87l19 -141h-92z" />
    <glyph glyph-name="plus" unicode="+" horiz-adv-x="597" 
d="M56 236v107h188v173h109v-173h187v-107h-187v-173h-109v173h-188z" />
    <glyph glyph-name="comma" unicode="," horiz-adv-x="231" 
d="M14 -116l57 249h124l-97 -249h-84z" />
    <glyph glyph-name="hyphen" unicode="-" horiz-adv-x="527" 
d="M54 236v107h419v-107h-419z" />
    <glyph glyph-name="period" unicode="." horiz-adv-x="240" 
d="M120 -7q-35 0 -57.5 22t-22.5 53q0 32 22.5 54t57.5 22t57.5 -22t22.5 -54q0 -31 -22.5 -53t-57.5 -22z" />
    <glyph glyph-name="slash" unicode="/" horiz-adv-x="421" 
d="M23 -111l250 888h125l-251 -888h-124z" />
    <glyph glyph-name="zero" unicode="0" horiz-adv-x="710" 
d="M355 -12q-97 0 -166 45.5t-106.5 127t-37.5 189.5q0 107 37.5 189t106.5 127.5t166 45.5t166 -45.5t106.5 -127.5t37.5 -189q0 -108 -37.5 -189.5t-106.5 -127t-166 -45.5zM355 103q79 0 129 66t50 181t-50 181t-129 66q-80 0 -129.5 -66t-49.5 -181t49.5 -181t129.5 -66
z" />
    <glyph glyph-name="one" unicode="1" horiz-adv-x="345" 
d="M144 0v554l-115 -27v98l169 75h79v-700h-133z" />
    <glyph glyph-name="two" unicode="2" horiz-adv-x="571" 
d="M51 0v93q64 53 124.5 105t108 103t76 99.5t28.5 94.5q0 43 -23.5 76t-77.5 33q-55 0 -83 -36t-28 -87h-124q2 77 34 128.5t85 77t119 25.5q107 0 166.5 -58.5t59.5 -151.5q0 -58 -26.5 -113t-69.5 -106t-93 -95.5t-97 -82.5h303v-105h-482z" />
    <glyph glyph-name="three" unicode="3" horiz-adv-x="596" 
d="M297 -12q-69 0 -125 24.5t-90 75.5t-36 128h126q1 -51 33.5 -85.5t91.5 -34.5q56 0 86 31t30 78q0 55 -39.5 83.5t-101.5 28.5h-52v105h53q51 0 85 24t34 71q0 39 -25.5 62.5t-70.5 23.5q-49 0 -76.5 -29t-30.5 -71h-125q4 97 67.5 153t164.5 56q72 0 121.5 -25.5
t75 -67.5t25.5 -93q0 -59 -32.5 -99.5t-80.5 -54.5q59 -12 96 -57.5t37 -114.5q0 -58 -28 -106t-81.5 -77t-131.5 -29z" />
    <glyph glyph-name="four" unicode="4" horiz-adv-x="641" 
d="M388 0v130h-345v102l328 468h145v-459h92v-111h-92v-130h-128zM180 241h216v318z" />
    <glyph glyph-name="five" unicode="5" horiz-adv-x="620" 
d="M319 -12q-77 0 -132.5 27t-87 74.5t-36.5 107.5h125q9 -43 44 -71.5t87 -28.5q56 0 91.5 41t35.5 102q0 63 -35.5 100t-89.5 37q-45 0 -78 -22t-47 -55h-123l60 400h388v-112h-292l-32 -162q22 24 60 39.5t85 15.5q75 0 125 -33.5t76 -88t26 -118.5q0 -73 -31.5 -130
t-88 -90t-130.5 -33z" />
    <glyph glyph-name="six" unicode="6" horiz-adv-x="634" 
d="M331 -12q-79 0 -133 29t-87 78t-47.5 109t-14.5 123q0 117 33 203.5t95 134t150 47.5q72 0 122.5 -28.5t78.5 -74.5t33 -99h-119q-9 46 -39 71t-77 25q-67 0 -108 -61.5t-44 -187.5q24 41 72 68t107 27q58 0 109 -28t82.5 -79t31.5 -120q0 -63 -30.5 -117t-86 -87
t-128.5 -33zM324 98q56 0 92.5 34.5t36.5 87.5q0 56 -37 90t-94 34q-37 0 -66.5 -16.5t-46.5 -44t-17 -61.5q0 -54 37.5 -89t94.5 -35z" />
    <glyph glyph-name="seven" unicode="7" horiz-adv-x="534" 
d="M108 0l264 591h-345v109h477v-91l-263 -609h-133z" />
    <glyph glyph-name="eight" unicode="8" horiz-adv-x="629" 
d="M315 -12q-72 0 -130 25.5t-92.5 72.5t-34.5 109q0 64 33.5 112t88.5 69q-48 21 -76 60.5t-28 88.5q0 50 27 92.5t80.5 68.5t131.5 26t131 -26t80 -68.5t27 -92.5q0 -48 -28.5 -88.5t-75.5 -60.5q56 -21 89 -69t33 -112q0 -62 -34 -109t-92.5 -72.5t-129.5 -25.5zM315 414
q52 0 82 27t30 69q0 46 -29.5 72t-82.5 26q-54 0 -83 -26t-29 -72q0 -43 29.5 -69.5t82.5 -26.5zM315 95q64 0 97 31.5t33 79.5q0 53 -34.5 83t-95.5 30t-96.5 -30t-35.5 -83q0 -48 33.5 -79.5t98.5 -31.5z" />
    <glyph glyph-name="nine" unicode="9" horiz-adv-x="634" 
d="M307 -12q-73 0 -123 28.5t-78 74.5t-33 99h119q8 -46 38.5 -71t77.5 -25q67 0 108 61.5t44 187.5q-24 -41 -72.5 -68t-106.5 -27t-109 28t-83 79t-32 120q0 63 31 117t86 87t129 33q79 0 133 -29t86.5 -78t47 -109t14.5 -123q0 -117 -32.5 -203.5t-95 -134t-149.5 -47.5z
M311 356q37 0 67 16.5t47 44t17 61.5q0 54 -37.5 89t-94.5 35q-56 0 -93 -34.5t-37 -87.5q0 -56 37 -90t94 -34z" />
    <glyph glyph-name="colon" unicode=":" horiz-adv-x="242" 
d="M120 -7q-35 0 -57.5 22t-22.5 53q0 32 22.5 54t57.5 22t57.5 -22t22.5 -54q0 -31 -22.5 -53t-57.5 -22zM120 357q-35 0 -57.5 22t-22.5 53q0 32 22.5 54t57.5 22t57.5 -22t22.5 -54q0 -31 -22.5 -53t-57.5 -22z" />
    <glyph glyph-name="semicolon" unicode=";" horiz-adv-x="266" 
d="M144 357q-35 0 -57.5 22t-22.5 53q0 32 22.5 54t57.5 22t57.5 -22t22.5 -54q0 -31 -22.5 -53t-57.5 -22zM24 -116l57 249h124l-97 -249h-84z" />
    <glyph glyph-name="less" unicode="&#x3c;" horiz-adv-x="521" 
d="M289 133l-223 226l223 225h162l-225 -225l225 -226h-162z" />
    <glyph glyph-name="equal" unicode="=" horiz-adv-x="542" 
d="M59 345v112h424v-112h-424zM59 123v112h424v-112h-424z" />
    <glyph glyph-name="greater" unicode="&#x3e;" horiz-adv-x="521" 
d="M70 133l224 226l-224 225h161l224 -225l-224 -226h-161z" />
    <glyph glyph-name="question" unicode="?" horiz-adv-x="527" 
d="M137 218l-4 165h46q51 0 93 9t67 35t25 76q0 48 -29 75.5t-77 27.5q-50 0 -78 -27.5t-28 -74.5h-121q-1 60 26 107t78.5 74t123.5 27q67 0 118.5 -25t81 -71.5t29.5 -113.5q0 -69 -30.5 -114t-83 -67t-121.5 -23l-3 -80h-113zM194 -7q-35 0 -57.5 22t-22.5 53
q0 32 22.5 54t57.5 22t57 -22t22 -54q0 -31 -22 -53t-57 -22z" />
    <glyph glyph-name="at" unicode="@" horiz-adv-x="1047" 
d="M443 -212q-111 0 -194 42.5t-129 120t-46 183.5q0 111 39 206t109.5 165.5t165.5 109.5t208 39q116 0 200.5 -43.5t130.5 -121.5t46 -180q0 -60 -15.5 -116.5t-45 -101t-73 -70.5t-99.5 -26q-52 0 -83 23t-39 63q-29 -41 -74.5 -64.5t-97.5 -23.5q-76 0 -118 45.5
t-42 123.5q0 54 17 104.5t48.5 90t75 62.5t95.5 23q93 0 122 -71l11 62h105l-47 -268q-6 -39 2.5 -62.5t42.5 -23.5q29 0 50.5 20.5t36 54t22 73t7.5 77.5q0 122 -77 192.5t-214 70.5q-89 0 -163.5 -32.5t-130 -90.5t-86 -134.5t-30.5 -164.5q0 -128 76 -198.5t210 -70.5
q45 0 89.5 9t81.5 26l21 -83q-94 -40 -208 -40zM486 87q36 0 66 20t49 54.5t21 77.5q3 46 -19.5 78t-70.5 32q-40 0 -70 -24t-47 -61.5t-17 -80.5t22.5 -69.5t65.5 -26.5z" />
    <glyph glyph-name="A" unicode="A" horiz-adv-x="701" 
d="M23 0l256 700h144l256 -700h-136l-56 162h-273l-57 -162h-134zM249 262h203l-102 291z" />
    <glyph glyph-name="B" unicode="B" horiz-adv-x="631" 
d="M68 0v700h281q109 0 166.5 -50.5t57.5 -129.5q0 -66 -35.5 -105.5t-86.5 -53.5q60 -12 99 -59.5t39 -110.5q0 -83 -60 -137t-170 -54h-291zM196 406h134q54 0 83 25t29 71q0 44 -28.5 69.5t-85.5 25.5h-132v-191zM196 104h143q57 0 88.5 26.5t31.5 74.5q0 49 -33 77
t-89 28h-141v-206z" />
    <glyph glyph-name="C" unicode="C" horiz-adv-x="737" 
d="M385 -12q-106 0 -182 45.5t-117 127t-41 188.5t41 189t117 128t182 46q126 0 206.5 -62.5t100.5 -175.5h-141q-13 57 -55.5 89.5t-112.5 32.5q-97 0 -152 -66t-55 -181t55 -180.5t152 -65.5q70 0 112.5 30.5t55.5 84.5h141q-20 -108 -100.5 -169t-206.5 -61z" />
    <glyph glyph-name="D" unicode="D" horiz-adv-x="711" 
d="M68 0v700h239q123 0 202.5 -43.5t118 -122t38.5 -184.5t-38.5 -184.5t-118 -122t-202.5 -43.5h-239zM196 110h105q88 0 139 28.5t73 82t22 129.5q0 75 -22 129t-73 83t-139 29h-105v-481z" />
    <glyph glyph-name="E" unicode="E" horiz-adv-x="578" 
d="M68 0v700h457v-103h-329v-192h299v-100h-299v-202h329v-103h-457z" />
    <glyph glyph-name="F" unicode="F" horiz-adv-x="551" 
d="M68 0v700h452v-103h-324v-196h262v-101h-262v-300h-128z" />
    <glyph glyph-name="G" unicode="G" horiz-adv-x="773" 
d="M374 -12q-99 0 -173 45t-115 125.5t-41 187.5q0 108 42.5 190.5t121 129t186.5 46.5q123 0 204 -59t105 -163h-143q-16 49 -58 76.5t-108 27.5q-105 0 -162 -66.5t-57 -182.5t56.5 -179.5t153.5 -63.5q95 0 143.5 51.5t58.5 135.5h-177v96h306v-385h-118l-10 92
q-34 -50 -85 -77t-130 -27z" />
    <glyph glyph-name="H" unicode="H" horiz-adv-x="706" 
d="M68 0v700h128v-291h314v291h128v-700h-128v305h-314v-305h-128z" />
    <glyph glyph-name="I" unicode="I" horiz-adv-x="264" 
d="M68 0v700h128v-700h-128z" />
    <glyph glyph-name="J" unicode="J" horiz-adv-x="532" 
d="M251 -12q-102 0 -163.5 57.5t-61.5 163.5h128q1 -49 23 -78t71 -29q46 0 67 27.5t21 72.5v498h128v-498q0 -103 -57.5 -158.5t-155.5 -55.5z" />
    <glyph glyph-name="K" unicode="K" horiz-adv-x="640" 
d="M68 0v700h128v-283l259 283h158l-258 -278l265 -422h-157l-200 324l-67 -73v-251h-128z" />
    <glyph glyph-name="L" unicode="L" horiz-adv-x="551" 
d="M68 0v700h128v-600h310v-100h-438z" />
    <glyph glyph-name="M" unicode="M" horiz-adv-x="883" 
d="M68 0v700h152l223 -444l220 444h152v-700h-128v483l-195 -383h-101l-195 383v-483h-128z" />
    <glyph glyph-name="N" unicode="N" horiz-adv-x="721" 
d="M68 0v700h128l329 -493v493h128v-700h-128l-329 492v-492h-128z" />
    <glyph glyph-name="O" unicode="O" horiz-adv-x="791" 
d="M396 -12q-105 0 -183.5 46t-123 127.5t-44.5 188.5t44.5 188.5t123 127.5t183.5 46q104 0 183 -46t123 -127.5t44 -188.5t-44 -188.5t-123 -127.5t-183 -46zM396 103q100 0 159.5 66t59.5 181t-59.5 181t-159.5 66t-160 -66t-60 -181t60 -181t160 -66z" />
    <glyph glyph-name="P" unicode="P" horiz-adv-x="607" 
d="M68 0v700h259q84 0 139 -28t82 -77t27 -110q0 -58 -26 -106.5t-81 -78t-141 -29.5h-131v-271h-128zM196 375h123q67 0 96.5 29.5t29.5 80.5q0 52 -29.5 81.5t-96.5 29.5h-123v-221z" />
    <glyph glyph-name="Q" unicode="Q" horiz-adv-x="788" 
d="M396 -12q-105 0 -183.5 46t-123 127.5t-44.5 188.5t44.5 188.5t123 127.5t183.5 46q104 0 183 -46t123 -127.5t44 -188.5q0 -100 -39 -178.5t-108 -124.5l162 -174h-159l-110 126q-46 -11 -96 -11zM396 103q100 0 159.5 66t59.5 181t-59.5 181t-159.5 66t-160 -66
t-60 -181t60 -181t160 -66z" />
    <glyph glyph-name="R" unicode="R" horiz-adv-x="623" 
d="M68 0v700h257q84 0 138.5 -28.5t81.5 -77t27 -107.5q0 -64 -33.5 -117t-104.5 -77l145 -293h-147l-130 276h-106v-276h-128zM196 370h121q64 0 94 31t30 82q0 50 -29.5 80t-95.5 30h-120v-223z" />
    <glyph glyph-name="S" unicode="S" horiz-adv-x="597" 
d="M307 -12q-77 0 -136 26.5t-93 76t-35 120.5h135q2 -49 35.5 -82.5t92.5 -33.5q51 0 81 24.5t30 65.5q0 43 -26.5 67t-70.5 39t-94 32q-81 28 -123.5 72t-42.5 117q-1 62 29.5 106.5t83.5 69t122 24.5q70 0 123.5 -25t84 -70t32.5 -107h-137q-1 37 -28.5 65.5t-76.5 28.5
q-42 1 -70.5 -20.5t-28.5 -62.5q0 -35 22 -55.5t60 -34.5t87 -30q52 -18 95 -42t69 -63.5t26 -101.5q0 -55 -28 -102t-83 -75.5t-135 -28.5z" />
    <glyph glyph-name="T" unicode="T" horiz-adv-x="591" 
d="M231 0v597h-204v103h537v-103h-205v-597h-128z" />
    <glyph glyph-name="U" unicode="U" horiz-adv-x="681" 
d="M338 -12q-77 0 -139 30.5t-98.5 92.5t-36.5 157v432h128v-433q0 -82 39.5 -122t109.5 -40q69 0 109 40t40 122v433h128v-432q0 -95 -38 -157t-101.5 -92.5t-140.5 -30.5z" />
    <glyph glyph-name="V" unicode="V" horiz-adv-x="699" 
d="M271 0l-256 700h137l198 -569l199 569h135l-256 -700h-157z" />
    <glyph glyph-name="W" unicode="W" horiz-adv-x="1010" 
d="M210 0l-185 700h137l126 -557l148 557h141l144 -557l126 557h138l-190 -700h-152l-139 519l-143 -519h-151z" />
    <glyph glyph-name="X" unicode="X" horiz-adv-x="659" 
d="M34 0l219 354l-222 346h147l157 -244l144 244h144l-219 -352l224 -348h-147l-159 247l-144 -247h-144z" />
    <glyph glyph-name="Y" unicode="Y" horiz-adv-x="625" 
d="M249 0v249l-235 451h145l155 -323l154 323h143l-234 -451v-249h-128z" />
    <glyph glyph-name="Z" unicode="Z" horiz-adv-x="566" 
d="M47 0v98l322 495h-319v107h467v-98l-324 -495h326v-107h-472z" />
    <glyph glyph-name="bracketleft" unicode="[" horiz-adv-x="360" 
d="M68 -170v981h238v-104h-118v-772h118v-105h-238z" />
    <glyph glyph-name="backslash" unicode="\" horiz-adv-x="421" 
d="M273 -111l-250 888h125l250 -888h-125z" />
    <glyph glyph-name="bracketright" unicode="]" horiz-adv-x="360" 
d="M54 -170v105h118v772h-118v104h238v-981h-238z" />
    <glyph glyph-name="asciicircum" unicode="^" horiz-adv-x="665" 
d="M33 170l239 530h122l238 -530h-130l-169 379l-170 -379h-130z" />
    <glyph glyph-name="underscore" unicode="_" horiz-adv-x="681" 
d="M54 -160v122h573v-122h-573z" />
    <glyph glyph-name="grave" unicode="`" horiz-adv-x="258" 
d="M242 536l-226 108v104l226 -122v-90z" />
    <glyph glyph-name="a" unicode="a" horiz-adv-x="577" 
d="M236 -12q-64 0 -105 20.5t-61 54.5t-20 75q0 69 54 112t162 43h126v12q0 51 -29 75t-72 24q-39 0 -68 -18.5t-36 -54.5h-125q5 54 36.5 94t81.5 61.5t112 21.5q106 0 167 -53t61 -150v-305h-109l-12 80q-22 -40 -61.5 -66t-101.5 -26zM265 88q55 0 85.5 36t38.5 89h-109
q-51 0 -73 -18.5t-22 -45.5q0 -29 22 -45t58 -16z" />
    <glyph glyph-name="b" unicode="b" horiz-adv-x="652" 
d="M359 -12q-56 0 -98 21t-68 59l-14 -68h-114v720h128v-295q24 33 63.5 58t102.5 25q70 0 125 -34t87 -93t32 -134t-32 -133.5t-87 -92t-125 -33.5zM332 100q61 0 101 41t40 106t-40 107t-101 42q-62 0 -101.5 -41.5t-39.5 -106.5t39.5 -106.5t101.5 -41.5z" />
    <glyph glyph-name="c" unicode="c" horiz-adv-x="600" 
d="M308 -12q-76 0 -134 33t-91.5 92t-33.5 135t33.5 135t91.5 92t134 33q95 0 160 -49.5t83 -136.5h-135q-10 36 -39.5 56.5t-69.5 20.5q-53 0 -90 -40t-37 -111t37 -111t90 -40q40 0 69.5 20t39.5 57h135q-18 -84 -83 -135t-160 -51z" />
    <glyph glyph-name="d" unicode="d" horiz-adv-x="652" 
d="M293 -12q-70 0 -125 34t-87 93t-32 134t32 133.5t87 92t125 33.5q56 0 98 -21t68 -59v292h128v-720h-114l-14 71q-24 -33 -63.5 -58t-102.5 -25zM320 100q62 0 101.5 41.5t39.5 106.5t-39.5 106.5t-101.5 41.5q-61 0 -101 -41t-40 -106t40 -107t101 -42z" />
    <glyph glyph-name="e" unicode="e" horiz-adv-x="598" 
d="M306 -12q-75 0 -133 32t-91 90t-33 134q0 77 32.5 137t90 93.5t135.5 33.5q73 0 129 -32t87.5 -87.5t31.5 -123.5q0 -11 -0.5 -23t-1.5 -25h-377q4 -58 40.5 -91t88.5 -33q39 0 65.5 17.5t39.5 45.5h130q-14 -47 -46.5 -85.5t-80 -60.5t-107.5 -22zM307 404
q-47 0 -83 -26.5t-46 -80.5h247q-3 49 -36 78t-82 29z" />
    <glyph glyph-name="f" unicode="f" horiz-adv-x="359" 
d="M88 0v389h-68v107h68v58q0 90 45.5 128t123.5 38h55v-109h-35q-33 0 -47 -13t-14 -44v-58h107v-107h-107v-389h-128z" />
    <glyph glyph-name="g" unicode="g" horiz-adv-x="569" 
d="M275 148q-36 0 -67 8l-37 -37q17 -9 46 -15t94 -12q99 -9 144 -47t45 -105q0 -44 -24 -83.5t-74 -64t-128 -24.5q-106 0 -171 39.5t-65 118.5q0 67 65 116q-20 9 -34.5 19t-25.5 21v23l87 92q-58 51 -58 131q0 50 24.5 91t69.5 65t109 24q42 0 78 -12h188v-78l-85 -6
q20 -38 20 -84q0 -50 -24 -91t-69.5 -65t-107.5 -24zM275 246q39 0 64.5 21t25.5 60t-25.5 60t-64.5 21q-41 0 -66 -21t-25 -60t25 -60t66 -21zM155 -61q0 -37 34.5 -55.5t84.5 -18.5q48 0 78 19.5t30 52.5q0 27 -19.5 45t-77.5 22q-41 3 -76 9q-29 -16 -41.5 -35t-12.5 -39
z" />
    <glyph glyph-name="h" unicode="h" horiz-adv-x="608" 
d="M65 0v720h128v-300q25 41 67.5 64.5t97.5 23.5q92 0 142.5 -58t50.5 -170v-280h-127v268q0 64 -25.5 98t-80.5 34q-54 0 -89.5 -38t-35.5 -106v-256h-128z" />
    <glyph glyph-name="i" unicode="i" horiz-adv-x="267" 
d="M134 573q-35 0 -57.5 21t-22.5 53t22.5 52.5t57.5 20.5t57.5 -20.5t22.5 -52.5t-22.5 -53t-57.5 -21zM70 0v496h128v-496h-128z" />
    <glyph glyph-name="j" unicode="j" horiz-adv-x="268" 
d="M136 573q-35 0 -57.5 21t-22.5 53t22.5 52.5t57.5 20.5t57.5 -20.5t22.5 -52.5t-22.5 -53t-57.5 -21zM-29 -220v109h39q33 0 47 13t14 44v550h128v-550q0 -90 -45.5 -128t-123.5 -38h-59z" />
    <glyph glyph-name="k" unicode="k" horiz-adv-x="568" 
d="M65 0v720h128v-425l176 201h152l-203 -226l236 -270h-160l-201 249v-249h-128z" />
    <glyph glyph-name="l" unicode="l" horiz-adv-x="259" 
d="M65 0v720h128v-720h-128z" />
    <glyph glyph-name="m" unicode="m" horiz-adv-x="937" 
d="M65 0v496h113l11 -67q24 36 63.5 57.5t91.5 21.5q115 0 163 -89q27 41 72.5 65t99.5 24q97 0 149 -58t52 -170v-280h-128v268q0 64 -24.5 98t-75.5 34q-52 0 -83.5 -38t-31.5 -106v-256h-128v268q0 64 -25 98t-77 34q-51 0 -82.5 -38t-31.5 -106v-256h-128z" />
    <glyph glyph-name="n" unicode="n" horiz-adv-x="608" 
d="M65 0v496h113l10 -84q23 44 66.5 70t102.5 26q92 0 143 -58t51 -170v-280h-128v268q0 64 -26 98t-81 34q-54 0 -88.5 -38t-34.5 -106v-256h-128z" />
    <glyph glyph-name="o" unicode="o" horiz-adv-x="606" 
d="M303 -12q-72 0 -129.5 33t-91 91.5t-33.5 135.5t34 135.5t91.5 91.5t129.5 33q71 0 128.5 -33t91 -91.5t33.5 -135.5t-33.5 -135.5t-91.5 -91.5t-129 -33zM303 99q50 0 87 37.5t37 111.5t-37 111.5t-86 37.5q-51 0 -87.5 -37.5t-36.5 -111.5t36.5 -111.5t86.5 -37.5z" />
    <glyph glyph-name="p" unicode="p" horiz-adv-x="652" 
d="M65 -220v716h114l14 -71q24 33 63.5 58t102.5 25q70 0 125 -34t87 -93t32 -134t-32 -133.5t-87 -92t-125 -33.5q-56 0 -98 21t-68 59v-288h-128zM332 100q61 0 101 41t40 106t-40 107t-101 42q-62 0 -101.5 -41.5t-39.5 -106.5t39.5 -106.5t101.5 -41.5z" />
    <glyph glyph-name="q" unicode="q" horiz-adv-x="652" 
d="M459 -220v291q-24 -33 -63.5 -58t-102.5 -25q-70 0 -125 34t-87 93t-32 134t32 133.5t87 92t125 33.5q56 0 98 -21t68 -59l14 68h114v-716h-128zM320 100q62 0 101.5 41.5t39.5 106.5t-39.5 106.5t-101.5 41.5q-61 0 -101 -41t-40 -106t40 -107t101 -42z" />
    <glyph glyph-name="r" unicode="r" horiz-adv-x="396" 
d="M65 0v496h114l12 -93q27 48 73.5 76.5t109.5 28.5v-135h-36q-42 0 -75 -13t-51.5 -45t-18.5 -89v-226h-128z" />
    <glyph glyph-name="s" unicode="s" horiz-adv-x="525" 
d="M270 -12q-66 0 -116 21.5t-80 59.5t-36 88h129q6 -29 32.5 -49.5t68.5 -20.5t61.5 17t19.5 39q0 32 -28 43.5t-78 22.5q-32 7 -65 17t-60.5 25.5t-44.5 40t-17 60.5q0 66 52.5 111t147.5 45q88 0 140.5 -41t62.5 -113h-121q-11 55 -83 55q-36 0 -55.5 -14t-19.5 -35
q0 -22 29 -35t77 -24q52 -12 95.5 -26.5t69.5 -43t26 -81.5q1 -46 -24 -83t-72 -58t-111 -21z" />
    <glyph glyph-name="t" unicode="t" horiz-adv-x="421" 
d="M286 0q-78 0 -125 38t-47 135v216h-85v107h85l15 133h113v-133h134v-107h-134v-217q0 -36 15.5 -49.5t53.5 -13.5h62v-109h-87z" />
    <glyph glyph-name="u" unicode="u" horiz-adv-x="608" 
d="M251 -12q-93 0 -143.5 58t-50.5 170v280h127v-268q0 -64 26 -98t82 -34q53 0 87.5 38t34.5 106v256h128v-496h-113l-10 84q-23 -44 -66.5 -70t-101.5 -26z" />
    <glyph glyph-name="v" unicode="v" horiz-adv-x="553" 
d="M199 0l-182 496h134l126 -375l126 375h134l-183 -496h-155z" />
    <glyph glyph-name="w" unicode="w" horiz-adv-x="802" 
d="M162 0l-145 496h127l86 -357l100 357h142l100 -357l87 357h127l-146 -496h-133l-106 371l-106 -371h-133z" />
    <glyph glyph-name="x" unicode="x" horiz-adv-x="561" 
d="M18 0l180 248l-180 248h137l126 -176l125 176h138l-181 -248l181 -248h-138l-125 176l-126 -176h-137z" />
    <glyph glyph-name="y" unicode="y" horiz-adv-x="597" 
d="M127 -220l115 253h-30l-193 463h139l139 -349l145 349h136l-315 -716h-136z" />
    <glyph glyph-name="z" unicode="z" horiz-adv-x="479" 
d="M33 0v103l253 287h-250v106h396v-103l-257 -287h262v-106h-404z" />
    <glyph glyph-name="braceleft" unicode="{" horiz-adv-x="462" 
d="M338 -173q-77 0 -124 42t-47 124q0 33 5 61t10.5 56.5t5.5 63.5q0 34 -21.5 60.5t-77.5 33.5v103q56 7 77.5 32.5t21.5 61.5q0 34 -5.5 62.5t-10.5 56.5t-5 62q0 81 47 123t124 42h63v-106h-39q-72 0 -72 -71q0 -39 9.5 -78.5t9.5 -95.5q0 -53 -26 -90.5t-83 -49.5v-2
q57 -12 83 -49.5t26 -90.5q0 -56 -9.5 -95.5t-9.5 -78.5q0 -71 72 -71h39v-106h-63z" />
    <glyph glyph-name="bar" unicode="|" horiz-adv-x="264" 
d="M68 -100v820h128v-820h-128z" />
    <glyph glyph-name="braceright" unicode="}" horiz-adv-x="462" 
d="M62 -173v106h38q73 0 73 71q0 39 -10 78.5t-10 95.5q0 53 26 90.5t84 49.5v2q-58 12 -84 49.5t-26 90.5q0 56 10 95.5t10 78.5q0 71 -73 71h-38v106h62q77 0 124.5 -42t47.5 -123q0 -34 -5.5 -62t-11 -56.5t-5.5 -62.5q0 -36 22 -61.5t78 -32.5v-103q-56 -7 -78 -33.5
t-22 -60.5q0 -35 5.5 -63.5t11 -56.5t5.5 -61q0 -82 -47.5 -124t-124.5 -42h-62z" />
    <glyph glyph-name="asciitilde" unicode="~" horiz-adv-x="573" 
d="M373 228q-30 0 -54 10.5t-44.5 23.5t-40.5 23t-42 10q-55 0 -65 -66h-95q16 94 60 136.5t107 42.5q31 0 55.5 -10t45 -23t40.5 -23t41 -10q26 0 43 17t21 49h96q-15 -94 -59 -137t-109 -43z" />
    <glyph glyph-name="uni00A0" unicode="&#xa0;" horiz-adv-x="238" 
 />
    <glyph glyph-name="exclamdown" unicode="&#xa1;" horiz-adv-x="296" 
d="M149 417q-36 0 -58.5 21.5t-22.5 53.5t22.5 53.5t58.5 21.5q34 0 56.5 -21.5t22.5 -53.5t-22.5 -53.5t-56.5 -21.5zM78 -139l14 478h108l15 -478h-137z" />
    <glyph glyph-name="cent" unicode="&#xa2;" horiz-adv-x="600" 
d="M247 -104v98q-59 13 -103.5 48t-69.5 87.5t-25 118.5q0 65 25 118t69.5 88t103.5 48v98h118v-97q73 -14 122 -61t64 -120h-135q-10 36 -39.5 56.5t-69.5 20.5q-53 0 -90 -40t-37 -111t37 -111t90 -40q40 0 69.5 20t39.5 57h135q-15 -71 -64 -119t-122 -62v-97h-118z" />
    <glyph glyph-name="sterling" unicode="&#xa3;" horiz-adv-x="621" 
d="M76 0v75q39 39 60 80.5t21 107.5q0 17 -3 35h-114v88h86q-9 26 -15.5 54t-6.5 59q0 66 28.5 114t80 73.5t118.5 25.5q76 0 126 -29t76 -78t29 -109h-118q-2 47 -30 78.5t-81 31.5q-44 0 -76 -27t-32 -84q0 -26 8 -53.5t18 -55.5h187v-88h-163q3 -18 3 -35q0 -41 -16 -83
t-53 -78h356v-102h-489z" />
    <glyph glyph-name="currency" unicode="&#xa4;" horiz-adv-x="555" 
d="M115 81l-52 53l57 57q-33 44 -33 107q0 62 34 107l-58 59l52 52l63 -63q44 22 101 22q55 0 99 -22l62 63l52 -52l-57 -58q35 -45 35 -108t-34 -108l56 -56l-52 -53l-61 61q-45 -23 -101 -23q-58 0 -102 23zM278 201q31 0 58 22.5t27 73.5t-26.5 74t-58.5 23
q-33 0 -58.5 -23t-25.5 -74t25.5 -73.5t58.5 -22.5z" />
    <glyph glyph-name="yen" unicode="&#xa5;" horiz-adv-x="641" 
d="M57 150v88h200v11l-34 65h-166v88h120l-156 298h145l155 -334l155 334h144l-155 -298h120v-88l-166 -1l-34 -64v-11h200v-88h-200v-150h-128v150h-200z" />
    <glyph glyph-name="brokenbar" unicode="&#xa6;" horiz-adv-x="264" 
d="M68 394v326h128v-326h-128zM68 -100v326h128v-326h-128z" />
    <glyph glyph-name="section" unicode="&#xa7;" horiz-adv-x="609" 
d="M301 -232q-71 0 -124 25t-83.5 70t-32.5 107h137q1 -37 28.5 -65.5t76.5 -28.5q42 -1 70 20.5t28 62.5q0 35 -21.5 54t-60 31.5t-86.5 28.5q-52 18 -95.5 43.5t-69 65t-25.5 98.5q0 81 56 137q-27 39 -27 95q-1 62 29.5 106.5t83.5 69t122 24.5q70 0 123.5 -25t84 -70
t32.5 -107h-137q-1 37 -28.5 65.5t-76.5 28.5q-42 1 -70.5 -20.5t-28.5 -62.5q0 -35 22 -54t60 -31.5t87 -28.5q52 -18 95 -43.5t69 -65t26 -98.5q0 -39 -14 -74.5t-42 -62.5q27 -39 27 -95q0 -62 -30 -106.5t-83 -69t-122 -24.5zM408 134q21 23 21 57q0 37 -22 59t-60 38
t-88 34q-19 6 -33 12t-26 12q-21 -23 -21 -57q0 -36 21 -58.5t59.5 -38.5t89.5 -34q16 -5 30.5 -11.5t28.5 -12.5z" />
    <glyph glyph-name="dieresis" unicode="&#xa8;" horiz-adv-x="345" 
d="M263 564q-26 0 -44 18t-18 44t18 44t44 18t43.5 -18t17.5 -44t-17.5 -44t-43.5 -18zM82 564q-26 0 -43.5 18t-17.5 44t17.5 44t43.5 18t44 -18t18 -44t-18 -44t-44 -18z" />
    <glyph glyph-name="copyright" unicode="&#xa9;" horiz-adv-x="786" 
d="M393 -6q-103 0 -181.5 46t-123 126.5t-44.5 185.5q0 104 44.5 184.5t123 126t181.5 45.5q104 0 182.5 -45.5t122.5 -126t44 -184.5q0 -105 -44 -185.5t-122.5 -126.5t-182.5 -46zM393 41q93 0 160 39t103.5 109t36.5 163t-36.5 163t-103.5 108.5t-160 38.5
q-92 0 -159 -38.5t-103.5 -108.5t-36.5 -163t36.5 -163t103.5 -109t159 -39zM394 123q-62 0 -112 27.5t-78.5 79t-28.5 122.5t28.5 122t78.5 79t112 28q77 0 133.5 -42t73.5 -117h-112q-11 33 -36.5 51.5t-61.5 18.5q-47 0 -78.5 -35t-31.5 -105t31.5 -105.5t78.5 -35.5
q38 0 62 19t36 51h112q-17 -72 -73.5 -115t-133.5 -43z" />
    <glyph glyph-name="ordfeminine" unicode="&#xaa;" horiz-adv-x="459" 
d="M197 348q-48 0 -86 22.5t-60 63.5t-22 96t22 95.5t59.5 62.5t84.5 22t78.5 -17.5t47.5 -44.5l9 57h90v-351h-90l-9 55q-15 -27 -46.5 -44t-77.5 -17zM225 425q40 0 68 27.5t28 76.5q0 50 -28 76.5t-68 26.5q-38 0 -66 -26.5t-28 -76.5t28 -77t66 -27z" />
    <glyph glyph-name="guillemotleft" unicode="&#xab;" horiz-adv-x="505" 
d="M334 120l-90 175l90 175h121l-93 -175l93 -175h-121zM133 120l-91 175l91 175h120l-93 -175l93 -175h-120z" />
    <glyph glyph-name="logicalnot" unicode="&#xac;" horiz-adv-x="689" 
d="M511 201v137h-465v99h593v-236h-128z" />
    <glyph glyph-name="uni00AD" unicode="&#xad;" horiz-adv-x="600" 
d="M54 236v107h419v-107h-419z" />
    <glyph glyph-name="registered" unicode="&#xae;" horiz-adv-x="509" 
d="M255 293q-61 0 -108.5 27t-74.5 74.5t-27 107.5q0 61 27 108.5t74.5 74.5t108.5 27t108 -27t73.5 -74.5t26.5 -108.5q0 -60 -26.5 -107.5t-73.5 -74.5t-108 -27zM255 339q72 0 115.5 45.5t43.5 117.5q0 73 -43.5 118t-115.5 45q-73 0 -116.5 -45t-43.5 -118
q0 -72 43.5 -117.5t116.5 -45.5zM169 398v213h104q34 0 54.5 -18t20.5 -49q0 -47 -45 -62l54 -83l-68 -1l-47 79h-13v-79h-60zM228 520h37q9 0 15.5 5t6.5 16q0 10 -6.5 14.5t-15.5 4.5h-37v-40z" />
    <glyph glyph-name="macron" unicode="&#xaf;" horiz-adv-x="406" 
d="M16 579v91h374v-91h-374z" />
    <glyph glyph-name="degree" unicode="&#xb0;" horiz-adv-x="360" 
d="M179 426q-38 0 -70 17.5t-51.5 49.5t-19.5 75q0 44 19.5 76.5t52 50t70.5 17.5q39 0 71 -17.5t51.5 -50t19.5 -76.5q0 -43 -19.5 -75t-52 -49.5t-71.5 -17.5zM179 508q21 0 39.5 15t18.5 46t-18 46t-39 15q-20 0 -38.5 -15t-18.5 -46t18 -46t38 -15z" />
    <glyph glyph-name="plusminus" unicode="&#xb1;" horiz-adv-x="617" 
d="M62 282v107h192v127h109v-127h192v-107h-192v-128h-109v128h-192zM62 0v112h493v-112h-493z" />
    <glyph glyph-name="uni00B2" unicode="&#xb2;" horiz-adv-x="357" 
d="M37 352v72l117 83q28 21 45 42t17 48q0 21 -11.5 32t-28.5 11q-40 0 -45 -47h-97q3 51 41.5 85t109.5 34q67 0 101 -33.5t34 -75.5q0 -39 -26.5 -68t-80.5 -61l-73 -45h179v-77h-282z" />
    <glyph glyph-name="uni00B3" unicode="&#xb3;" horiz-adv-x="352" 
d="M175 348q-74 0 -112 30t-42 84h100q3 -24 16 -33.5t34 -9.5t34 11t13 32q0 22 -14.5 33t-38.5 11h-40v49h36q24 0 38.5 11t14.5 33q0 19 -12.5 30t-34.5 11q-41 0 -49 -39h-93q3 45 40.5 78t111.5 33q62 0 101.5 -29.5t39.5 -73.5q0 -32 -17.5 -51.5t-48.5 -26.5v-3
q32 -9 51.5 -29t19.5 -53q0 -43 -40 -70.5t-108 -27.5z" />
    <glyph glyph-name="acute" unicode="&#xb4;" horiz-adv-x="258" 
d="M16 536v90l226 122v-104z" />
    <glyph glyph-name="uni00B5" unicode="&#xb5;" horiz-adv-x="617" 
d="M65 -220v716h128v-268q0 -64 26.5 -98t81.5 -34q54 0 88 38t34 106v256h128v-496h-112l-10 84q-24 -44 -67 -70t-102 -26q-40 0 -67 16v-224h-128z" />
    <glyph glyph-name="paragraph" unicode="&#xb6;" horiz-adv-x="641" 
d="M285 -100v383h-17q-83 0 -135 28.5t-77 76t-25 103.5t25 103.5t77.5 76.5t134.5 29h305v-800h-108v702h-72v-702h-108z" />
    <glyph glyph-name="periodcentered" unicode="&#xb7;" horiz-adv-x="240" 
d="M120 253q-35 0 -57.5 22t-22.5 53q0 32 22.5 54t57.5 22t57.5 -22t22.5 -54q0 -31 -22.5 -53t-57.5 -22z" />
    <glyph glyph-name="cedilla" unicode="&#xb8;" horiz-adv-x="293" 
d="M16 -263v74h112q53 0 53 36q0 35 -53 35h-61v125h80v-57q34 1 63.5 -10t48 -34.5t18.5 -60.5q0 -54 -39 -81t-91 -27h-131z" />
    <glyph glyph-name="uni00B9" unicode="&#xb9;" horiz-adv-x="233" 
d="M93 352v259l-69 -16v61l111 48h57v-352h-99z" />
    <glyph glyph-name="ordmasculine" unicode="&#xba;" horiz-adv-x="446" 
d="M222 349q-57 0 -100.5 23t-68 64.5t-24.5 94.5q0 54 25 94.5t68.5 63.5t100.5 23t100.5 -23t68.5 -63.5t25 -94.5q0 -53 -25 -94.5t-69 -64.5t-101 -23zM222 427q37 0 65.5 26t28.5 78t-28 78.5t-66 26.5q-37 0 -64.5 -26.5t-27.5 -78.5t27 -78t65 -26z" />
    <glyph glyph-name="guillemotright" unicode="&#xbb;" horiz-adv-x="505" 
d="M252 120l93 175l-93 175h121l90 -175l-90 -175h-121zM50 120l93 175l-93 175h121l90 -175l-90 -175h-121z" />
    <glyph glyph-name="onequarter" unicode="&#xbc;" horiz-adv-x="706" 
d="M109 352v259l-70 -16v61l112 48h56v-352h-98zM75 0l377 700h122l-376 -700h-123zM532 0v66h-188v54l153 233h133v-229h45v-58h-45v-66h-98zM439 126h97v153z" />
    <glyph glyph-name="onehalf" unicode="&#xbd;" horiz-adv-x="748" 
d="M109 352v259l-70 -16v61l112 48h56v-352h-98zM73 0l373 700h123l-373 -700h-123zM407 -1v72l117 83q29 21 45.5 42t16.5 48q0 21 -11 32t-28 11q-40 0 -45 -47h-98q3 51 41.5 85t109.5 34q67 0 101 -33.5t34 -75.5q0 -39 -26 -68t-81 -61l-73 -45h180v-77h-283z" />
    <glyph glyph-name="threequarters" unicode="&#xbe;" horiz-adv-x="809" 
d="M200 348q-75 0 -113 30t-42 84h100q3 -24 16.5 -33.5t33.5 -9.5q22 0 35 11t13 32q0 22 -15 33t-39 11h-40v49h37q24 0 38 11t14 33q0 19 -12.5 30t-33.5 11q-41 0 -49 -39h-93q3 45 40 78t111 33q63 0 102.5 -29.5t39.5 -73.5q0 -32 -18 -51.5t-49 -26.5v-3
q33 -9 52 -29t19 -53q0 -43 -40 -70.5t-107 -27.5zM179 0l380 700h123l-380 -700h-123zM635 0v66h-188v54l147 233h140v-229h44v-58h-44v-66h-99zM543 124h96v161z" />
    <glyph glyph-name="questiondown" unicode="&#xbf;" horiz-adv-x="527" 
d="M333 412q-35 0 -57.5 22t-22.5 54q0 31 22.5 53t57.5 22t57.5 -22t22.5 -53q0 -32 -22.5 -54t-57.5 -22zM268 -156q-68 0 -119.5 25t-80.5 72t-29 113q0 69 30 114t83 67.5t121 22.5l4 81h113l4 -166h-46q-51 0 -93 -9t-67 -34.5t-25 -75.5q0 -48 29 -76t77 -28
q50 0 78 28t28 75h121q1 -61 -26 -108t-78.5 -74t-123.5 -27z" />
    <glyph glyph-name="Agrave" unicode="&#xc0;" horiz-adv-x="701" 
d="M23 0l256 700h144l256 -700h-136l-56 162h-273l-57 -162h-134zM249 262h203l-102 291zM401 740l-226 108v104l226 -122v-90z" />
    <glyph glyph-name="Aacute" unicode="&#xc1;" horiz-adv-x="701" 
d="M23 0l256 700h144l256 -700h-136l-56 162h-273l-57 -162h-134zM249 262h203l-102 291zM301 740v90l226 122v-104z" />
    <glyph glyph-name="Acircumflex" unicode="&#xc2;" horiz-adv-x="701" 
d="M23 0l256 700h144l256 -700h-136l-56 162h-273l-57 -162h-134zM249 262h203l-102 291zM205 747v92l146 80l146 -80v-92l-146 82z" />
    <glyph glyph-name="Atilde" unicode="&#xc3;" horiz-adv-x="701" 
d="M23 0l256 700h144l256 -700h-136l-56 162h-273l-57 -162h-134zM249 262h203l-102 291zM414 752q-28 0 -48 11.5t-37 23t-38 11.5q-36 0 -43 -45h-68q10 64 40.5 94t76.5 30q28 0 48 -11.5t37 -23t38 -11.5q17 0 28.5 11t14.5 34h68q-9 -64 -40.5 -94t-76.5 -30z" />
    <glyph glyph-name="Adieresis" unicode="&#xc4;" horiz-adv-x="701" 
d="M23 0l256 700h144l256 -700h-136l-56 162h-273l-57 -162h-134zM249 262h203l-102 291zM441 768q-26 0 -44 18t-18 44t18 44t44 18t44 -18t18 -44t-18 -44t-44 -18zM261 768q-26 0 -44 18t-18 44t18 44t44 18t44 -18t18 -44t-18 -44t-44 -18z" />
    <glyph glyph-name="Aring" unicode="&#xc5;" horiz-adv-x="701" 
d="M23 0l256 700h144l256 -700h-136l-56 162h-273l-57 -162h-134zM249 262h203l-102 291zM351 751q-46 0 -79.5 30t-33.5 82t33.5 82t79.5 30q48 0 81.5 -30t33.5 -82t-33.5 -82t-81.5 -30zM351 809q23 0 38 15t15 39q0 25 -15 39.5t-38 14.5q-21 0 -36 -14.5t-15 -39.5
q0 -24 15 -39t36 -15z" />
    <glyph glyph-name="AE" unicode="&#xc6;" horiz-adv-x="939" 
d="M23 0l379 700h483v-101h-271v-194h241v-99h-241v-205h271v-101h-399v138h-249l-75 -138h-139zM486 602l-196 -365h196v365z" />
    <glyph glyph-name="Ccedilla" unicode="&#xc7;" horiz-adv-x="737" 
d="M385 -12q-106 0 -182 45.5t-117 127t-41 188.5t41 189t117 128t182 46q126 0 206.5 -62.5t100.5 -175.5h-141q-13 57 -55.5 89.5t-112.5 32.5q-97 0 -152 -66t-55 -181t55 -180.5t152 -65.5q70 0 112.5 30.5t55.5 84.5h141q-20 -108 -100.5 -169t-206.5 -61zM301 -265v74
h112q53 0 53 36q0 35 -53 35h-61v125h80v-57q34 1 63.5 -10t48 -34.5t18.5 -60.5q0 -54 -39 -81t-91 -27h-131z" />
    <glyph glyph-name="Egrave" unicode="&#xc8;" horiz-adv-x="578" 
d="M68 0v700h457v-103h-329v-192h299v-100h-299v-202h329v-103h-457zM349 740l-226 108v104l226 -122v-90z" />
    <glyph glyph-name="Eacute" unicode="&#xc9;" horiz-adv-x="578" 
d="M68 0v700h457v-103h-329v-192h299v-100h-299v-202h329v-103h-457zM249 740v90l226 122v-104z" />
    <glyph glyph-name="Ecircumflex" unicode="&#xca;" horiz-adv-x="578" 
d="M68 0v700h457v-103h-329v-192h299v-100h-299v-202h329v-103h-457zM153 747v92l146 80l146 -80v-92l-146 82z" />
    <glyph glyph-name="Edieresis" unicode="&#xcb;" horiz-adv-x="578" 
d="M68 0v700h457v-103h-329v-192h299v-100h-299v-202h329v-103h-457zM389 768q-26 0 -44 18t-18 44t18 44t44 18t44 -18t18 -44t-18 -44t-44 -18zM209 768q-26 0 -44 18t-18 44t18 44t44 18t44 -18t18 -44t-18 -44t-44 -18z" />
    <glyph glyph-name="Igrave" unicode="&#xcc;" horiz-adv-x="264" 
d="M68 0v700h128v-700h-128zM182 740l-226 108v104l226 -122v-90z" />
    <glyph glyph-name="Iacute" unicode="&#xcd;" horiz-adv-x="264" 
d="M68 0v700h128v-700h-128zM82 740v90l226 122v-104z" />
    <glyph glyph-name="Icircumflex" unicode="&#xce;" horiz-adv-x="264" 
d="M68 0v700h128v-700h-128zM-14 747v92l146 80l146 -80v-92l-146 82z" />
    <glyph glyph-name="Idieresis" unicode="&#xcf;" horiz-adv-x="264" 
d="M68 0v700h128v-700h-128zM222 768q-26 0 -44 18t-18 44t18 44t44 18t44 -18t18 -44t-18 -44t-44 -18zM42 768q-26 0 -44 18t-18 44t18 44t44 18t44 -18t18 -44t-18 -44t-44 -18z" />
    <glyph glyph-name="Eth" unicode="&#xd0;" horiz-adv-x="724" 
d="M81 0v295h-75v110h75v295h239q123 0 202.5 -43.5t118 -122t38.5 -184.5t-38.5 -184.5t-118 -122t-202.5 -43.5h-239zM209 110h105q88 0 139 28.5t73 82t22 129.5q0 75 -22 129t-73 83t-139 29h-105v-186h177v-110h-177v-185z" />
    <glyph glyph-name="Ntilde" unicode="&#xd1;" horiz-adv-x="721" 
d="M68 0v700h128l329 -493v493h128v-700h-128l-329 492v-492h-128zM424 752q-28 0 -48 11.5t-37 23t-38 11.5q-36 0 -43 -45h-68q10 64 40.5 94t76.5 30q28 0 48 -11.5t37 -23t38 -11.5q17 0 28.5 11t14.5 34h68q-9 -64 -40.5 -94t-76.5 -30z" />
    <glyph glyph-name="Ograve" unicode="&#xd2;" horiz-adv-x="791" 
d="M396 -12q-105 0 -183.5 46t-123 127.5t-44.5 188.5t44.5 188.5t123 127.5t183.5 46q104 0 183 -46t123 -127.5t44 -188.5t-44 -188.5t-123 -127.5t-183 -46zM396 103q100 0 159.5 66t59.5 181t-59.5 181t-159.5 66t-160 -66t-60 -181t60 -181t160 -66zM446 740l-226 108
v104l226 -122v-90z" />
    <glyph glyph-name="Oacute" unicode="&#xd3;" horiz-adv-x="791" 
d="M396 -12q-105 0 -183.5 46t-123 127.5t-44.5 188.5t44.5 188.5t123 127.5t183.5 46q104 0 183 -46t123 -127.5t44 -188.5t-44 -188.5t-123 -127.5t-183 -46zM396 103q100 0 159.5 66t59.5 181t-59.5 181t-159.5 66t-160 -66t-60 -181t60 -181t160 -66zM346 740v90
l226 122v-104z" />
    <glyph glyph-name="Ocircumflex" unicode="&#xd4;" horiz-adv-x="791" 
d="M396 -12q-105 0 -183.5 46t-123 127.5t-44.5 188.5t44.5 188.5t123 127.5t183.5 46q104 0 183 -46t123 -127.5t44 -188.5t-44 -188.5t-123 -127.5t-183 -46zM396 103q100 0 159.5 66t59.5 181t-59.5 181t-159.5 66t-160 -66t-60 -181t60 -181t160 -66zM250 747v92l146 80
l146 -80v-92l-146 82z" />
    <glyph glyph-name="Otilde" unicode="&#xd5;" horiz-adv-x="791" 
d="M396 -12q-105 0 -183.5 46t-123 127.5t-44.5 188.5t44.5 188.5t123 127.5t183.5 46q104 0 183 -46t123 -127.5t44 -188.5t-44 -188.5t-123 -127.5t-183 -46zM396 103q100 0 159.5 66t59.5 181t-59.5 181t-159.5 66t-160 -66t-60 -181t60 -181t160 -66zM459 752
q-28 0 -48 11.5t-37 23t-38 11.5q-36 0 -43 -45h-68q10 64 40.5 94t76.5 30q28 0 48 -11.5t37 -23t38 -11.5q17 0 28.5 11t14.5 34h68q-9 -64 -40.5 -94t-76.5 -30z" />
    <glyph glyph-name="Odieresis" unicode="&#xd6;" horiz-adv-x="791" 
d="M396 -12q-105 0 -183.5 46t-123 127.5t-44.5 188.5t44.5 188.5t123 127.5t183.5 46q104 0 183 -46t123 -127.5t44 -188.5t-44 -188.5t-123 -127.5t-183 -46zM396 103q100 0 159.5 66t59.5 181t-59.5 181t-159.5 66t-160 -66t-60 -181t60 -181t160 -66zM486 768
q-26 0 -44 18t-18 44t18 44t44 18t44 -18t18 -44t-18 -44t-44 -18zM306 768q-26 0 -44 18t-18 44t18 44t44 18t44 -18t18 -44t-18 -44t-44 -18z" />
    <glyph glyph-name="multiply" unicode="&#xd7;" horiz-adv-x="514" 
d="M132 89l-76 75l125 126l-122 122l76 76l122 -123l125 126l75 -76l-125 -125l123 -123l-76 -75l-122 123z" />
    <glyph glyph-name="Oslash" unicode="&#xd8;" horiz-adv-x="784" 
d="M31 0l93 109q-38 46 -58.5 107.5t-20.5 133.5q0 107 44 188.5t123 127.5t183 46q57 0 107.5 -14.5t91.5 -41.5l38 44h122l-91 -105q40 -47 61 -109t21 -136q0 -107 -44 -188.5t-123 -127.5t-183 -46q-59 0 -110 15t-92 43l-40 -46h-122zM175 350q0 -83 33 -143l307 357
q-51 33 -120 33q-100 0 -160 -66t-60 -181zM395 103q100 0 160 66t60 181q0 86 -36 147l-308 -359q52 -35 124 -35z" />
    <glyph glyph-name="Ugrave" unicode="&#xd9;" horiz-adv-x="681" 
d="M338 -12q-77 0 -139 30.5t-98.5 92.5t-36.5 157v432h128v-433q0 -82 39.5 -122t109.5 -40q69 0 109 40t40 122v433h128v-432q0 -95 -38 -157t-101.5 -92.5t-140.5 -30.5zM390 740l-226 108v104l226 -122v-90z" />
    <glyph glyph-name="Uacute" unicode="&#xda;" horiz-adv-x="681" 
d="M338 -12q-77 0 -139 30.5t-98.5 92.5t-36.5 157v432h128v-433q0 -82 39.5 -122t109.5 -40q69 0 109 40t40 122v433h128v-432q0 -95 -38 -157t-101.5 -92.5t-140.5 -30.5zM290 740v90l226 122v-104z" />
    <glyph glyph-name="Ucircumflex" unicode="&#xdb;" horiz-adv-x="681" 
d="M338 -12q-77 0 -139 30.5t-98.5 92.5t-36.5 157v432h128v-433q0 -82 39.5 -122t109.5 -40q69 0 109 40t40 122v433h128v-432q0 -95 -38 -157t-101.5 -92.5t-140.5 -30.5zM194 747v92l146 80l146 -80v-92l-146 82z" />
    <glyph glyph-name="Udieresis" unicode="&#xdc;" horiz-adv-x="681" 
d="M338 -12q-77 0 -139 30.5t-98.5 92.5t-36.5 157v432h128v-433q0 -82 39.5 -122t109.5 -40q69 0 109 40t40 122v433h128v-432q0 -95 -38 -157t-101.5 -92.5t-140.5 -30.5zM430 768q-26 0 -44 18t-18 44t18 44t44 18t44 -18t18 -44t-18 -44t-44 -18zM250 768q-26 0 -44 18
t-18 44t18 44t44 18t44 -18t18 -44t-18 -44t-44 -18z" />
    <glyph glyph-name="Yacute" unicode="&#xdd;" horiz-adv-x="625" 
d="M249 0v249l-235 451h145l155 -323l154 323h143l-234 -451v-249h-128zM264 740v90l226 122v-104z" />
    <glyph glyph-name="Thorn" unicode="&#xde;" horiz-adv-x="607" 
d="M68 0v700h128v-135h131q84 0 139 -28.5t82 -77t27 -110.5q0 -57 -26 -105.5t-81 -78t-141 -29.5h-131v-136h-128zM196 239h123q67 0 96.5 30t29.5 80q0 52 -29.5 81.5t-96.5 29.5h-123v-221z" />
    <glyph glyph-name="germandbls" unicode="&#xdf;" horiz-adv-x="707" 
d="M474 -10q-92 0 -150 48.5t-68 136.5h121q4 -41 29 -65.5t66 -24.5q38 0 58.5 17.5t20.5 48.5q0 30 -19.5 49t-73.5 38q-82 28 -118 57t-36 75q0 28 13 47t32 32.5t37.5 26.5t31.5 28.5t13 38.5q0 38 -30.5 60t-81.5 22q-65 0 -95 -33.5t-30 -92.5v-499h-128v509
q0 65 30.5 115.5t88 79t139.5 28.5q73 0 125.5 -23.5t80.5 -63.5t28 -89q0 -30 -12.5 -51t-31.5 -36t-37.5 -27t-31 -24t-12.5 -28q0 -12 7.5 -22t30 -21t64.5 -26q75 -27 108 -65.5t33 -96.5q0 -75 -54.5 -122t-147.5 -47z" />
    <glyph glyph-name="agrave" unicode="&#xe0;" horiz-adv-x="577" 
d="M236 -12q-64 0 -105 20.5t-61 54.5t-20 75q0 69 54 112t162 43h126v12q0 51 -29 75t-72 24q-39 0 -68 -18.5t-36 -54.5h-125q5 54 36.5 94t81.5 61.5t112 21.5q106 0 167 -53t61 -150v-305h-109l-12 80q-22 -40 -61.5 -66t-101.5 -26zM265 88q55 0 85.5 36t38.5 89h-109
q-51 0 -73 -18.5t-22 -45.5q0 -29 22 -45t58 -16zM340 536l-226 108v104l226 -122v-90z" />
    <glyph glyph-name="aacute" unicode="&#xe1;" horiz-adv-x="577" 
d="M236 -12q-64 0 -105 20.5t-61 54.5t-20 75q0 69 54 112t162 43h126v12q0 51 -29 75t-72 24q-39 0 -68 -18.5t-36 -54.5h-125q5 54 36.5 94t81.5 61.5t112 21.5q106 0 167 -53t61 -150v-305h-109l-12 80q-22 -40 -61.5 -66t-101.5 -26zM265 88q55 0 85.5 36t38.5 89h-109
q-51 0 -73 -18.5t-22 -45.5q0 -29 22 -45t58 -16zM256 536v90l226 122v-104z" />
    <glyph glyph-name="acircumflex" unicode="&#xe2;" horiz-adv-x="577" 
d="M236 -12q-64 0 -105 20.5t-61 54.5t-20 75q0 69 54 112t162 43h126v12q0 51 -29 75t-72 24q-39 0 -68 -18.5t-36 -54.5h-125q5 54 36.5 94t81.5 61.5t112 21.5q106 0 167 -53t61 -150v-305h-109l-12 80q-22 -40 -61.5 -66t-101.5 -26zM265 88q55 0 85.5 36t38.5 89h-109
q-51 0 -73 -18.5t-22 -45.5q0 -29 22 -45t58 -16zM144 543v92l146 80l146 -80v-92l-146 82z" />
    <glyph glyph-name="atilde" unicode="&#xe3;" horiz-adv-x="577" 
d="M236 -12q-64 0 -105 20.5t-61 54.5t-20 75q0 69 54 112t162 43h126v12q0 51 -29 75t-72 24q-39 0 -68 -18.5t-36 -54.5h-125q5 54 36.5 94t81.5 61.5t112 21.5q106 0 167 -53t61 -150v-305h-109l-12 80q-22 -40 -61.5 -66t-101.5 -26zM265 88q55 0 85.5 36t38.5 89h-109
q-51 0 -73 -18.5t-22 -45.5q0 -29 22 -45t58 -16zM348 548q-28 0 -48 11.5t-37 23t-37 11.5q-37 0 -44 -45h-68q10 64 40.5 94t76.5 30q28 0 48 -11.5t37 -23t38 -11.5q17 0 28.5 11t14.5 34h69q-10 -64 -41 -94t-77 -30z" />
    <glyph glyph-name="adieresis" unicode="&#xe4;" horiz-adv-x="577" 
d="M236 -12q-64 0 -105 20.5t-61 54.5t-20 75q0 69 54 112t162 43h126v12q0 51 -29 75t-72 24q-39 0 -68 -18.5t-36 -54.5h-125q5 54 36.5 94t81.5 61.5t112 21.5q106 0 167 -53t61 -150v-305h-109l-12 80q-22 -40 -61.5 -66t-101.5 -26zM265 88q55 0 85.5 36t38.5 89h-109
q-51 0 -73 -18.5t-22 -45.5q0 -29 22 -45t58 -16zM380 564q-26 0 -44 18t-18 44t18 44t44 18t43.5 -18t17.5 -44t-17.5 -44t-43.5 -18zM199 564q-26 0 -43.5 18t-17.5 44t17.5 44t43.5 18t44 -18t18 -44t-18 -44t-44 -18z" />
    <glyph glyph-name="aring" unicode="&#xe5;" horiz-adv-x="577" 
d="M236 -12q-64 0 -105 20.5t-61 54.5t-20 75q0 69 54 112t162 43h126v12q0 51 -29 75t-72 24q-39 0 -68 -18.5t-36 -54.5h-125q5 54 36.5 94t81.5 61.5t112 21.5q106 0 167 -53t61 -150v-305h-109l-12 80q-22 -40 -61.5 -66t-101.5 -26zM265 88q55 0 85.5 36t38.5 89h-109
q-51 0 -73 -18.5t-22 -45.5q0 -29 22 -45t58 -16zM290 547q-46 0 -79.5 30t-33.5 82t33.5 82t79.5 30q48 0 81 -30t33 -82t-33 -82t-81 -30zM290 605q22 0 37.5 15t15.5 39q0 25 -15.5 39.5t-37.5 14.5q-21 0 -36.5 -14.5t-15.5 -39.5q0 -24 15.5 -39t36.5 -15z" />
    <glyph glyph-name="ae" unicode="&#xe6;" horiz-adv-x="941" 
d="M245 -12q-63 0 -106.5 20.5t-66 55t-22.5 75.5q0 70 52.5 113.5t159.5 43.5h133v9q0 51 -28.5 75t-69.5 24q-37 0 -65 -18t-35 -53h-125q5 53 36 92.5t80 61t109 21.5q59 0 105 -18.5t74 -53.5q33 34 78.5 53t97.5 19q73 0 128.5 -32t86.5 -87t31 -125q0 -10 -0.5 -22
t-1.5 -26h-370q5 -59 41 -91t84 -32q43 0 70.5 21.5t40.5 55.5h127q-13 -52 -46 -93t-81.5 -65t-109.5 -24q-65 0 -118.5 27t-87.5 75q-30 -44 -78 -73t-123 -29zM528 296h241q-4 51 -36.5 79.5t-79.5 28.5q-45 0 -80 -27t-45 -81zM263 88q51 0 84.5 35t42.5 84v9h-112
q-49 0 -71 -18t-22 -46q0 -29 21.5 -46.5t56.5 -17.5z" />
    <glyph glyph-name="ccedilla" unicode="&#xe7;" horiz-adv-x="600" 
d="M308 -12q-76 0 -134 33t-91.5 92t-33.5 135t33.5 135t91.5 92t134 33q95 0 160 -49.5t83 -136.5h-135q-10 36 -39.5 56.5t-69.5 20.5q-53 0 -90 -40t-37 -111t37 -111t90 -40q40 0 69.5 20t39.5 57h135q-18 -84 -83 -135t-160 -51zM218 -266v74h112q53 0 53 36
q0 35 -53 35h-61v125h80v-57q34 1 63.5 -10t48 -34.5t18.5 -60.5q0 -54 -39 -81t-91 -27h-131z" />
    <glyph glyph-name="egrave" unicode="&#xe8;" horiz-adv-x="598" 
d="M306 -12q-75 0 -133 32t-91 90t-33 134q0 77 32.5 137t90 93.5t135.5 33.5q73 0 129 -32t87.5 -87.5t31.5 -123.5q0 -11 -0.5 -23t-1.5 -25h-377q4 -58 40.5 -91t88.5 -33q39 0 65.5 17.5t39.5 45.5h130q-14 -47 -46.5 -85.5t-80 -60.5t-107.5 -22zM307 404
q-47 0 -83 -26.5t-46 -80.5h247q-3 49 -36 78t-82 29zM355 536l-226 108v104l226 -122v-90z" />
    <glyph glyph-name="eacute" unicode="&#xe9;" horiz-adv-x="598" 
d="M306 -12q-75 0 -133 32t-91 90t-33 134q0 77 32.5 137t90 93.5t135.5 33.5q73 0 129 -32t87.5 -87.5t31.5 -123.5q0 -11 -0.5 -23t-1.5 -25h-377q4 -58 40.5 -91t88.5 -33q39 0 65.5 17.5t39.5 45.5h130q-14 -47 -46.5 -85.5t-80 -60.5t-107.5 -22zM307 404
q-47 0 -83 -26.5t-46 -80.5h247q-3 49 -36 78t-82 29zM271 536v90l226 122v-104z" />
    <glyph glyph-name="ecircumflex" unicode="&#xea;" horiz-adv-x="598" 
d="M306 -12q-75 0 -133 32t-91 90t-33 134q0 77 32.5 137t90 93.5t135.5 33.5q73 0 129 -32t87.5 -87.5t31.5 -123.5q0 -11 -0.5 -23t-1.5 -25h-377q4 -58 40.5 -91t88.5 -33q39 0 65.5 17.5t39.5 45.5h130q-14 -47 -46.5 -85.5t-80 -60.5t-107.5 -22zM307 404
q-47 0 -83 -26.5t-46 -80.5h247q-3 49 -36 78t-82 29zM159 543v92l146 80l146 -80v-92l-146 82z" />
    <glyph glyph-name="edieresis" unicode="&#xeb;" horiz-adv-x="598" 
d="M306 -12q-75 0 -133 32t-91 90t-33 134q0 77 32.5 137t90 93.5t135.5 33.5q73 0 129 -32t87.5 -87.5t31.5 -123.5q0 -11 -0.5 -23t-1.5 -25h-377q4 -58 40.5 -91t88.5 -33q39 0 65.5 17.5t39.5 45.5h130q-14 -47 -46.5 -85.5t-80 -60.5t-107.5 -22zM307 404
q-47 0 -83 -26.5t-46 -80.5h247q-3 49 -36 78t-82 29zM395 564q-26 0 -44 18t-18 44t18 44t44 18t43.5 -18t17.5 -44t-17.5 -44t-43.5 -18zM214 564q-26 0 -43.5 18t-17.5 44t17.5 44t43.5 18t44 -18t18 -44t-18 -44t-44 -18z" />
    <glyph glyph-name="igrave" unicode="&#xec;" horiz-adv-x="259" 
d="M65 0v496h128v-496h-128zM180 536l-226 108v104l226 -122v-90z" />
    <glyph glyph-name="iacute" unicode="&#xed;" horiz-adv-x="259" 
d="M65 0v496h128v-496h-128zM96 536v90l226 122v-104z" />
    <glyph glyph-name="icircumflex" unicode="&#xee;" horiz-adv-x="259" 
d="M65 0v496h128v-496h-128zM-16 543v92l146 80l146 -80v-92l-146 82z" />
    <glyph glyph-name="idieresis" unicode="&#xef;" horiz-adv-x="259" 
d="M65 0v496h128v-496h-128zM220 564q-26 0 -44 18t-18 44t18 44t44 18t43.5 -18t17.5 -44t-17.5 -44t-43.5 -18zM39 564q-26 0 -43.5 18t-17.5 44t17.5 44t43.5 18t44 -18t18 -44t-18 -44t-44 -18z" />
    <glyph glyph-name="eth" unicode="&#xf0;" horiz-adv-x="645" 
d="M319 -12q-79 0 -140 34.5t-95.5 92.5t-34.5 131q0 74 34.5 132t93 91.5t133.5 33.5q40 0 76 -11.5t68 -35.5q-23 62 -64 122l-126 -41v77l77 25q-29 33 -62 61h121q17 -15 33 -31l122 40v-77l-70 -23q56 -75 83.5 -158t27.5 -162q0 -92 -37 -159.5t-100 -104.5t-140 -37z
M323 97q38 0 70.5 18t52 51.5t19.5 79.5t-19.5 79t-52 51t-70.5 18t-70.5 -18t-52.5 -51t-20 -79t20 -79.5t52.5 -51.5t70.5 -18z" />
    <glyph glyph-name="ntilde" unicode="&#xf1;" horiz-adv-x="608" 
d="M65 0v496h113l10 -84q23 44 66.5 70t102.5 26q92 0 143 -58t51 -170v-280h-128v268q0 64 -26 98t-81 34q-54 0 -88.5 -38t-34.5 -106v-256h-128zM386 548q-28 0 -48 11.5t-37 23t-37 11.5q-37 0 -44 -45h-68q10 64 40.5 94t76.5 30q28 0 48 -11.5t37 -23t38 -11.5
q17 0 28.5 11t14.5 34h69q-10 -64 -41 -94t-77 -30z" />
    <glyph glyph-name="ograve" unicode="&#xf2;" horiz-adv-x="606" 
d="M303 -12q-72 0 -129.5 33t-91 91.5t-33.5 135.5t34 135.5t91.5 91.5t129.5 33q71 0 128.5 -33t91 -91.5t33.5 -135.5t-33.5 -135.5t-91.5 -91.5t-129 -33zM303 99q50 0 87 37.5t37 111.5t-37 111.5t-86 37.5q-51 0 -87.5 -37.5t-36.5 -111.5t36.5 -111.5t86.5 -37.5z
M354 536l-226 108v104l226 -122v-90z" />
    <glyph glyph-name="oacute" unicode="&#xf3;" horiz-adv-x="606" 
d="M303 -12q-72 0 -129.5 33t-91 91.5t-33.5 135.5t34 135.5t91.5 91.5t129.5 33q71 0 128.5 -33t91 -91.5t33.5 -135.5t-33.5 -135.5t-91.5 -91.5t-129 -33zM303 99q50 0 87 37.5t37 111.5t-37 111.5t-86 37.5q-51 0 -87.5 -37.5t-36.5 -111.5t36.5 -111.5t86.5 -37.5z
M270 536v90l226 122v-104z" />
    <glyph glyph-name="ocircumflex" unicode="&#xf4;" horiz-adv-x="606" 
d="M303 -12q-72 0 -129.5 33t-91 91.5t-33.5 135.5t34 135.5t91.5 91.5t129.5 33q71 0 128.5 -33t91 -91.5t33.5 -135.5t-33.5 -135.5t-91.5 -91.5t-129 -33zM303 99q50 0 87 37.5t37 111.5t-37 111.5t-86 37.5q-51 0 -87.5 -37.5t-36.5 -111.5t36.5 -111.5t86.5 -37.5z
M158 543v92l146 80l146 -80v-92l-146 82z" />
    <glyph glyph-name="otilde" unicode="&#xf5;" horiz-adv-x="606" 
d="M303 -12q-72 0 -129.5 33t-91 91.5t-33.5 135.5t34 135.5t91.5 91.5t129.5 33q71 0 128.5 -33t91 -91.5t33.5 -135.5t-33.5 -135.5t-91.5 -91.5t-129 -33zM303 99q50 0 87 37.5t37 111.5t-37 111.5t-86 37.5q-51 0 -87.5 -37.5t-36.5 -111.5t36.5 -111.5t86.5 -37.5z
M362 548q-28 0 -48 11.5t-37 23t-37 11.5q-37 0 -44 -45h-68q10 64 40.5 94t76.5 30q28 0 48 -11.5t37 -23t38 -11.5q17 0 28.5 11t14.5 34h69q-10 -64 -41 -94t-77 -30z" />
    <glyph glyph-name="odieresis" unicode="&#xf6;" horiz-adv-x="606" 
d="M303 -12q-72 0 -129.5 33t-91 91.5t-33.5 135.5t34 135.5t91.5 91.5t129.5 33q71 0 128.5 -33t91 -91.5t33.5 -135.5t-33.5 -135.5t-91.5 -91.5t-129 -33zM303 99q50 0 87 37.5t37 111.5t-37 111.5t-86 37.5q-51 0 -87.5 -37.5t-36.5 -111.5t36.5 -111.5t86.5 -37.5z
M394 564q-26 0 -44 18t-18 44t18 44t44 18t43.5 -18t17.5 -44t-17.5 -44t-43.5 -18zM213 564q-26 0 -43.5 18t-17.5 44t17.5 44t43.5 18t44 -18t18 -44t-18 -44t-44 -18z" />
    <glyph glyph-name="divide" unicode="&#xf7;" horiz-adv-x="540" 
d="M270 392q-35 0 -57.5 22t-22.5 53q0 32 22.5 53.5t57.5 21.5t57.5 -21.5t22.5 -53.5q0 -31 -22.5 -53t-57.5 -22zM55 236v107h430v-107h-430zM270 37q-35 0 -57.5 22t-22.5 53q0 32 22.5 54t57.5 22t57.5 -22t22.5 -54q0 -31 -22.5 -53t-57.5 -22z" />
    <glyph glyph-name="oslash" unicode="&#xf8;" horiz-adv-x="588" 
d="M30 0l67 78q-27 33 -42 76t-15 94q0 77 33.5 135.5t91.5 91.5t129 33q78 0 140 -39l23 27h101l-67 -78q27 -33 42 -76t15 -94q0 -77 -34 -135.5t-91.5 -91.5t-129.5 -33q-77 0 -139 39l-23 -27h-101zM162 248q0 -45 14 -79l188 219q-31 20 -70 20q-53 0 -92.5 -40
t-39.5 -120zM293 88q54 0 93.5 40t39.5 120q0 44 -14 79l-188 -219q30 -20 69 -20z" />
    <glyph glyph-name="ugrave" unicode="&#xf9;" horiz-adv-x="608" 
d="M251 -12q-93 0 -143.5 58t-50.5 170v280h127v-268q0 -64 26 -98t82 -34q53 0 87.5 38t34.5 106v256h128v-496h-113l-10 84q-23 -44 -66.5 -70t-101.5 -26zM348 536l-226 108v104l226 -122v-90z" />
    <glyph glyph-name="uacute" unicode="&#xfa;" horiz-adv-x="608" 
d="M251 -12q-93 0 -143.5 58t-50.5 170v280h127v-268q0 -64 26 -98t82 -34q53 0 87.5 38t34.5 106v256h128v-496h-113l-10 84q-23 -44 -66.5 -70t-101.5 -26zM248 536v90l226 122v-104z" />
    <glyph glyph-name="ucircumflex" unicode="&#xfb;" horiz-adv-x="608" 
d="M251 -12q-93 0 -143.5 58t-50.5 170v280h127v-268q0 -64 26 -98t82 -34q53 0 87.5 38t34.5 106v256h128v-496h-113l-10 84q-23 -44 -66.5 -70t-101.5 -26zM152 543v92l146 80l146 -80v-92l-146 82z" />
    <glyph glyph-name="udieresis" unicode="&#xfc;" horiz-adv-x="608" 
d="M251 -12q-93 0 -143.5 58t-50.5 170v280h127v-268q0 -64 26 -98t82 -34q53 0 87.5 38t34.5 106v256h128v-496h-113l-10 84q-23 -44 -66.5 -70t-101.5 -26zM388 564q-26 0 -44 18t-18 44t18 44t44 18t44 -18t18 -44t-18 -44t-44 -18zM208 564q-26 0 -44 18t-18 44t18 44
t44 18t44 -18t18 -44t-18 -44t-44 -18z" />
    <glyph glyph-name="yacute" unicode="&#xfd;" horiz-adv-x="597" 
d="M127 -220l115 253h-30l-193 463h139l139 -349l145 349h136l-315 -716h-136zM253 536v90l226 122v-104z" />
    <glyph glyph-name="thorn" unicode="&#xfe;" horiz-adv-x="652" 
d="M65 -220v940h128v-295q24 33 63.5 58t102.5 25q70 0 125 -34t87 -93t32 -134t-32 -133.5t-87 -92t-125 -33.5q-56 0 -98 21t-68 59v-288h-128zM332 100q61 0 101 41t40 106t-40 107t-101 42q-62 0 -101.5 -41.5t-39.5 -106.5t39.5 -106.5t101.5 -41.5z" />
    <glyph glyph-name="ydieresis" unicode="&#xff;" horiz-adv-x="597" 
d="M127 -220l115 253h-30l-193 463h139l139 -349l145 349h136l-315 -716h-136zM393 564q-26 0 -44 18t-18 44t18 44t44 18t44 -18t18 -44t-18 -44t-44 -18zM213 564q-26 0 -44 18t-18 44t18 44t44 18t44 -18t18 -44t-18 -44t-44 -18z" />
    <glyph glyph-name="Amacron" unicode="&#x100;" horiz-adv-x="701" 
d="M23 0l256 700h144l256 -700h-136l-56 162h-273l-57 -162h-134zM249 262h203l-102 291zM164 783v91h374v-91h-374z" />
    <glyph glyph-name="amacron" unicode="&#x101;" horiz-adv-x="577" 
d="M236 -12q-64 0 -105 20.5t-61 54.5t-20 75q0 69 54 112t162 43h126v12q0 51 -29 75t-72 24q-39 0 -68 -18.5t-36 -54.5h-125q5 54 36.5 94t81.5 61.5t112 21.5q106 0 167 -53t61 -150v-305h-109l-12 80q-22 -40 -61.5 -66t-101.5 -26zM265 88q55 0 85.5 36t38.5 89h-109
q-51 0 -73 -18.5t-22 -45.5q0 -29 22 -45t58 -16zM102 579v91h374v-91h-374z" />
    <glyph glyph-name="Abreve" unicode="&#x102;" horiz-adv-x="701" 
d="M23 0l256 700h144l256 -700h-136l-56 162h-273l-57 -162h-134zM249 262h203l-102 291zM351 749q-72 0 -113.5 41t-41.5 111v16h68q0 -34 19.5 -53t67.5 -19q49 0 68.5 19t19.5 53h68v-17q0 -69 -42 -110t-114 -41z" />
    <glyph glyph-name="abreve" unicode="&#x103;" horiz-adv-x="577" 
d="M236 -12q-64 0 -105 20.5t-61 54.5t-20 75q0 69 54 112t162 43h126v12q0 51 -29 75t-72 24q-39 0 -68 -18.5t-36 -54.5h-125q5 54 36.5 94t81.5 61.5t112 21.5q106 0 167 -53t61 -150v-305h-109l-12 80q-22 -40 -61.5 -66t-101.5 -26zM265 88q55 0 85.5 36t38.5 89h-109
q-51 0 -73 -18.5t-22 -45.5q0 -29 22 -45t58 -16zM289 545q-72 0 -113.5 41t-41.5 111v16h68q0 -34 19.5 -53t67.5 -19t68 19t20 53h68v-17q0 -69 -42 -110t-114 -41z" />
    <glyph glyph-name="Aogonek" unicode="&#x104;" horiz-adv-x="707" 
d="M23 0l256 700h144l256 -700l-53 -25q-38 -18 -51 -34.5t-13 -33.5q0 -20 14 -31t38 -11q31 0 70 15v-76q-19 -6 -41.5 -10t-45.5 -4q-54 0 -93.5 25t-39.5 81q0 31 16.5 59t59.5 55l-53 152h-273l-57 -162h-134zM249 262h203l-102 291z" />
    <glyph glyph-name="aogonek" unicode="&#x105;" horiz-adv-x="577" 
d="M236 -12q-64 0 -105 20.5t-61 54.5t-20 75q0 69 54 112t162 43h126v12q0 51 -29 75t-72 24q-39 0 -68 -18.5t-36 -54.5h-125q5 54 36.5 94t81.5 61.5t112 21.5q106 0 167 -53t61 -150v-305h-109l-12 80q-22 -40 -61.5 -66t-101.5 -26zM265 88q55 0 85.5 36t38.5 89h-109
q-51 0 -73 -18.5t-22 -45.5q0 -29 22 -45t58 -16zM438 -210q-53 0 -93 25t-40 79q0 40 30 76t110 70l46 20l29 -60l-52 -26q-36 -18 -50.5 -34t-14.5 -34q0 -19 14 -30t38 -11q32 0 70 15v-76q-19 -6 -41 -10t-46 -4z" />
    <glyph glyph-name="Cacute" unicode="&#x106;" horiz-adv-x="737" 
d="M385 -12q-106 0 -182 45.5t-117 127t-41 188.5t41 189t117 128t182 46q126 0 206.5 -62.5t100.5 -175.5h-141q-13 57 -55.5 89.5t-112.5 32.5q-97 0 -152 -66t-55 -181t55 -180.5t152 -65.5q70 0 112.5 30.5t55.5 84.5h141q-20 -108 -100.5 -169t-206.5 -61zM336 740v90
l226 122v-104z" />
    <glyph glyph-name="cacute" unicode="&#x107;" horiz-adv-x="600" 
d="M308 -12q-76 0 -134 33t-91.5 92t-33.5 135t33.5 135t91.5 92t134 33q95 0 160 -49.5t83 -136.5h-135q-10 36 -39.5 56.5t-69.5 20.5q-53 0 -90 -40t-37 -111t37 -111t90 -40q40 0 69.5 20t39.5 57h135q-18 -84 -83 -135t-160 -51zM277 536v90l226 122v-104z" />
    <glyph glyph-name="Cdotaccent" unicode="&#x10a;" horiz-adv-x="737" 
d="M385 -12q-106 0 -182 45.5t-117 127t-41 188.5t41 189t117 128t182 46q126 0 206.5 -62.5t100.5 -175.5h-141q-13 57 -55.5 89.5t-112.5 32.5q-97 0 -152 -66t-55 -181t55 -180.5t152 -65.5q70 0 112.5 30.5t55.5 84.5h141q-20 -108 -100.5 -169t-206.5 -61zM386 764
q-26 0 -44 18t-18 44t18 44t44 18t44 -18t18 -44t-18 -44t-44 -18z" />
    <glyph glyph-name="cdotaccent" unicode="&#x10b;" horiz-adv-x="600" 
d="M308 -12q-76 0 -134 33t-91.5 92t-33.5 135t33.5 135t91.5 92t134 33q95 0 160 -49.5t83 -136.5h-135q-10 36 -39.5 56.5t-69.5 20.5q-53 0 -90 -40t-37 -111t37 -111t90 -40q40 0 69.5 20t39.5 57h135q-18 -84 -83 -135t-160 -51zM310 560q-25 0 -43 18t-18 44t18 44
t43 18q26 0 44 -18t18 -44t-18 -44t-44 -18z" />
    <glyph glyph-name="Ccaron" unicode="&#x10c;" horiz-adv-x="737" 
d="M385 -12q-106 0 -182 45.5t-117 127t-41 188.5t41 189t117 128t182 46q126 0 206.5 -62.5t100.5 -175.5h-141q-13 57 -55.5 89.5t-112.5 32.5q-97 0 -152 -66t-55 -181t55 -180.5t152 -65.5q70 0 112.5 30.5t55.5 84.5h141q-20 -108 -100.5 -169t-206.5 -61zM386 746
l-146 80v92l146 -85l146 85v-92z" />
    <glyph glyph-name="ccaron" unicode="&#x10d;" horiz-adv-x="600" 
d="M308 -12q-76 0 -134 33t-91.5 92t-33.5 135t33.5 135t91.5 92t134 33q95 0 160 -49.5t83 -136.5h-135q-10 36 -39.5 56.5t-69.5 20.5q-53 0 -90 -40t-37 -111t37 -111t90 -40q40 0 69.5 20t39.5 57h135q-18 -84 -83 -135t-160 -51zM311 542l-146 80v92l146 -85l146 85
v-92z" />
    <glyph glyph-name="Dcaron" unicode="&#x10e;" horiz-adv-x="711" 
d="M68 0v700h239q123 0 202.5 -43.5t118 -122t38.5 -184.5t-38.5 -184.5t-118 -122t-202.5 -43.5h-239zM196 110h105q88 0 139 28.5t73 82t22 129.5q0 75 -22 129t-73 83t-139 29h-105v-481zM291 746l-146 80v92l146 -85l146 85v-92z" />
    <glyph glyph-name="dcaron" unicode="&#x10f;" horiz-adv-x="800" 
d="M662 505v53q50 0 50 59v20h-56v103h110q8 -29 12 -55t4 -49q0 -62 -30 -96.5t-90 -34.5zM293 -12q-70 0 -125 34t-87 93t-32 134t32 133.5t87 92t125 33.5q56 0 98 -21t68 -59v292h128v-720h-114l-14 71q-24 -33 -63.5 -58t-102.5 -25zM320 100q62 0 101.5 41.5
t39.5 106.5t-39.5 106.5t-101.5 41.5q-61 0 -101 -41t-40 -106t40 -107t101 -42z" />
    <glyph glyph-name="Dcroat" unicode="&#x110;" horiz-adv-x="724" 
d="M81 0v295h-75v110h75v295h239q123 0 202.5 -43.5t118 -122t38.5 -184.5t-38.5 -184.5t-118 -122t-202.5 -43.5h-239zM209 110h105q88 0 139 28.5t73 82t22 129.5q0 75 -22 129t-73 83t-139 29h-105v-186h177v-110h-177v-185z" />
    <glyph glyph-name="dcroat" unicode="&#x111;" horiz-adv-x="683" 
d="M293 -12q-70 0 -125 34t-87 93t-32 134t32 133.5t87 92t125 33.5q56 0 98 -21t68 -59v138h-141v78h141v76h128v-76h70v-78h-70v-566h-114l-14 71q-24 -33 -63.5 -58t-102.5 -25zM320 100q62 0 101.5 41.5t39.5 106.5t-39.5 106.5t-101.5 41.5q-61 0 -101 -41t-40 -106
t40 -107t101 -42z" />
    <glyph glyph-name="Emacron" unicode="&#x112;" horiz-adv-x="578" 
d="M68 0v700h457v-103h-329v-192h299v-100h-299v-202h329v-103h-457zM112 783v91h374v-91h-374z" />
    <glyph glyph-name="emacron" unicode="&#x113;" horiz-adv-x="598" 
d="M306 -12q-75 0 -133 32t-91 90t-33 134q0 77 32.5 137t90 93.5t135.5 33.5q73 0 129 -32t87.5 -87.5t31.5 -123.5q0 -11 -0.5 -23t-1.5 -25h-377q4 -58 40.5 -91t88.5 -33q39 0 65.5 17.5t39.5 45.5h130q-14 -47 -46.5 -85.5t-80 -60.5t-107.5 -22zM307 404
q-47 0 -83 -26.5t-46 -80.5h247q-3 49 -36 78t-82 29zM118 579v91h374v-91h-374z" />
    <glyph glyph-name="Ebreve" unicode="&#x114;" horiz-adv-x="578" 
d="M68 0v700h457v-103h-329v-192h299v-100h-299v-202h329v-103h-457zM299 749q-72 0 -113.5 41t-41.5 111v16h68q0 -34 19.5 -53t67.5 -19q49 0 68.5 19t19.5 53h68v-17q0 -69 -42 -110t-114 -41z" />
    <glyph glyph-name="ebreve" unicode="&#x115;" horiz-adv-x="598" 
d="M306 -12q-75 0 -133 32t-91 90t-33 134q0 77 32.5 137t90 93.5t135.5 33.5q73 0 129 -32t87.5 -87.5t31.5 -123.5q0 -11 -0.5 -23t-1.5 -25h-377q4 -58 40.5 -91t88.5 -33q39 0 65.5 17.5t39.5 45.5h130q-14 -47 -46.5 -85.5t-80 -60.5t-107.5 -22zM307 404
q-47 0 -83 -26.5t-46 -80.5h247q-3 49 -36 78t-82 29zM305 545q-72 0 -113.5 41t-41.5 111v16h68q0 -34 19.5 -53t67.5 -19t68 19t20 53h68v-17q0 -69 -42 -110t-114 -41z" />
    <glyph glyph-name="Edotaccent" unicode="&#x116;" horiz-adv-x="578" 
d="M68 0v700h457v-103h-329v-192h299v-100h-299v-202h329v-103h-457zM299 764q-26 0 -44 18t-18 44t18 44t44 18t44 -18t18 -44t-18 -44t-44 -18z" />
    <glyph glyph-name="edotaccent" unicode="&#x117;" horiz-adv-x="598" 
d="M306 -12q-75 0 -133 32t-91 90t-33 134q0 77 32.5 137t90 93.5t135.5 33.5q73 0 129 -32t87.5 -87.5t31.5 -123.5q0 -11 -0.5 -23t-1.5 -25h-377q4 -58 40.5 -91t88.5 -33q39 0 65.5 17.5t39.5 45.5h130q-14 -47 -46.5 -85.5t-80 -60.5t-107.5 -22zM307 404
q-47 0 -83 -26.5t-46 -80.5h247q-3 49 -36 78t-82 29zM304 560q-25 0 -43 18t-18 44t18 44t43 18q26 0 44 -18t18 -44t-18 -44t-44 -18z" />
    <glyph glyph-name="Eogonek" unicode="&#x118;" horiz-adv-x="578" 
d="M68 0v700h457v-103h-329v-192h299v-100h-299v-202h329v-103h-457zM443 -210q-54 0 -93.5 25t-39.5 79q0 40 30 76t110 70l46 20l29 -60l-52 -26q-36 -18 -51 -34t-15 -34q0 -19 14 -30t38 -11q32 0 71 15v-76q-19 -6 -41.5 -10t-45.5 -4z" />
    <glyph glyph-name="eogonek" unicode="&#x119;" horiz-adv-x="598" 
d="M306 -12q-75 0 -133 32t-91 90t-33 134q0 77 32.5 137t90 93.5t135.5 33.5q73 0 129 -32t87.5 -87.5t31.5 -123.5q0 -11 -0.5 -23t-1.5 -25h-377q4 -58 40.5 -91t88.5 -33q39 0 65.5 17.5t39.5 45.5h130q-14 -47 -46.5 -85.5t-80 -60.5t-107.5 -22zM307 404
q-47 0 -83 -26.5t-46 -80.5h247q-3 49 -36 78t-82 29zM324 -199q-53 0 -93 25t-40 79q0 40 30 76t110 70l46 20l29 -60l-52 -26q-36 -18 -50.5 -34t-14.5 -34q0 -19 14 -30t38 -11q32 0 70 15v-76q-19 -6 -41 -10t-46 -4z" />
    <glyph glyph-name="Ecaron" unicode="&#x11a;" horiz-adv-x="578" 
d="M68 0v700h457v-103h-329v-192h299v-100h-299v-202h329v-103h-457zM299 746l-146 80v92l146 -85l146 85v-92z" />
    <glyph glyph-name="ecaron" unicode="&#x11b;" horiz-adv-x="598" 
d="M306 -12q-75 0 -133 32t-91 90t-33 134q0 77 32.5 137t90 93.5t135.5 33.5q73 0 129 -32t87.5 -87.5t31.5 -123.5q0 -11 -0.5 -23t-1.5 -25h-377q4 -58 40.5 -91t88.5 -33q39 0 65.5 17.5t39.5 45.5h130q-14 -47 -46.5 -85.5t-80 -60.5t-107.5 -22zM307 404
q-47 0 -83 -26.5t-46 -80.5h247q-3 49 -36 78t-82 29zM305 542l-146 80v92l146 -85l146 85v-92z" />
    <glyph glyph-name="Gbreve" unicode="&#x11e;" horiz-adv-x="773" 
d="M374 -12q-99 0 -173 45t-115 125.5t-41 187.5q0 108 42.5 190.5t121 129t186.5 46.5q123 0 204 -59t105 -163h-143q-16 49 -58 76.5t-108 27.5q-105 0 -162 -66.5t-57 -182.5t56.5 -179.5t153.5 -63.5q95 0 143.5 51.5t58.5 135.5h-177v96h306v-385h-118l-10 92
q-34 -50 -85 -77t-130 -27zM394 749q-72 0 -113.5 41t-41.5 111v16h68q0 -34 19.5 -53t67.5 -19q49 0 68.5 19t19.5 53h68v-17q0 -69 -42 -110t-114 -41z" />
    <glyph glyph-name="gbreve" unicode="&#x11f;" horiz-adv-x="569" 
d="M275 148q-36 0 -67 8l-37 -37q17 -9 46 -15t94 -12q99 -9 144 -47t45 -105q0 -44 -24 -83.5t-74 -64t-128 -24.5q-106 0 -171 39.5t-65 118.5q0 67 65 116q-20 9 -34.5 19t-25.5 21v23l87 92q-58 51 -58 131q0 50 24.5 91t69.5 65t109 24q42 0 78 -12h188v-78l-85 -6
q20 -38 20 -84q0 -50 -24 -91t-69.5 -65t-107.5 -24zM275 246q39 0 64.5 21t25.5 60t-25.5 60t-64.5 21q-41 0 -66 -21t-25 -60t25 -60t66 -21zM155 -61q0 -37 34.5 -55.5t84.5 -18.5q48 0 78 19.5t30 52.5q0 27 -19.5 45t-77.5 22q-41 3 -76 9q-29 -16 -41.5 -35t-12.5 -39
zM275 545q-72 0 -113.5 41t-41.5 111v16h68q0 -34 19.5 -53t67.5 -19q49 0 68.5 19t19.5 53h68v-17q0 -69 -42 -110t-114 -41z" />
    <glyph glyph-name="Gdotaccent" unicode="&#x120;" horiz-adv-x="773" 
d="M374 -12q-99 0 -173 45t-115 125.5t-41 187.5q0 108 42.5 190.5t121 129t186.5 46.5q123 0 204 -59t105 -163h-143q-16 49 -58 76.5t-108 27.5q-105 0 -162 -66.5t-57 -182.5t56.5 -179.5t153.5 -63.5q95 0 143.5 51.5t58.5 135.5h-177v96h306v-385h-118l-10 92
q-34 -50 -85 -77t-130 -27zM394 764q-26 0 -44 18t-18 44t18 44t44 18t44 -18t18 -44t-18 -44t-44 -18z" />
    <glyph glyph-name="gdotaccent" unicode="&#x121;" horiz-adv-x="569" 
d="M275 148q-36 0 -67 8l-37 -37q17 -9 46 -15t94 -12q99 -9 144 -47t45 -105q0 -44 -24 -83.5t-74 -64t-128 -24.5q-106 0 -171 39.5t-65 118.5q0 67 65 116q-20 9 -34.5 19t-25.5 21v23l87 92q-58 51 -58 131q0 50 24.5 91t69.5 65t109 24q42 0 78 -12h188v-78l-85 -6
q20 -38 20 -84q0 -50 -24 -91t-69.5 -65t-107.5 -24zM275 246q39 0 64.5 21t25.5 60t-25.5 60t-64.5 21q-41 0 -66 -21t-25 -60t25 -60t66 -21zM155 -61q0 -37 34.5 -55.5t84.5 -18.5q48 0 78 19.5t30 52.5q0 27 -19.5 45t-77.5 22q-41 3 -76 9q-29 -16 -41.5 -35t-12.5 -39
zM275 560q-26 0 -44 18t-18 44t18 44t44 18t44 -18t18 -44t-18 -44t-44 -18z" />
    <glyph glyph-name="uni0122" unicode="&#x122;" horiz-adv-x="773" 
d="M374 -12q-99 0 -173 45t-115 125.5t-41 187.5q0 108 42.5 190.5t121 129t186.5 46.5q123 0 204 -59t105 -163h-143q-16 49 -58 76.5t-108 27.5q-105 0 -162 -66.5t-57 -182.5t56.5 -179.5t153.5 -63.5q95 0 143.5 51.5t58.5 135.5h-177v96h306v-385h-118l-10 92
q-34 -50 -85 -77t-130 -27zM336 -274v52q49 0 49 62v15h-54v100h108q8 -26 11.5 -50.5t3.5 -45.5q0 -64 -30 -98.5t-88 -34.5z" />
    <glyph glyph-name="uni0123" unicode="&#x123;" horiz-adv-x="569" 
d="M236 597q-8 28 -12 54.5t-4 49.5q0 62 30 96.5t90 34.5v-53q-50 0 -50 -59v-20h55v-103h-109zM275 148q-36 0 -67 8l-37 -37q17 -9 46 -15t94 -12q99 -9 144 -47t45 -105q0 -44 -24 -83.5t-74 -64t-128 -24.5q-106 0 -171 39.5t-65 118.5q0 67 65 116q-20 9 -34.5 19
t-25.5 21v23l87 92q-58 51 -58 131q0 50 24.5 91t69.5 65t109 24q42 0 78 -12h188v-78l-85 -6q20 -38 20 -84q0 -50 -24 -91t-69.5 -65t-107.5 -24zM275 246q39 0 64.5 21t25.5 60t-25.5 60t-64.5 21q-41 0 -66 -21t-25 -60t25 -60t66 -21zM155 -61q0 -37 34.5 -55.5
t84.5 -18.5q48 0 78 19.5t30 52.5q0 27 -19.5 45t-77.5 22q-41 3 -76 9q-29 -16 -41.5 -35t-12.5 -39z" />
    <glyph glyph-name="Itilde" unicode="&#x128;" horiz-adv-x="264" 
d="M68 0v700h128v-700h-128zM195 752q-28 0 -48 11.5t-37 23t-38 11.5q-36 0 -43 -45h-68q10 64 40.5 94t76.5 30q28 0 48 -11.5t37 -23t38 -11.5q17 0 28.5 11t14.5 34h68q-9 -64 -40.5 -94t-76.5 -30z" />
    <glyph glyph-name="itilde" unicode="&#x129;" horiz-adv-x="259" 
d="M65 0v496h128v-496h-128zM188 548q-28 0 -48 11.5t-37 23t-37 11.5q-37 0 -44 -45h-68q10 64 40.5 94t76.5 30q28 0 48 -11.5t37 -23t38 -11.5q17 0 28.5 11t14.5 34h69q-10 -64 -41 -94t-77 -30z" />
    <glyph glyph-name="Imacron" unicode="&#x12a;" horiz-adv-x="264" 
d="M68 0v700h128v-700h-128zM-55 783v91h374v-91h-374z" />
    <glyph glyph-name="imacron" unicode="&#x12b;" horiz-adv-x="259" 
d="M65 0v496h128v-496h-128zM-57 579v91h374v-91h-374z" />
    <glyph glyph-name="Ibreve" unicode="&#x12c;" horiz-adv-x="264" 
d="M68 0v700h128v-700h-128zM132 749q-72 0 -113.5 41t-41.5 111v16h68q0 -34 19.5 -53t67.5 -19q49 0 68.5 19t19.5 53h68v-17q0 -69 -42 -110t-114 -41z" />
    <glyph glyph-name="ibreve" unicode="&#x12d;" horiz-adv-x="259" 
d="M65 0v496h128v-496h-128zM130 545q-72 0 -113.5 41t-41.5 111v16h68q0 -34 19.5 -53t67.5 -19t68 19t20 53h68v-17q0 -69 -42 -110t-114 -41z" />
    <glyph glyph-name="Iogonek" unicode="&#x12e;" horiz-adv-x="264" 
d="M68 0v700h128v-700h-128zM114 -210q-54 0 -93.5 25t-39.5 79q0 40 30 76t110 70l46 20l29 -60l-52 -26q-36 -18 -51 -34t-15 -34q0 -19 14 -30t38 -11q32 0 71 15v-76q-19 -6 -41.5 -10t-45.5 -4z" />
    <glyph glyph-name="iogonek" unicode="&#x12f;" horiz-adv-x="267" 
d="M134 573q-35 0 -57.5 21t-22.5 53t22.5 52.5t57.5 20.5t57.5 -20.5t22.5 -52.5t-22.5 -53t-57.5 -21zM70 0v496h128v-496h-128zM116 -210q-53 0 -93 25t-40 79q0 40 30 76t110 70l46 20l29 -60l-52 -26q-36 -18 -50.5 -34t-14.5 -34q0 -19 14 -30t38 -11q32 0 70 15v-76
q-19 -6 -41 -10t-46 -4z" />
    <glyph glyph-name="Idotaccent" unicode="&#x130;" horiz-adv-x="264" 
d="M68 0v700h128v-700h-128zM132 764q-26 0 -44 18t-18 44t18 44t44 18t44 -18t18 -44t-18 -44t-44 -18z" />
    <glyph glyph-name="dotlessi" unicode="&#x131;" horiz-adv-x="259" 
d="M65 0v496h128v-496h-128z" />
    <glyph glyph-name="uni0136" unicode="&#x136;" horiz-adv-x="640" 
d="M68 0v700h128v-283l259 283h158l-258 -278l265 -422h-157l-200 324l-67 -73v-251h-128zM275 -274v52q50 0 50 62v15h-55v100h109q8 -26 11.5 -50.5t3.5 -45.5q0 -64 -30 -98.5t-89 -34.5z" />
    <glyph glyph-name="uni0137" unicode="&#x137;" horiz-adv-x="568" 
d="M65 0v720h128v-425l176 201h152l-203 -226l236 -270h-160l-201 249v-249h-128zM230 -274v52q50 0 50 62v15h-54v100h109q14 -51 14 -96q0 -64 -30 -98.5t-89 -34.5z" />
    <glyph glyph-name="Lacute" unicode="&#x139;" horiz-adv-x="551" 
d="M68 0v700h128v-600h310v-100h-438zM91 740v90l226 122v-104z" />
    <glyph glyph-name="lacute" unicode="&#x13a;" horiz-adv-x="259" 
d="M65 0v720h128v-720h-128zM96 760v90l226 122v-104z" />
    <glyph glyph-name="uni013B" unicode="&#x13b;" horiz-adv-x="551" 
d="M68 0v700h128v-600h310v-100h-438zM206 -274v52q49 0 49 62v15h-54v100h109q8 -26 11.5 -50.5t3.5 -45.5q0 -64 -30 -98.5t-89 -34.5z" />
    <glyph glyph-name="uni013C" unicode="&#x13c;" horiz-adv-x="267" 
d="M65 0v720h128v-720h-128zM79 -274v52q50 0 50 62v15h-55v100h109q8 -26 11.5 -50.5t3.5 -45.5q0 -64 -30.5 -98.5t-88.5 -34.5z" />
    <glyph glyph-name="Lcaron" unicode="&#x13d;" horiz-adv-x="551" 
d="M312 465v53q50 0 50 60v19h-56v103h110q8 -29 11.5 -55t3.5 -49q0 -62 -30 -96.5t-89 -34.5zM68 0v700h128v-600h310v-100h-438z" />
    <glyph glyph-name="lcaron" unicode="&#x13e;" horiz-adv-x="407" 
d="M270 505v53q50 0 50 59v20h-56v103h110q8 -29 11 -55t3 -49q0 -62 -29.5 -96.5t-88.5 -34.5zM65 0v720h128v-720h-128z" />
    <glyph glyph-name="Ldot" unicode="&#x13f;" horiz-adv-x="551" 
d="M68 0v700h128v-600h310v-100h-438zM376 275q-35 0 -57.5 22t-22.5 53q0 32 22.5 54t57.5 22t57.5 -22t22.5 -54q0 -31 -22.5 -53t-57.5 -22z" />
    <glyph glyph-name="ldot" unicode="&#x140;" horiz-adv-x="394" 
d="M70 0v720h128v-720h-128zM302 304q-26 0 -44 17.5t-18 43.5t18 44.5t44 18.5t44 -18.5t18 -44.5t-18 -43.5t-44 -17.5z" />
    <glyph glyph-name="Lslash" unicode="&#x141;" horiz-adv-x="576" 
d="M92 0v293l-72 -25v106l72 25v301h128v-259l103 35v-106l-103 -35v-235h310v-100h-438z" />
    <glyph glyph-name="lslash" unicode="&#x142;" horiz-adv-x="289" 
d="M80 0v317l-69 -24v107l69 24v296h128v-252l70 25v-107l-70 -24v-362h-128z" />
    <glyph glyph-name="Nacute" unicode="&#x143;" horiz-adv-x="721" 
d="M68 0v700h128l329 -493v493h128v-700h-128l-329 492v-492h-128zM311 740v90l226 122v-104z" />
    <glyph glyph-name="nacute" unicode="&#x144;" horiz-adv-x="608" 
d="M65 0v496h113l10 -84q23 44 66.5 70t102.5 26q92 0 143 -58t51 -170v-280h-128v268q0 64 -26 98t-81 34q-54 0 -88.5 -38t-34.5 -106v-256h-128zM294 536v90l226 122v-104z" />
    <glyph glyph-name="uni0145" unicode="&#x145;" horiz-adv-x="721" 
d="M68 0v700h128l329 -493v493h128v-700h-128l-329 492v-492h-128zM318 -274v52q49 0 49 62v15h-54v100h108q8 -26 12 -50.5t4 -45.5q0 -64 -30 -98.5t-89 -34.5z" />
    <glyph glyph-name="uni0146" unicode="&#x146;" horiz-adv-x="608" 
d="M65 0v496h113l10 -84q23 44 66.5 70t102.5 26q92 0 143 -58t51 -170v-280h-128v268q0 64 -26 98t-81 34q-54 0 -88.5 -38t-34.5 -106v-256h-128zM265 -274v52q50 0 50 62v15h-55v100h109q8 -26 11.5 -50.5t3.5 -45.5q0 -64 -30 -98.5t-89 -34.5z" />
    <glyph glyph-name="Ncaron" unicode="&#x147;" horiz-adv-x="721" 
d="M68 0v700h128l329 -493v493h128v-700h-128l-329 492v-492h-128zM361 746l-146 80v92l146 -85l146 85v-92z" />
    <glyph glyph-name="ncaron" unicode="&#x148;" horiz-adv-x="608" 
d="M65 0v496h113l10 -84q23 44 66.5 70t102.5 26q92 0 143 -58t51 -170v-280h-128v268q0 64 -26 98t-81 34q-54 0 -88.5 -38t-34.5 -106v-256h-128zM328 542l-146 80v92l146 -85l146 85v-92z" />
    <glyph glyph-name="Omacron" unicode="&#x14c;" horiz-adv-x="791" 
d="M396 -12q-105 0 -183.5 46t-123 127.5t-44.5 188.5t44.5 188.5t123 127.5t183.5 46q104 0 183 -46t123 -127.5t44 -188.5t-44 -188.5t-123 -127.5t-183 -46zM396 103q100 0 159.5 66t59.5 181t-59.5 181t-159.5 66t-160 -66t-60 -181t60 -181t160 -66zM209 783v91h374
v-91h-374z" />
    <glyph glyph-name="omacron" unicode="&#x14d;" horiz-adv-x="606" 
d="M303 -12q-72 0 -129.5 33t-91 91.5t-33.5 135.5t34 135.5t91.5 91.5t129.5 33q71 0 128.5 -33t91 -91.5t33.5 -135.5t-33.5 -135.5t-91.5 -91.5t-129 -33zM303 99q50 0 87 37.5t37 111.5t-37 111.5t-86 37.5q-51 0 -87.5 -37.5t-36.5 -111.5t36.5 -111.5t86.5 -37.5z
M116 579v91h374v-91h-374z" />
    <glyph glyph-name="Obreve" unicode="&#x14e;" horiz-adv-x="791" 
d="M396 -12q-105 0 -183.5 46t-123 127.5t-44.5 188.5t44.5 188.5t123 127.5t183.5 46q104 0 183 -46t123 -127.5t44 -188.5t-44 -188.5t-123 -127.5t-183 -46zM396 103q100 0 159.5 66t59.5 181t-59.5 181t-159.5 66t-160 -66t-60 -181t60 -181t160 -66zM396 749
q-72 0 -113.5 41t-41.5 111v16h68q0 -34 19.5 -53t67.5 -19q49 0 68.5 19t19.5 53h68v-17q0 -69 -42 -110t-114 -41z" />
    <glyph glyph-name="obreve" unicode="&#x14f;" horiz-adv-x="606" 
d="M303 -12q-72 0 -129.5 33t-91 91.5t-33.5 135.5t34 135.5t91.5 91.5t129.5 33q71 0 128.5 -33t91 -91.5t33.5 -135.5t-33.5 -135.5t-91.5 -91.5t-129 -33zM303 99q50 0 87 37.5t37 111.5t-37 111.5t-86 37.5q-51 0 -87.5 -37.5t-36.5 -111.5t36.5 -111.5t86.5 -37.5z
M304 545q-72 0 -113.5 41t-41.5 111v16h68q0 -34 19.5 -53t67.5 -19t68 19t20 53h68v-17q0 -69 -42 -110t-114 -41z" />
    <glyph glyph-name="Ohungarumlaut" unicode="&#x150;" horiz-adv-x="791" 
d="M396 -12q-105 0 -183.5 46t-123 127.5t-44.5 188.5t44.5 188.5t123 127.5t183.5 46q104 0 183 -46t123 -127.5t44 -188.5t-44 -188.5t-123 -127.5t-183 -46zM396 103q100 0 159.5 66t59.5 181t-59.5 181t-159.5 66t-160 -66t-60 -181t60 -181t160 -66zM430 748l81 179
h105l-106 -179h-80zM260 748l71 179h104l-94 -179h-81z" />
    <glyph glyph-name="ohungarumlaut" unicode="&#x151;" horiz-adv-x="606" 
d="M303 -12q-72 0 -129.5 33t-91 91.5t-33.5 135.5t34 135.5t91.5 91.5t129.5 33q71 0 128.5 -33t91 -91.5t33.5 -135.5t-33.5 -135.5t-91.5 -91.5t-129 -33zM303 99q50 0 87 37.5t37 111.5t-37 111.5t-86 37.5q-51 0 -87.5 -37.5t-36.5 -111.5t36.5 -111.5t86.5 -37.5z
M337 544l81 179h105l-106 -179h-80zM167 544l71 179h104l-94 -179h-81z" />
    <glyph glyph-name="OE" unicode="&#x152;" horiz-adv-x="1103" 
d="M389 -12q-74 0 -136.5 26t-109 74.5t-72.5 115t-26 146.5t26 146.5t72.5 114.5t109 74.5t136.5 26.5q68 0 131.5 -28.5t102.5 -82.5v99h427v-103h-299v-192h269v-100h-269v-202h299v-103h-427v96q-38 -52 -102 -80t-132 -28zM399 103q62 0 112.5 30t81 85.5t30.5 131.5
t-30.5 131.5t-81 85.5t-112.5 30t-112.5 -30t-80.5 -85.5t-30 -131.5t30 -131.5t80.5 -85.5t112.5 -30z" />
    <glyph glyph-name="oe" unicode="&#x153;" horiz-adv-x="975" 
d="M303 -12q-72 0 -129.5 33t-91 91.5t-33.5 135.5t34 135.5t91.5 91.5t129.5 33q59 0 106 -23.5t78 -66.5q32 42 82.5 66t113.5 24q74 0 129.5 -32t87 -87.5t31.5 -123.5q0 -11 -0.5 -23t-1.5 -25h-377q5 -59 41.5 -91.5t88.5 -32.5q43 0 71.5 21.5t41.5 55.5h127
q-13 -52 -46 -93t-82 -65t-111 -24q-63 0 -113.5 23.5t-83.5 65.5q-31 -42 -78 -65.5t-106 -23.5zM557 297h246q-3 49 -36.5 78t-82.5 29q-47 0 -83 -27t-44 -80zM303 99q50 0 87 37.5t37 111.5t-37 111.5t-86 37.5q-51 0 -87.5 -37.5t-36.5 -111.5t36.5 -111.5t86.5 -37.5z
" />
    <glyph glyph-name="Racute" unicode="&#x154;" horiz-adv-x="623" 
d="M68 0v700h257q84 0 138.5 -28.5t81.5 -77t27 -107.5q0 -64 -33.5 -117t-104.5 -77l145 -293h-147l-130 276h-106v-276h-128zM196 370h121q64 0 94 31t30 82q0 50 -29.5 80t-95.5 30h-120v-223zM235 740v90l226 122v-104z" />
    <glyph glyph-name="racute" unicode="&#x155;" horiz-adv-x="396" 
d="M65 0v496h114l12 -93q27 48 73.5 76.5t109.5 28.5v-135h-36q-42 0 -75 -13t-51.5 -45t-18.5 -89v-226h-128zM189 536v90l226 122v-104z" />
    <glyph glyph-name="uni0156" unicode="&#x156;" horiz-adv-x="623" 
d="M68 0v700h257q84 0 138.5 -28.5t81.5 -77t27 -107.5q0 -64 -33.5 -117t-104.5 -77l145 -293h-147l-130 276h-106v-276h-128zM196 370h121q64 0 94 31t30 82q0 50 -29.5 80t-95.5 30h-120v-223zM264 -274v52q49 0 49 62v15h-54v100h109q8 -26 11.5 -50.5t3.5 -45.5
q0 -64 -30 -98.5t-89 -34.5z" />
    <glyph glyph-name="uni0157" unicode="&#x157;" horiz-adv-x="396" 
d="M65 0v496h114l12 -93q27 48 73.5 76.5t109.5 28.5v-135h-36q-42 0 -75 -13t-51.5 -45t-18.5 -89v-226h-128zM81 -274v52q50 0 50 62v15h-55v100h109q8 -26 11 -50.5t3 -45.5q0 -64 -29.5 -98.5t-88.5 -34.5z" />
    <glyph glyph-name="Rcaron" unicode="&#x158;" horiz-adv-x="623" 
d="M68 0v700h257q84 0 138.5 -28.5t81.5 -77t27 -107.5q0 -64 -33.5 -117t-104.5 -77l145 -293h-147l-130 276h-106v-276h-128zM196 370h121q64 0 94 31t30 82q0 50 -29.5 80t-95.5 30h-120v-223zM285 746l-146 80v92l146 -85l146 85v-92z" />
    <glyph glyph-name="rcaron" unicode="&#x159;" horiz-adv-x="396" 
d="M65 0v496h114l12 -93q27 48 73.5 76.5t109.5 28.5v-135h-36q-42 0 -75 -13t-51.5 -45t-18.5 -89v-226h-128zM239 542l-146 80v92l146 -85l146 85v-92z" />
    <glyph glyph-name="Sacute" unicode="&#x15a;" horiz-adv-x="597" 
d="M307 -12q-77 0 -136 26.5t-93 76t-35 120.5h135q2 -49 35.5 -82.5t92.5 -33.5q51 0 81 24.5t30 65.5q0 43 -26.5 67t-70.5 39t-94 32q-81 28 -123.5 72t-42.5 117q-1 62 29.5 106.5t83.5 69t122 24.5q70 0 123.5 -25t84 -70t32.5 -107h-137q-1 37 -28.5 65.5t-76.5 28.5
q-42 1 -70.5 -20.5t-28.5 -62.5q0 -35 22 -55.5t60 -34.5t87 -30q52 -18 95 -42t69 -63.5t26 -101.5q0 -55 -28 -102t-83 -75.5t-135 -28.5zM247 740v90l226 122v-104z" />
    <glyph glyph-name="sacute" unicode="&#x15b;" horiz-adv-x="525" 
d="M270 -12q-66 0 -116 21.5t-80 59.5t-36 88h129q6 -29 32.5 -49.5t68.5 -20.5t61.5 17t19.5 39q0 32 -28 43.5t-78 22.5q-32 7 -65 17t-60.5 25.5t-44.5 40t-17 60.5q0 66 52.5 111t147.5 45q88 0 140.5 -41t62.5 -113h-121q-11 55 -83 55q-36 0 -55.5 -14t-19.5 -35
q0 -22 29 -35t77 -24q52 -12 95.5 -26.5t69.5 -43t26 -81.5q1 -46 -24 -83t-72 -58t-111 -21zM212 536v90l226 122v-104z" />
    <glyph glyph-name="Scedilla" unicode="&#x15e;" horiz-adv-x="597" 
d="M307 -12q-77 0 -136 26.5t-93 76t-35 120.5h135q2 -49 35.5 -82.5t92.5 -33.5q51 0 81 24.5t30 65.5q0 43 -26.5 67t-70.5 39t-94 32q-81 28 -123.5 72t-42.5 117q-1 62 29.5 106.5t83.5 69t122 24.5q70 0 123.5 -25t84 -70t32.5 -107h-137q-1 37 -28.5 65.5t-76.5 28.5
q-42 1 -70.5 -20.5t-28.5 -62.5q0 -35 22 -55.5t60 -34.5t87 -30q52 -18 95 -42t69 -63.5t26 -101.5q0 -55 -28 -102t-83 -75.5t-135 -28.5zM219 -265v74h112q53 0 53 36q0 35 -53 35h-61v125h80v-57q34 1 63.5 -10t48 -34.5t18.5 -60.5q0 -54 -39 -81t-91 -27h-131z" />
    <glyph glyph-name="scedilla" unicode="&#x15f;" horiz-adv-x="525" 
d="M270 -12q-66 0 -116 21.5t-80 59.5t-36 88h129q6 -29 32.5 -49.5t68.5 -20.5t61.5 17t19.5 39q0 32 -28 43.5t-78 22.5q-32 7 -65 17t-60.5 25.5t-44.5 40t-17 60.5q0 66 52.5 111t147.5 45q88 0 140.5 -41t62.5 -113h-121q-11 55 -83 55q-36 0 -55.5 -14t-19.5 -35
q0 -22 29 -35t77 -24q52 -12 95.5 -26.5t69.5 -43t26 -81.5q1 -46 -24 -83t-72 -58t-111 -21zM176 -265v74h112q53 0 53 36q0 35 -53 35h-61v125h80v-57q34 1 63.5 -10t48 -34.5t18.5 -60.5q0 -54 -39 -81t-91 -27h-131z" />
    <glyph glyph-name="Scaron" unicode="&#x160;" horiz-adv-x="597" 
d="M307 -12q-77 0 -136 26.5t-93 76t-35 120.5h135q2 -49 35.5 -82.5t92.5 -33.5q51 0 81 24.5t30 65.5q0 43 -26.5 67t-70.5 39t-94 32q-81 28 -123.5 72t-42.5 117q-1 62 29.5 106.5t83.5 69t122 24.5q70 0 123.5 -25t84 -70t32.5 -107h-137q-1 37 -28.5 65.5t-76.5 28.5
q-42 1 -70.5 -20.5t-28.5 -62.5q0 -35 22 -55.5t60 -34.5t87 -30q52 -18 95 -42t69 -63.5t26 -101.5q0 -55 -28 -102t-83 -75.5t-135 -28.5zM297 746l-146 80v92l146 -85l146 85v-92z" />
    <glyph glyph-name="scaron" unicode="&#x161;" horiz-adv-x="525" 
d="M270 -12q-66 0 -116 21.5t-80 59.5t-36 88h129q6 -29 32.5 -49.5t68.5 -20.5t61.5 17t19.5 39q0 32 -28 43.5t-78 22.5q-32 7 -65 17t-60.5 25.5t-44.5 40t-17 60.5q0 66 52.5 111t147.5 45q88 0 140.5 -41t62.5 -113h-121q-11 55 -83 55q-36 0 -55.5 -14t-19.5 -35
q0 -22 29 -35t77 -24q52 -12 95.5 -26.5t69.5 -43t26 -81.5q1 -46 -24 -83t-72 -58t-111 -21zM261 542l-146 80v92l146 -85l146 85v-92z" />
    <glyph glyph-name="uni0162" unicode="&#x162;" horiz-adv-x="591" 
d="M231 0v597h-204v103h537v-103h-205v-597h-128zM207 -265v74h112q53 0 53 36q0 35 -53 35h-61v125h80v-57q34 1 63.5 -10t48 -34.5t18.5 -60.5q0 -54 -39 -81t-91 -27h-131z" />
    <glyph glyph-name="uni0163" unicode="&#x163;" horiz-adv-x="421" 
d="M161 -265v74h111q54 0 54 36q0 35 -54 35h-60v130q-46 14 -72 53t-26 110v216h-85v107h85l15 133h113v-133h134v-107h-134v-217q0 -36 15.5 -49.5t53.5 -13.5h62v-109h-81v-52q34 0 63.5 -10.5t47.5 -34t18 -60.5q0 -55 -38.5 -81.5t-90.5 -26.5h-131z" />
    <glyph glyph-name="Tcaron" unicode="&#x164;" horiz-adv-x="591" 
d="M231 0v597h-204v103h537v-103h-205v-597h-128zM294 746l-146 80v92l146 -85l146 85v-92z" />
    <glyph glyph-name="tcaron" unicode="&#x165;" horiz-adv-x="421" 
d="M300 596v53q50 0 50 37v18h-56v103h110q8 -28 11.5 -50t3.5 -46q0 -115 -119 -115zM286 0q-78 0 -125 38t-47 135v216h-85v107h85l15 133h113v-133h134v-107h-134v-217q0 -36 15.5 -49.5t53.5 -13.5h62v-109h-87z" />
    <glyph glyph-name="Utilde" unicode="&#x168;" horiz-adv-x="681" 
d="M338 -12q-77 0 -139 30.5t-98.5 92.5t-36.5 157v432h128v-433q0 -82 39.5 -122t109.5 -40q69 0 109 40t40 122v433h128v-432q0 -95 -38 -157t-101.5 -92.5t-140.5 -30.5zM403 752q-28 0 -48 11.5t-37 23t-38 11.5q-36 0 -43 -45h-68q10 64 40.5 94t76.5 30q28 0 48 -11.5
t37 -23t38 -11.5q17 0 28.5 11t14.5 34h68q-9 -64 -40.5 -94t-76.5 -30z" />
    <glyph glyph-name="utilde" unicode="&#x169;" horiz-adv-x="608" 
d="M251 -12q-93 0 -143.5 58t-50.5 170v280h127v-268q0 -64 26 -98t82 -34q53 0 87.5 38t34.5 106v256h128v-496h-113l-10 84q-23 -44 -66.5 -70t-101.5 -26zM361 548q-28 0 -48 11.5t-37 23t-38 11.5q-36 0 -43 -45h-68q10 64 40.5 94t76.5 30q28 0 48 -11.5t37 -23
t38 -11.5q17 0 28.5 11t14.5 34h68q-9 -64 -40.5 -94t-76.5 -30z" />
    <glyph glyph-name="Umacron" unicode="&#x16a;" horiz-adv-x="681" 
d="M338 -12q-77 0 -139 30.5t-98.5 92.5t-36.5 157v432h128v-433q0 -82 39.5 -122t109.5 -40q69 0 109 40t40 122v433h128v-432q0 -95 -38 -157t-101.5 -92.5t-140.5 -30.5zM153 783v91h374v-91h-374z" />
    <glyph glyph-name="umacron" unicode="&#x16b;" horiz-adv-x="608" 
d="M251 -12q-93 0 -143.5 58t-50.5 170v280h127v-268q0 -64 26 -98t82 -34q53 0 87.5 38t34.5 106v256h128v-496h-113l-10 84q-23 -44 -66.5 -70t-101.5 -26zM110 579v91h374v-91h-374z" />
    <glyph glyph-name="Ubreve" unicode="&#x16c;" horiz-adv-x="681" 
d="M338 -12q-77 0 -139 30.5t-98.5 92.5t-36.5 157v432h128v-433q0 -82 39.5 -122t109.5 -40q69 0 109 40t40 122v433h128v-432q0 -95 -38 -157t-101.5 -92.5t-140.5 -30.5zM340 749q-72 0 -113.5 41t-41.5 111v16h68q0 -34 19.5 -53t67.5 -19q49 0 68.5 19t19.5 53h68v-17
q0 -69 -42 -110t-114 -41z" />
    <glyph glyph-name="ubreve" unicode="&#x16d;" horiz-adv-x="608" 
d="M251 -12q-93 0 -143.5 58t-50.5 170v280h127v-268q0 -64 26 -98t82 -34q53 0 87.5 38t34.5 106v256h128v-496h-113l-10 84q-23 -44 -66.5 -70t-101.5 -26zM297 545q-72 0 -113.5 41t-41.5 111v16h68q0 -34 19.5 -53t67.5 -19q49 0 68.5 19t19.5 53h68v-17q0 -69 -42 -110
t-114 -41z" />
    <glyph glyph-name="Uring" unicode="&#x16e;" horiz-adv-x="681" 
d="M338 -12q-77 0 -139 30.5t-98.5 92.5t-36.5 157v432h128v-433q0 -82 39.5 -122t109.5 -40q69 0 109 40t40 122v433h128v-432q0 -95 -38 -157t-101.5 -92.5t-140.5 -30.5zM340 751q-46 0 -79.5 30t-33.5 82t33.5 82t79.5 30q48 0 81.5 -30t33.5 -82t-33.5 -82t-81.5 -30z
M340 809q23 0 38 15t15 39q0 25 -15 39.5t-38 14.5q-21 0 -36 -14.5t-15 -39.5q0 -24 15 -39t36 -15z" />
    <glyph glyph-name="uring" unicode="&#x16f;" horiz-adv-x="608" 
d="M251 -12q-93 0 -143.5 58t-50.5 170v280h127v-268q0 -64 26 -98t82 -34q53 0 87.5 38t34.5 106v256h128v-496h-113l-10 84q-23 -44 -66.5 -70t-101.5 -26zM297 547q-46 0 -79.5 30t-33.5 82t33.5 82t79.5 30q48 0 81.5 -30t33.5 -82t-33.5 -82t-81.5 -30zM297 605
q23 0 38 15t15 39q0 25 -15 39.5t-38 14.5q-21 0 -36 -14.5t-15 -39.5q0 -24 15 -39t36 -15z" />
    <glyph glyph-name="Uhungarumlaut" unicode="&#x170;" horiz-adv-x="681" 
d="M338 -12q-77 0 -139 30.5t-98.5 92.5t-36.5 157v432h128v-433q0 -82 39.5 -122t109.5 -40q69 0 109 40t40 122v433h128v-432q0 -95 -38 -157t-101.5 -92.5t-140.5 -30.5zM374 748l81 179h105l-106 -179h-80zM204 748l71 179h104l-94 -179h-81z" />
    <glyph glyph-name="uhungarumlaut" unicode="&#x171;" horiz-adv-x="608" 
d="M251 -12q-93 0 -143.5 58t-50.5 170v280h127v-268q0 -64 26 -98t82 -34q53 0 87.5 38t34.5 106v256h128v-496h-113l-10 84q-23 -44 -66.5 -70t-101.5 -26zM331 544l81 179h105l-106 -179h-80zM161 544l71 179h104l-94 -179h-81z" />
    <glyph glyph-name="Uogonek" unicode="&#x172;" horiz-adv-x="681" 
d="M338 -12q-77 0 -139 30.5t-98.5 92.5t-36.5 157v432h128v-433q0 -82 39.5 -122t109.5 -40q69 0 109 40t40 122v433h128v-432q0 -95 -38 -157t-101.5 -92.5t-140.5 -30.5zM334 -209q-53 0 -93 25t-40 79q0 40 30 76t110 70l46 20l29 -60l-52 -26q-36 -18 -50.5 -34
t-14.5 -34q0 -19 14 -30t38 -11q32 0 70 15v-76q-19 -6 -41 -10t-46 -4z" />
    <glyph glyph-name="uogonek" unicode="&#x173;" horiz-adv-x="608" 
d="M251 -12q-93 0 -143.5 58t-50.5 170v280h127v-268q0 -64 26 -98t82 -34q53 0 87.5 38t34.5 106v256h128v-496h-113l-10 84q-23 -44 -66.5 -70t-101.5 -26zM461 -210q-54 0 -93.5 25t-39.5 79q0 40 30 76t110 70l46 20l29 -60l-52 -26q-36 -18 -51 -34t-15 -34
q0 -19 14 -30t38 -11q32 0 71 15v-76q-19 -6 -41.5 -10t-45.5 -4z" />
    <glyph glyph-name="Wcircumflex" unicode="&#x174;" horiz-adv-x="1010" 
d="M210 0l-185 700h137l126 -557l148 557h141l144 -557l126 557h138l-190 -700h-152l-139 519l-143 -519h-151zM359 747v92l146 80l146 -80v-92l-146 82z" />
    <glyph glyph-name="wcircumflex" unicode="&#x175;" horiz-adv-x="802" 
d="M162 0l-145 496h127l86 -357l100 357h142l100 -357l87 357h127l-146 -496h-133l-106 371l-106 -371h-133zM255 543v92l146 80l146 -80v-92l-146 82z" />
    <glyph glyph-name="Ycircumflex" unicode="&#x176;" horiz-adv-x="625" 
d="M249 0v249l-235 451h145l155 -323l154 323h143l-234 -451v-249h-128zM167 747v92l146 80l146 -80v-92l-146 82z" />
    <glyph glyph-name="ycircumflex" unicode="&#x177;" horiz-adv-x="597" 
d="M127 -220l115 253h-30l-193 463h139l139 -349l145 349h136l-315 -716h-136zM156 543v92l146 80l146 -80v-92l-146 82z" />
    <glyph glyph-name="Ydieresis" unicode="&#x178;" horiz-adv-x="625" 
d="M249 0v249l-235 451h145l155 -323l154 323h143l-234 -451v-249h-128zM404 768q-26 0 -44 18t-18 44t18 44t44 18t44 -18t18 -44t-18 -44t-44 -18zM224 768q-26 0 -44 18t-18 44t18 44t44 18t44 -18t18 -44t-18 -44t-44 -18z" />
    <glyph glyph-name="Zacute" unicode="&#x179;" horiz-adv-x="566" 
d="M47 0v98l322 495h-319v107h467v-98l-324 -495h326v-107h-472zM233 740v90l226 122v-104z" />
    <glyph glyph-name="zacute" unicode="&#x17a;" horiz-adv-x="479" 
d="M33 0v103l253 287h-250v106h396v-103l-257 -287h262v-106h-404zM188 536v90l226 122v-104z" />
    <glyph glyph-name="Zdotaccent" unicode="&#x17b;" horiz-adv-x="566" 
d="M47 0v98l322 495h-319v107h467v-98l-324 -495h326v-107h-472zM283 764q-26 0 -44 18t-18 44t18 44t44 18t44 -18t18 -44t-18 -44t-44 -18z" />
    <glyph glyph-name="zdotaccent" unicode="&#x17c;" horiz-adv-x="479" 
d="M33 0v103l253 287h-250v106h396v-103l-257 -287h262v-106h-404zM238 560q-26 0 -44 18t-18 44t18 44t44 18t44 -18t18 -44t-18 -44t-44 -18z" />
    <glyph glyph-name="Zcaron" unicode="&#x17d;" horiz-adv-x="566" 
d="M47 0v98l322 495h-319v107h467v-98l-324 -495h326v-107h-472zM283 746l-146 80v92l146 -85l146 85v-92z" />
    <glyph glyph-name="zcaron" unicode="&#x17e;" horiz-adv-x="479" 
d="M33 0v103l253 287h-250v106h396v-103l-257 -287h262v-106h-404zM238 542l-146 80v92l146 -85l146 85v-92z" />
    <glyph glyph-name="uni018F" unicode="&#x18f;" horiz-adv-x="766" 
d="M380 -12q-100 0 -175 40t-117.5 115.5t-42.5 182.5q0 14 1 29.5t3 30.5h537q-3 66 -30.5 113t-72.5 72t-101 25q-67 0 -118 -32.5t-70 -89.5h-141q20 70 65.5 124t112.5 84t149 30q102 0 178.5 -45.5t119.5 -127t43 -191.5q0 -108 -43 -189t-119.5 -126t-178.5 -45z
M378 105q55 0 100.5 22t74 63.5t33.5 101.5h-409q1 -56 26.5 -98t70.5 -65.5t104 -23.5z" />
    <glyph glyph-name="florin" unicode="&#x192;" horiz-adv-x="334" 
d="M-54 -229l11 108h24q23 0 35 12t16 41l54 515h-62l10 106h64l3 35q10 97 69 141.5t171 44.5l-11 -108q-48 0 -72.5 -17.5t-28.5 -60.5l-3 -35h99l-10 -106h-101l-54 -515q-10 -90 -59.5 -125.5t-127.5 -35.5h-27z" />
    <glyph glyph-name="AEacute" unicode="&#x1fc;" horiz-adv-x="939" 
d="M23 0l379 700h483v-101h-271v-194h241v-99h-241v-205h271v-101h-399v138h-249l-75 -138h-139zM486 602l-196 -365h196v365zM527 740v90l226 122v-104z" />
    <glyph glyph-name="aeacute" unicode="&#x1fd;" horiz-adv-x="941" 
d="M245 -12q-63 0 -106.5 20.5t-66 55t-22.5 75.5q0 70 52.5 113.5t159.5 43.5h133v9q0 51 -28.5 75t-69.5 24q-37 0 -65 -18t-35 -53h-125q5 53 36 92.5t80 61t109 21.5q59 0 105 -18.5t74 -53.5q33 34 78.5 53t97.5 19q73 0 128.5 -32t86.5 -87t31 -125q0 -10 -0.5 -22
t-1.5 -26h-370q5 -59 41 -91t84 -32q43 0 70.5 21.5t40.5 55.5h127q-13 -52 -46 -93t-81.5 -65t-109.5 -24q-65 0 -118.5 27t-87.5 75q-30 -44 -78 -73t-123 -29zM528 296h241q-4 51 -36.5 79.5t-79.5 28.5q-45 0 -80 -27t-45 -81zM263 88q51 0 84.5 35t42.5 84v9h-112
q-49 0 -71 -18t-22 -46q0 -29 21.5 -46.5t56.5 -17.5zM446 536v90l226 122v-104z" />
    <glyph glyph-name="uni0218" unicode="&#x218;" horiz-adv-x="597" 
d="M307 -12q-77 0 -136 26.5t-93 76t-35 120.5h135q2 -49 35.5 -82.5t92.5 -33.5q51 0 81 24.5t30 65.5q0 43 -26.5 67t-70.5 39t-94 32q-81 28 -123.5 72t-42.5 117q-1 62 29.5 106.5t83.5 69t122 24.5q70 0 123.5 -25t84 -70t32.5 -107h-137q-1 37 -28.5 65.5t-76.5 28.5
q-42 1 -70.5 -20.5t-28.5 -62.5q0 -35 22 -55.5t60 -34.5t87 -30q52 -18 95 -42t69 -63.5t26 -101.5q0 -55 -28 -102t-83 -75.5t-135 -28.5zM261 -274v52q50 0 50 62v15h-55v100h109q8 -26 11.5 -50.5t3.5 -45.5q0 -64 -30 -98.5t-89 -34.5z" />
    <glyph glyph-name="uni0219" unicode="&#x219;" horiz-adv-x="525" 
d="M270 -12q-66 0 -116 21.5t-80 59.5t-36 88h129q6 -29 32.5 -49.5t68.5 -20.5t61.5 17t19.5 39q0 32 -28 43.5t-78 22.5q-32 7 -65 17t-60.5 25.5t-44.5 40t-17 60.5q0 66 52.5 111t147.5 45q88 0 140.5 -41t62.5 -113h-121q-11 55 -83 55q-36 0 -55.5 -14t-19.5 -35
q0 -22 29 -35t77 -24q52 -12 95.5 -26.5t69.5 -43t26 -81.5q1 -46 -24 -83t-72 -58t-111 -21zM221 -274v52q49 0 49 62v15h-54v100h109q7 -26 11 -50.5t4 -45.5q0 -64 -30 -98.5t-89 -34.5z" />
    <glyph glyph-name="uni021A" unicode="&#x21a;" horiz-adv-x="591" 
d="M231 0v597h-204v103h537v-103h-205v-597h-128zM239 -274v52q50 0 50 62v15h-54v100h109q14 -51 14 -96q0 -64 -30 -98.5t-89 -34.5z" />
    <glyph glyph-name="uni021B" unicode="&#x21b;" horiz-adv-x="421" 
d="M286 0q-78 0 -125 38t-47 135v216h-85v107h85l15 133h113v-133h134v-107h-134v-217q0 -36 15.5 -49.5t53.5 -13.5h62v-109h-87zM203 -274v52q49 0 49 62v15h-54v100h108q8 -26 11.5 -50.5t3.5 -45.5q0 -64 -30 -98.5t-88 -34.5z" />
    <glyph glyph-name="uni0259" unicode="&#x259;" horiz-adv-x="598" 
d="M291 -12q-73 0 -129 32t-87.5 87.5t-31.5 123.5q0 11 0.5 23t1.5 25h377q-4 58 -40.5 91t-88.5 33q-39 0 -65.5 -17.5t-39.5 -45.5h-130q14 47 46.5 85.5t80 60.5t107.5 22q75 0 133 -32t91 -90t33 -134q0 -77 -32.5 -137t-90.5 -93.5t-135 -33.5zM291 92q47 0 83 26.5
t46 80.5h-247q3 -49 36 -78t82 -29z" />
    <glyph glyph-name="circumflex" unicode="&#x2c6;" horiz-adv-x="324" 
d="M16 543v92l146 80l146 -80v-92l-146 82z" />
    <glyph glyph-name="caron" unicode="&#x2c7;" horiz-adv-x="324" 
d="M162 542l-146 80v92l146 -85l146 85v-92z" />
    <glyph glyph-name="breve" unicode="&#x2d8;" horiz-adv-x="343" 
d="M171 545q-72 0 -113.5 41t-41.5 111v16h68q0 -34 19.5 -53t67.5 -19t68 19t20 53h68v-17q0 -69 -42 -110t-114 -41z" />
    <glyph glyph-name="dotaccent" unicode="&#x2d9;" horiz-adv-x="159" 
d="M79 560q-25 0 -43 18t-18 44t18 44t43 18q26 0 44 -18t18 -44t-18 -44t-44 -18z" />
    <glyph glyph-name="ring" unicode="&#x2da;" horiz-adv-x="256" 
d="M128 547q-46 0 -79.5 30t-33.5 82t33.5 82t79.5 30q48 0 81 -30t33 -82t-33 -82t-81 -30zM128 605q22 0 37.5 15t15.5 39q0 25 -15.5 39.5t-37.5 14.5q-21 0 -36.5 -14.5t-15.5 -39.5q0 -24 15.5 -39t36.5 -15z" />
    <glyph glyph-name="ogonek" unicode="&#x2db;" horiz-adv-x="261" 
d="M153 -210q-53 0 -93 25t-40 79q0 40 30 76t110 70l46 20l29 -60l-52 -26q-36 -18 -50.5 -34t-14.5 -34q0 -19 14 -30t38 -11q32 0 70 15v-76q-19 -6 -41 -10t-46 -4z" />
    <glyph glyph-name="tilde" unicode="&#x2dc;" horiz-adv-x="378" 
d="M247 548q-28 0 -48 11.5t-37 23t-37 11.5q-37 0 -44 -45h-68q10 64 40.5 94t76.5 30q28 0 48 -11.5t37 -23t38 -11.5q17 0 28.5 11t14.5 34h69q-10 -64 -41 -94t-77 -30z" />
    <glyph glyph-name="hungarumlaut" unicode="&#x2dd;" horiz-adv-x="393" 
d="M186 544l81 179h105l-106 -179h-80zM16 544l71 179h104l-94 -179h-81z" />
    <glyph glyph-name="gravecomb" unicode="&#x300;" 
d="M226 536l-226 108v104l226 -122v-90z" />
    <glyph glyph-name="acutecomb" unicode="&#x301;" 
d="M0 536v90l226 122v-104z" />
    <glyph glyph-name="uni0302" unicode="&#x302;" 
d="M0 543v92l146 80l146 -80v-92l-146 82z" />
    <glyph glyph-name="tildecomb" unicode="&#x303;" 
d="M234 548q-28 0 -48 11.5t-37 23t-38 11.5q-36 0 -43 -45h-68q10 64 40.5 94t76.5 30q28 0 48 -11.5t37 -23t38 -11.5q17 0 28.5 11t14.5 34h68q-9 -64 -40.5 -94t-76.5 -30z" />
    <glyph glyph-name="uni0304" unicode="&#x304;" 
d="M0 579v91h374v-91h-374z" />
    <glyph glyph-name="uni0306" unicode="&#x306;" 
d="M155 545q-72 0 -113.5 41t-41.5 111v16h68q0 -34 19.5 -53t67.5 -19q49 0 68.5 19t19.5 53h68v-17q0 -69 -42 -110t-114 -41z" />
    <glyph glyph-name="uni0307" unicode="&#x307;" 
d="M62 560q-26 0 -44 18t-18 44t18 44t44 18t44 -18t18 -44t-18 -44t-44 -18z" />
    <glyph glyph-name="uni0308" unicode="&#x308;" 
d="M242 564q-26 0 -44 18t-18 44t18 44t44 18t44 -18t18 -44t-18 -44t-44 -18zM62 564q-26 0 -44 18t-18 44t18 44t44 18t44 -18t18 -44t-18 -44t-44 -18z" />
    <glyph glyph-name="uni030A" unicode="&#x30a;" 
d="M113 547q-46 0 -79.5 30t-33.5 82t33.5 82t79.5 30q48 0 81.5 -30t33.5 -82t-33.5 -82t-81.5 -30zM113 605q23 0 38 15t15 39q0 25 -15 39.5t-38 14.5q-21 0 -36 -14.5t-15 -39.5q0 -24 15 -39t36 -15z" />
    <glyph glyph-name="uni030B" unicode="&#x30b;" 
d="M170 544l81 179h105l-106 -179h-80zM0 544l71 179h104l-94 -179h-81z" />
    <glyph glyph-name="uni030C" unicode="&#x30c;" 
d="M146 542l-146 80v92l146 -85l146 85v-92z" />
    <glyph glyph-name="uni0327" unicode="&#x327;" 
d="M0 -263v74h112q53 0 53 36q0 35 -53 35h-61v125h80v-57q34 1 63.5 -10t48 -34.5t18.5 -60.5q0 -54 -39 -81t-91 -27h-131z" />
    <glyph glyph-name="uni0328" unicode="&#x328;" 
d="M133 -210q-54 0 -93.5 25t-39.5 79q0 40 30 76t110 70l46 20l29 -60l-52 -26q-36 -18 -51 -34t-15 -34q0 -19 14 -30t38 -11q32 0 71 15v-76q-19 -6 -41.5 -10t-45.5 -4z" />
    <glyph glyph-name="pi" unicode="&#x3c0;" horiz-adv-x="647" 
d="M107 0v398h-74v98h581v-98h-75v-398h-128v398h-176v-398h-128z" />
    <glyph glyph-name="Wgrave" unicode="&#x1e80;" horiz-adv-x="1010" 
d="M210 0l-185 700h137l126 -557l148 557h141l144 -557l126 557h138l-190 -700h-152l-139 519l-143 -519h-151zM555 740l-226 108v104l226 -122v-90z" />
    <glyph glyph-name="wgrave" unicode="&#x1e81;" horiz-adv-x="802" 
d="M162 0l-145 496h127l86 -357l100 357h142l100 -357l87 357h127l-146 -496h-133l-106 371l-106 -371h-133zM451 536l-226 108v104l226 -122v-90z" />
    <glyph glyph-name="Wacute" unicode="&#x1e82;" horiz-adv-x="1010" 
d="M210 0l-185 700h137l126 -557l148 557h141l144 -557l126 557h138l-190 -700h-152l-139 519l-143 -519h-151zM455 740v90l226 122v-104z" />
    <glyph glyph-name="wacute" unicode="&#x1e83;" horiz-adv-x="802" 
d="M162 0l-145 496h127l86 -357l100 357h142l100 -357l87 357h127l-146 -496h-133l-106 371l-106 -371h-133zM351 536v90l226 122v-104z" />
    <glyph glyph-name="Wdieresis" unicode="&#x1e84;" horiz-adv-x="1010" 
d="M210 0l-185 700h137l126 -557l148 557h141l144 -557l126 557h138l-190 -700h-152l-139 519l-143 -519h-151zM595 768q-26 0 -44 18t-18 44t18 44t44 18t44 -18t18 -44t-18 -44t-44 -18zM415 768q-26 0 -44 18t-18 44t18 44t44 18t44 -18t18 -44t-18 -44t-44 -18z" />
    <glyph glyph-name="wdieresis" unicode="&#x1e85;" horiz-adv-x="802" 
d="M162 0l-145 496h127l86 -357l100 357h142l100 -357l87 357h127l-146 -496h-133l-106 371l-106 -371h-133zM491 564q-26 0 -44 18t-18 44t18 44t44 18t44 -18t18 -44t-18 -44t-44 -18zM311 564q-26 0 -44 18t-18 44t18 44t44 18t44 -18t18 -44t-18 -44t-44 -18z" />
    <glyph glyph-name="uni1EBC" unicode="&#x1ebc;" horiz-adv-x="578" 
d="M68 0v700h457v-103h-329v-192h299v-100h-299v-202h329v-103h-457zM362 752q-28 0 -48 11.5t-37 23t-38 11.5q-36 0 -43 -45h-68q10 64 40.5 94t76.5 30q28 0 48 -11.5t37 -23t38 -11.5q17 0 28.5 11t14.5 34h68q-9 -64 -40.5 -94t-76.5 -30z" />
    <glyph glyph-name="uni1EBD" unicode="&#x1ebd;" horiz-adv-x="598" 
d="M306 -12q-75 0 -133 32t-91 90t-33 134q0 77 32.5 137t90 93.5t135.5 33.5q73 0 129 -32t87.5 -87.5t31.5 -123.5q0 -11 -0.5 -23t-1.5 -25h-377q4 -58 40.5 -91t88.5 -33q39 0 65.5 17.5t39.5 45.5h130q-14 -47 -46.5 -85.5t-80 -60.5t-107.5 -22zM307 404
q-47 0 -83 -26.5t-46 -80.5h247q-3 49 -36 78t-82 29zM363 548q-28 0 -48 11.5t-37 23t-37 11.5q-37 0 -44 -45h-68q10 64 40.5 94t76.5 30q28 0 48 -11.5t37 -23t38 -11.5q17 0 28.5 11t14.5 34h69q-10 -64 -41 -94t-77 -30z" />
    <glyph glyph-name="Ygrave" unicode="&#x1ef2;" horiz-adv-x="625" 
d="M249 0v249l-235 451h145l155 -323l154 323h143l-234 -451v-249h-128zM364 740l-226 108v104l226 -122v-90z" />
    <glyph glyph-name="ygrave" unicode="&#x1ef3;" horiz-adv-x="597" 
d="M127 -220l115 253h-30l-193 463h139l139 -349l145 349h136l-315 -716h-136zM353 536l-226 108v104l226 -122v-90z" />
    <glyph glyph-name="uni1EF8" unicode="&#x1ef8;" horiz-adv-x="625" 
d="M249 0v249l-235 451h145l155 -323l154 323h143l-234 -451v-249h-128zM376 752q-28 0 -48 11.5t-37 23t-38 11.5q-36 0 -43 -45h-68q10 64 40.5 94t76.5 30q28 0 48 -11.5t37 -23t38 -11.5q17 0 28.5 11t14.5 34h68q-9 -64 -40.5 -94t-76.5 -30z" />
    <glyph glyph-name="uni1EF9" unicode="&#x1ef9;" horiz-adv-x="597" 
d="M127 -220l115 253h-30l-193 463h139l139 -349l145 349h136l-315 -716h-136zM365 548q-28 0 -48 11.5t-37 23t-38 11.5q-36 0 -43 -45h-68q10 64 40.5 94t76.5 30q28 0 48 -11.5t37 -23t38 -11.5q17 0 28.5 11t14.5 34h68q-9 -64 -40.5 -94t-76.5 -30z" />
    <glyph glyph-name="endash" unicode="&#x2013;" horiz-adv-x="648" 
d="M54 236v107h540v-107h-540z" />
    <glyph glyph-name="emdash" unicode="&#x2014;" horiz-adv-x="868" 
d="M54 236v107h760v-107h-760z" />
    <glyph glyph-name="quoteleft" unicode="&#x2018;" horiz-adv-x="264" 
d="M33 454l102 246h87l-54 -246h-135z" />
    <glyph glyph-name="quoteright" unicode="&#x2019;" horiz-adv-x="264" 
d="M41 454l55 246h135l-102 -246h-88z" />
    <glyph glyph-name="quotesinglbase" unicode="&#x201a;" horiz-adv-x="240" 
d="M14 -113l55 246h135l-102 -246h-88z" />
    <glyph glyph-name="quotedblleft" unicode="&#x201c;" horiz-adv-x="456" 
d="M33 454l102 246h87l-54 -246h-135zM226 454l102 246h87l-55 -246h-134z" />
    <glyph glyph-name="quotedblright" unicode="&#x201d;" horiz-adv-x="456" 
d="M233 455l55 246h135l-102 -246h-88zM41 455l55 246h135l-102 -246h-88z" />
    <glyph glyph-name="quotedblbase" unicode="&#x201e;" horiz-adv-x="432" 
d="M14 -113l55 246h135l-102 -246h-88zM207 -113l55 246h134l-101 -246h-88z" />
    <glyph glyph-name="dagger" unicode="&#x2020;" horiz-adv-x="593" 
d="M232 -263l13 727l-199 -10v99l199 -11l-13 243h128l-13 -243l200 11v-99l-200 10l13 -727h-128z" />
    <glyph glyph-name="daggerdbl" unicode="&#x2021;" horiz-adv-x="594" 
d="M232 -263l14 243l-200 -11v99l200 -10v406l-200 -10v99l200 -11l-14 243h128l-12 -243l200 11v-99l-200 10v-406l200 10v-99l-200 11l12 -243h-128z" />
    <glyph glyph-name="bullet" unicode="&#x2022;" horiz-adv-x="380" 
d="M189 198q-37 0 -67.5 18t-49 48.5t-18.5 68.5t18.5 69t49 49t67.5 18q39 0 69.5 -18t48.5 -49t18 -69t-18 -68.5t-48.5 -48.5t-69.5 -18z" />
    <glyph glyph-name="ellipsis" unicode="&#x2026;" horiz-adv-x="665" 
d="M333 -7q-35 0 -57.5 22t-22.5 53q0 32 22.5 54t57.5 22t57.5 -22t22.5 -54q0 -31 -22.5 -53t-57.5 -22zM546 -7q-35 0 -57.5 22t-22.5 53q0 32 22.5 54t57.5 22t57.5 -22t22.5 -54q0 -31 -22.5 -53t-57.5 -22zM120 -7q-35 0 -57.5 22t-22.5 53q0 32 22.5 54t57.5 22
t57.5 -22t22.5 -54q0 -31 -22.5 -53t-57.5 -22z" />
    <glyph glyph-name="perthousand" unicode="&#x2030;" horiz-adv-x="1246" 
d="M212 356q-48 0 -87 21.5t-62 61.5t-23 95t23 95t62 61.5t88 21.5q48 0 86.5 -21.5t61.5 -61.5t23 -95t-23 -95t-62 -61.5t-87 -21.5zM174 0l395 700h125l-395 -700h-125zM212 444q30 0 50.5 23t20.5 67q0 45 -20.5 68t-50.5 23t-51 -23t-21 -68q0 -44 20.5 -67t51.5 -23z
M660 -12q-48 0 -87 21.5t-62 61.5t-23 95t23 94.5t62 61t88 21.5q48 0 86.5 -21.5t61.5 -61t23 -94.5t-23 -95t-61.5 -61.5t-87.5 -21.5zM1034 -12q-48 0 -87 21.5t-62 61.5t-23 95t23 94.5t62.5 61t87.5 21.5t87 -21.5t61.5 -61t22.5 -94.5t-23 -95t-61.5 -61.5
t-87.5 -21.5zM660 76q30 0 51 23t21 67t-21 67.5t-51 23.5t-51 -23.5t-21 -67.5t21 -67t51 -23zM1034 76q30 0 51 23t21 67t-21 67.5t-51 23.5t-50.5 -23.5t-20.5 -67.5t20.5 -67t50.5 -23z" />
    <glyph glyph-name="guilsinglleft" unicode="&#x2039;" horiz-adv-x="303" 
d="M133 120l-91 175l91 175h120l-93 -175l93 -175h-120z" />
    <glyph glyph-name="guilsinglright" unicode="&#x203a;" horiz-adv-x="303" 
d="M50 120l93 175l-93 175h121l90 -175l-90 -175h-121z" />
    <glyph glyph-name="fraction" unicode="&#x2044;" horiz-adv-x="501" 
d="M-7 0l395 700h125l-395 -700h-125z" />
    <glyph glyph-name="uni2074" unicode="&#x2074;" horiz-adv-x="346" 
d="M192 352v62h-166v65l155 221h106v-219h38v-67h-38v-62h-95zM123 481h76v115z" />
    <glyph glyph-name="uni20A8" unicode="&#x20a8;" horiz-adv-x="1141" 
d="M70 0v701h254q84 0 139.5 -28.5t82.5 -77t27 -107.5q0 -72 -41.5 -128t-131.5 -74l180 -286h-148l-169 278h-65v-278h-128zM198 372h121q65 0 94 30t29 81q0 52 -29 82.5t-94 30.5h-121v-224zM868 -8q-101 0 -165 47t-74 135h128q4 -39 33.5 -61.5t77.5 -22.5q44 0 67 19
t23 49t-24 46t-61.5 24.5t-79.5 17.5t-79.5 24.5t-61 45t-23.5 80.5q0 45 25 82.5t73.5 60t116.5 22.5q101 0 160 -50t68 -132h-128q-5 38 -32 61t-73 23q-43 0 -67 -19t-24 -48q0 -30 24 -45.5t61.5 -24t79.5 -17.5t79.5 -25.5t61.5 -46.5t24 -82q0 -47 -26 -84t-73 -58
t-111 -21z" />
    <glyph glyph-name="Euro" unicode="&#x20ac;" horiz-adv-x="790" 
d="M21 237v76h78q-2 18 -2 36q0 19 2 37h-78v77h90q28 113 112.5 181t213.5 68q126 0 206.5 -62.5t100.5 -175.5h-141q-13 57 -55.5 89.5t-111.5 32.5q-71 0 -119.5 -35t-71.5 -98h208v-77h-224q-1 -18 -1 -37t1 -36h224v-76h-208q22 -64 71 -99t120 -35q69 0 111.5 30.5
t55.5 84.5h141q-20 -108 -100.5 -169t-206.5 -61q-129 0 -214 67.5t-113 181.5h-89z" />
    <glyph glyph-name="uni20BD" unicode="&#x20bd;" horiz-adv-x="648" 
d="M29 104v99h90v80h-90v100h90v318h249q84 0 139.5 -27.5t82.5 -75t27 -106.5q0 -57 -26 -104.5t-81 -76t-142 -28.5h-121v-80h189v-99h-189v-104h-128v104h-90zM364 602h-117v-219h117q64 0 93.5 30t29.5 79q0 50 -29 80t-94 30z" />
    <glyph glyph-name="uni2113" unicode="&#x2113;" horiz-adv-x="264" 
d="M68 -100v820h128v-820h-128z" />
    <glyph glyph-name="trademark" unicode="&#x2122;" horiz-adv-x="828" 
d="M346 349v351h126l92 -239l100 239h117v-351h-88l-2 230l-97 -230h-66l-97 238v-238h-85zM112 349l1 275h-86v76h267v-76h-87l1 -275h-96z" />
    <glyph glyph-name="uni2126" unicode="&#x2126;" horiz-adv-x="788" 
d="M48 0v98h117q-65 46 -95.5 115t-30.5 150q0 79 27.5 143.5t76 110.5t113 70.5t138.5 24.5t139 -24.5t113.5 -70.5t76 -110.5t27.5 -143.5q0 -81 -30.5 -150t-96.5 -115h117v-98h-272v102q67 29 109.5 93t42.5 155q0 76 -29 131t-80 84.5t-117 29.5t-117 -30t-79.5 -84.5
t-28.5 -130.5q0 -91 42.5 -155t108.5 -93v-102h-272z" />
    <glyph glyph-name="estimated" unicode="&#x212e;" horiz-adv-x="755" 
d="M386 -7q-98 0 -176 39.5t-123.5 115.5t-45.5 185q0 105 39 189.5t114 134t183 49.5q82 0 144.5 -27t105 -73.5t64.5 -105t22 -121.5v-62h-511v-171q36 -37 80.5 -56t103.5 -19q75 0 134 31.5t116 88.5l49 -56q-63 -67 -137 -104.5t-162 -37.5zM202 392h345v172
q-60 65 -170 65q-112 0 -175 -74v-163z" />
    <glyph glyph-name="partialdiff" unicode="&#x2202;" horiz-adv-x="591" 
d="M251 -8q-58 0 -107 26t-78 80t-29 137q0 68 20 126.5t56.5 103t85.5 69.5t107 25q40 0 72.5 -17t51.5 -61q-4 54 -20.5 95.5t-49.5 65.5t-85 24q-32 0 -73 -10v69q29 8 55 11.5t51 3.5q119 0 183 -87.5t64 -243.5q0 -130 -39 -223.5t-107.5 -143.5t-157.5 -50zM264 101
q45 0 79 30t52.5 80t18.5 110q0 67 -27 99t-72 32q-44 0 -78 -28.5t-52.5 -77.5t-18.5 -110q0 -71 28.5 -103t69.5 -32z" />
    <glyph glyph-name="uni2206" unicode="&#x2206;" horiz-adv-x="711" 
d="M23 0v98l280 602h105l280 -602v-98h-665zM154 98h403l-202 457z" />
    <glyph glyph-name="product" unicode="&#x220f;" horiz-adv-x="736" 
d="M103 0v602h-74v98h679v-98h-75v-602h-128v602h-274v-602h-128z" />
    <glyph glyph-name="summation" unicode="&#x2211;" horiz-adv-x="493" 
d="M43 -50l1 149l248 231l-248 222l1 148h423v-98h-321l265 -225v-93l-260 -236h315v-98h-424z" />
    <glyph glyph-name="minus" unicode="&#x2212;" horiz-adv-x="531" 
d="M56 236v107h419v-107h-419z" />
    <glyph glyph-name="uni2215" unicode="&#x2215;" horiz-adv-x="421" 
d="M23 -111l250 888h125l-251 -888h-124z" />
    <glyph glyph-name="radical" unicode="&#x221a;" horiz-adv-x="782" 
d="M265 -42l-136 240l-73 -42l-37 62l184 108l124 -220l426 779h82l-508 -927h-62z" />
    <glyph glyph-name="infinity" unicode="&#x221e;" horiz-adv-x="740" 
d="M196 128q-70 0 -116.5 41.5t-46.5 115.5q0 52 22.5 88t60 55t83.5 19q61 0 102 -29t72 -68q26 42 69 69.5t102 27.5q70 0 116.5 -41.5t46.5 -115.5q0 -52 -22.5 -88t-60.5 -55t-85 -19q-59 0 -100.5 27.5t-73.5 64.5q-27 -39 -69.5 -65.5t-99.5 -26.5zM136 287
q0 -34 19.5 -52.5t50.5 -18.5q32 0 60 17.5t48 48.5q-26 32 -51.5 55t-58.5 23q-29 0 -48.5 -19.5t-19.5 -53.5zM534 359q-33 0 -62.5 -19.5t-49.5 -53.5q24 -29 49.5 -50t59.5 -21q33 0 53 19.5t20 53.5t-19.5 52.5t-50.5 18.5z" />
    <glyph glyph-name="integral" unicode="&#x222b;" horiz-adv-x="275" 
d="M-44 -229l11 108h19q22 0 32 12t13 41l90 838q9 90 58.5 124.5t124.5 34.5h20l-11 -109h-18q-20 0 -31.5 -11.5t-14.5 -38.5l-90 -838q-10 -90 -58 -125.5t-125 -35.5h-20z" />
    <glyph glyph-name="approxequal" unicode="&#x2248;" horiz-adv-x="573" 
d="M373 87q-30 0 -54 10.5t-44.5 23.5t-40.5 23t-42 10q-55 0 -65 -66h-95q16 94 60 136.5t107 42.5q31 0 55.5 -10t45 -23t40.5 -23t41 -10q26 0 43 17t21 49h96q-15 -94 -59 -137t-109 -43zM373 315q-30 0 -54 10.5t-44.5 23.5t-40.5 23t-42 10q-55 0 -65 -66h-95
q16 94 60 136.5t107 42.5q31 0 55.5 -10t45 -23t40.5 -23t41 -10q26 0 43 17t21 49h96q-15 -94 -59 -137t-109 -43z" />
    <glyph glyph-name="notequal" unicode="&#x2260;" horiz-adv-x="542" 
d="M97 56l36 67h-74v112h133l57 109h-190v112h249l36 67h100l-35 -67h74v-112h-133l-58 -109h191v-112h-249l-36 -67h-101z" />
    <glyph glyph-name="lessequal" unicode="&#x2264;" horiz-adv-x="500" 
d="M280 207l-224 188l224 189h163l-223 -188l223 -189h-163zM67 44v98h374v-98h-374z" />
    <glyph glyph-name="greaterequal" unicode="&#x2265;" horiz-adv-x="500" 
d="M57 207l222 189l-222 188h162l225 -189l-225 -188h-162zM58 44v98h374v-98h-374z" />
    <glyph glyph-name="lozenge" unicode="&#x25ca;" horiz-adv-x="559" 
d="M280 100l-251 251l251 251l251 -251zM280 228l122 123l-122 123l-122 -123z" />
    <glyph glyph-name="a.ss02" horiz-adv-x="652" 
d="M293 -12q-70 0 -125 34t-87 93t-32 134t32 133.5t87 92t125 33.5q56 0 98 -21t68 -59l7 68h121v-496h-120l-8 71q-24 -33 -63.5 -58t-102.5 -25zM320 100q62 0 101.5 41.5t39.5 106.5t-39.5 106.5t-101.5 41.5q-61 0 -101 -41t-40 -106t40 -107t101 -42z" />
    <glyph glyph-name="aacute.ss02" horiz-adv-x="652" 
d="M293 -12q-70 0 -125 34t-87 93t-32 134t32 133.5t87 92t125 33.5q56 0 98 -21t68 -59l7 68h121v-496h-120l-8 71q-24 -33 -63.5 -58t-102.5 -25zM320 100q62 0 101.5 41.5t39.5 106.5t-39.5 106.5t-101.5 41.5q-61 0 -101 -41t-40 -106t40 -107t101 -42zM270 535v90
l226 122v-104z" />
    <glyph glyph-name="abreve.ss02" horiz-adv-x="652" 
d="M293 -12q-70 0 -125 34t-87 93t-32 134t32 133.5t87 92t125 33.5q56 0 98 -21t68 -59l7 68h121v-496h-120l-8 71q-24 -33 -63.5 -58t-102.5 -25zM320 100q62 0 101.5 41.5t39.5 106.5t-39.5 106.5t-101.5 41.5q-61 0 -101 -41t-40 -106t40 -107t101 -42zM320 544
q-72 0 -113.5 41t-41.5 111v16h68q0 -34 19.5 -53t67.5 -19q49 0 68.5 19t19.5 53h68v-17q0 -69 -42 -110t-114 -41z" />
    <glyph glyph-name="acircumflex.ss02" horiz-adv-x="652" 
d="M293 -12q-70 0 -125 34t-87 93t-32 134t32 133.5t87 92t125 33.5q56 0 98 -21t68 -59l7 68h121v-496h-120l-8 71q-24 -33 -63.5 -58t-102.5 -25zM320 100q62 0 101.5 41.5t39.5 106.5t-39.5 106.5t-101.5 41.5q-61 0 -101 -41t-40 -106t40 -107t101 -42zM174 542v92
l146 80l146 -80v-92l-146 82z" />
    <glyph glyph-name="adieresis.ss02" horiz-adv-x="652" 
d="M293 -12q-70 0 -125 34t-87 93t-32 134t32 133.5t87 92t125 33.5q56 0 98 -21t68 -59l7 68h121v-496h-120l-8 71q-24 -33 -63.5 -58t-102.5 -25zM320 100q62 0 101.5 41.5t39.5 106.5t-39.5 106.5t-101.5 41.5q-61 0 -101 -41t-40 -106t40 -107t101 -42zM410 563
q-26 0 -44 18t-18 44t18 44t44 18t44 -18t18 -44t-18 -44t-44 -18zM230 563q-26 0 -44 18t-18 44t18 44t44 18t44 -18t18 -44t-18 -44t-44 -18z" />
    <glyph glyph-name="agrave.ss02" horiz-adv-x="652" 
d="M293 -12q-70 0 -125 34t-87 93t-32 134t32 133.5t87 92t125 33.5q56 0 98 -21t68 -59l7 68h121v-496h-120l-8 71q-24 -33 -63.5 -58t-102.5 -25zM320 100q62 0 101.5 41.5t39.5 106.5t-39.5 106.5t-101.5 41.5q-61 0 -101 -41t-40 -106t40 -107t101 -42zM370 535
l-226 108v104l226 -122v-90z" />
    <glyph glyph-name="amacron.ss02" horiz-adv-x="652" 
d="M293 -12q-70 0 -125 34t-87 93t-32 134t32 133.5t87 92t125 33.5q56 0 98 -21t68 -59l7 68h121v-496h-120l-8 71q-24 -33 -63.5 -58t-102.5 -25zM320 100q62 0 101.5 41.5t39.5 106.5t-39.5 106.5t-101.5 41.5q-61 0 -101 -41t-40 -106t40 -107t101 -42zM133 578v91h374
v-91h-374z" />
    <glyph glyph-name="aogonek.ss02" horiz-adv-x="652" 
d="M293 -12q-70 0 -125 34t-87 93t-32 134t32 133.5t87 92t125 33.5q56 0 98 -21t68 -59l7 68h121v-496h-120l-8 71q-24 -33 -63.5 -58t-102.5 -25zM320 100q62 0 101.5 41.5t39.5 106.5t-39.5 106.5t-101.5 41.5q-61 0 -101 -41t-40 -106t40 -107t101 -42zM505 -210
q-54 0 -93.5 25t-39.5 79q0 40 30 76t110 70l46 20l29 -60l-52 -26q-36 -18 -51 -34t-15 -34q0 -19 14 -30t38 -11q32 0 71 15v-76q-19 -6 -41.5 -10t-45.5 -4z" />
    <glyph glyph-name="aring.ss02" horiz-adv-x="652" 
d="M293 -12q-70 0 -125 34t-87 93t-32 134t32 133.5t87 92t125 33.5q56 0 98 -21t68 -59l7 68h121v-496h-120l-8 71q-24 -33 -63.5 -58t-102.5 -25zM320 100q62 0 101.5 41.5t39.5 106.5t-39.5 106.5t-101.5 41.5q-61 0 -101 -41t-40 -106t40 -107t101 -42zM319 546
q-46 0 -79.5 30t-33.5 82t33.5 82t79.5 30q48 0 81.5 -30t33.5 -82t-33.5 -82t-81.5 -30zM319 604q23 0 38 15t15 39q0 25 -15 39.5t-38 14.5q-21 0 -36 -14.5t-15 -39.5q0 -24 15 -39t36 -15z" />
    <glyph glyph-name="atilde.ss02" horiz-adv-x="652" 
d="M293 -12q-70 0 -125 34t-87 93t-32 134t32 133.5t87 92t125 33.5q56 0 98 -21t68 -59l7 68h121v-496h-120l-8 71q-24 -33 -63.5 -58t-102.5 -25zM320 100q62 0 101.5 41.5t39.5 106.5t-39.5 106.5t-101.5 41.5q-61 0 -101 -41t-40 -106t40 -107t101 -42zM383 547
q-28 0 -48 11.5t-37 23t-38 11.5q-36 0 -43 -45h-68q10 64 40.5 94t76.5 30q28 0 48 -11.5t37 -23t38 -11.5q17 0 28.5 11t14.5 34h68q-9 -64 -40.5 -94t-76.5 -30z" />
    <glyph glyph-name="ae.ss02" horiz-adv-x="1013" 
d="M300 -12q-74 0 -130.5 34t-88.5 93t-32 134t32 133.5t87 92t125 33.5q111 0 162 -74l8 62h103v-55q31 34 73 50.5t91 16.5q71 0 125 -32t84.5 -87.5t30.5 -123.5q0 -11 -0.5 -23t-1.5 -25h-377q4 -59 41 -91.5t88 -32.5q43 0 71.5 21.5t41.5 55.5h127q-13 -52 -45 -93
t-80 -65t-110 -24q-49 0 -89 15t-70 42l-1 -45h-102l-8 46q-35 -35 -74.5 -46.5t-80.5 -11.5zM594 297h246q-3 49 -36 78t-83 29q-47 0 -82.5 -27t-44.5 -80zM320 100q62 0 101.5 41.5t39.5 106.5t-39.5 106.5t-101.5 41.5q-61 0 -101 -41t-40 -106t40 -107t101 -42z" />
    <glyph glyph-name="aeacute.ss02" horiz-adv-x="1013" 
d="M300 -12q-74 0 -130.5 34t-88.5 93t-32 134t32 133.5t87 92t125 33.5q111 0 162 -74l8 62h103v-55q31 34 73 50.5t91 16.5q71 0 125 -32t84.5 -87.5t30.5 -123.5q0 -11 -0.5 -23t-1.5 -25h-377q4 -59 41 -91.5t88 -32.5q43 0 71.5 21.5t41.5 55.5h127q-13 -52 -45 -93
t-80 -65t-110 -24q-49 0 -89 15t-70 42l-1 -45h-102l-8 46q-35 -35 -74.5 -46.5t-80.5 -11.5zM594 297h246q-3 49 -36 78t-83 29q-47 0 -82.5 -27t-44.5 -80zM320 100q62 0 101.5 41.5t39.5 106.5t-39.5 106.5t-101.5 41.5q-61 0 -101 -41t-40 -106t40 -107t101 -42z
M467 536v90l226 122v-104z" />
    <glyph glyph-name="g.ss03" horiz-adv-x="663" 
d="M332 -232q-63 0 -121 21t-98 65t-48 114h127q9 -42 46.5 -65.5t90.5 -23.5q57 0 98.5 35.5t41.5 109.5v62q-22 -36 -64.5 -62.5t-106.5 -26.5q-71 0 -127 34t-89 91.5t-33 130.5t33 130.5t89.5 91t126.5 33.5q57 0 101 -23.5t70 -58.5l13 70h115v-465q0 -86 -36 -144.5
t-96.5 -88.5t-132.5 -30zM324 108q42 0 74.5 19t51 52t18.5 73q0 63 -40 103.5t-104 40.5t-104 -40.5t-40 -102.5q0 -41 18 -74t50.5 -52t75.5 -19z" />
    <glyph glyph-name="gbreve.ss03" horiz-adv-x="663" 
d="M332 -232q-63 0 -121 21t-98 65t-48 114h127q9 -42 46.5 -65.5t90.5 -23.5q57 0 98.5 35.5t41.5 109.5v62q-22 -36 -64.5 -62.5t-106.5 -26.5q-71 0 -127 34t-89 91.5t-33 130.5t33 130.5t89.5 91t126.5 33.5q57 0 101 -23.5t70 -58.5l13 70h115v-465q0 -86 -36 -144.5
t-96.5 -88.5t-132.5 -30zM324 108q42 0 74.5 19t51 52t18.5 73q0 63 -40 103.5t-104 40.5t-104 -40.5t-40 -102.5q0 -41 18 -74t50.5 -52t75.5 -19zM317 545q-72 0 -113.5 41t-41.5 111v16h68q0 -34 19.5 -53t67.5 -19q49 0 68.5 19t19.5 53h68v-17q0 -69 -42 -110t-114 -41
z" />
    <glyph glyph-name="uni0123.ss03" horiz-adv-x="663" 
d="M246 597q-8 28 -11.5 54.5t-3.5 49.5q0 62 29.5 96.5t89.5 34.5v-53q-50 0 -50 -59v-20h56v-103h-110zM332 -232q-63 0 -121 21t-98 65t-48 114h127q9 -42 46.5 -65.5t90.5 -23.5q57 0 98.5 35.5t41.5 109.5v62q-22 -36 -64.5 -62.5t-106.5 -26.5q-71 0 -127 34t-89 91.5
t-33 130.5t33 130.5t89.5 91t126.5 33.5q57 0 101 -23.5t70 -58.5l13 70h115v-465q0 -86 -36 -144.5t-96.5 -88.5t-132.5 -30zM324 108q42 0 74.5 19t51 52t18.5 73q0 63 -40 103.5t-104 40.5t-104 -40.5t-40 -102.5q0 -41 18 -74t50.5 -52t75.5 -19z" />
    <glyph glyph-name="gdotaccent.ss03" horiz-adv-x="663" 
d="M332 -232q-63 0 -121 21t-98 65t-48 114h127q9 -42 46.5 -65.5t90.5 -23.5q57 0 98.5 35.5t41.5 109.5v62q-22 -36 -64.5 -62.5t-106.5 -26.5q-71 0 -127 34t-89 91.5t-33 130.5t33 130.5t89.5 91t126.5 33.5q57 0 101 -23.5t70 -58.5l13 70h115v-465q0 -86 -36 -144.5
t-96.5 -88.5t-132.5 -30zM324 108q42 0 74.5 19t51 52t18.5 73q0 63 -40 103.5t-104 40.5t-104 -40.5t-40 -102.5q0 -41 18 -74t50.5 -52t75.5 -19zM317 560q-26 0 -44 18t-18 44t18 44t44 18t44 -18t18 -44t-18 -44t-44 -18z" />
    <glyph glyph-name="three.ss04" horiz-adv-x="605" 
d="M301 -6q-70 0 -125.5 24.5t-89 74.5t-37.5 127h126q4 -52 35.5 -85.5t91.5 -33.5q57 0 90 32.5t33 89.5t-35.5 90.5t-97.5 33.5h-99v85l168 159h-272v109h429v-97l-183 -171q99 -7 156 -62.5t57 -150.5q0 -68 -30.5 -118.5t-85.5 -78.5t-131 -28z" />
    <glyph glyph-name="six.ss04" horiz-adv-x="606" 
d="M304 -12q-76 0 -133.5 32t-89.5 88t-32 127q0 54 18 107t59 113l165 245h145l-169 -242q15 4 30.5 6t32.5 2q66 0 117.5 -28t80.5 -80t29 -124q0 -74 -33 -129t-90 -86t-130 -31zM304 98q60 0 95.5 37t35.5 98t-35.5 97.5t-95.5 36.5t-95.5 -36.5t-35.5 -97.5t35.5 -98
t95.5 -37z" />
    <glyph glyph-name="nine.ss04" horiz-adv-x="606" 
d="M171 0l168 242q-15 -4 -30.5 -6t-32.5 -2q-66 0 -117.5 28t-80.5 80t-29 124q0 74 33 129t90 86t130 31q76 0 133.5 -32t89.5 -88t32 -127q0 -54 -18 -107t-59 -113l-165 -245h-144zM302 333q60 0 95.5 36.5t35.5 97.5t-35.5 98t-95.5 37t-95.5 -37t-35.5 -98t35.5 -97.5
t95.5 -36.5z" />
    <glyph glyph-name="comma.ss01" horiz-adv-x="208" 
d="M48 -102v52q49 0 49 60v20h-56v103h110q8 -29 12 -55t4 -49q0 -63 -30 -97t-89 -34z" />
    <glyph glyph-name="quotesinglbase.ss01" horiz-adv-x="208" 
d="M48 -102v52q49 0 49 60v20h-56v103h110q8 -29 12 -55t4 -49q0 -63 -30 -97t-89 -34z" />
    <glyph glyph-name="quotedblbase.ss01" horiz-adv-x="369" 
d="M48 -102v52q49 0 49 60v20h-56v103h110q8 -29 12 -55t4 -49q0 -63 -30 -97t-89 -34zM209 -102v52q49 0 49 60v20h-55v103h109q9 -29 12.5 -55t3.5 -49q0 -63 -30 -97t-89 -34z" />
    <glyph glyph-name="quotedblleft.ss01" horiz-adv-x="358" 
d="M211 576q-8 29 -11.5 55t-3.5 49q0 62 30 96.5t90 34.5v-53q-51 0 -51 -59v-20h56v-103h-110zM51 576q-8 29 -12 55t-4 49q0 62 30 96.5t89 34.5v-53q-49 0 -49 -59v-20h56v-103h-110z" />
    <glyph glyph-name="quotedblright.ss01" horiz-adv-x="357" 
d="M202 576v52q50 0 50 60v20h-55v103h110q7 -29 11 -55t4 -49q0 -62 -30 -96.5t-90 -34.5zM42 576v52q50 0 50 60v20h-56v103h109q9 -29 12.5 -55t3.5 -49q0 -62 -30 -96.5t-89 -34.5z" />
    <glyph glyph-name="quoteleft.ss01" horiz-adv-x="197" 
d="M51 576q-8 29 -12 55t-4 49q0 62 30 96.5t89 34.5v-53q-49 0 -49 -59v-20h56v-103h-110z" />
    <glyph glyph-name="quoteright.ss01" horiz-adv-x="197" 
d="M42 576v52q50 0 50 60v20h-56v103h109q9 -29 12.5 -55t3.5 -49q0 -62 -30 -96.5t-89 -34.5z" />
    <glyph glyph-name="uni0308.cap" 
d="M242 768q-26 0 -44 18t-18 44t18 44t44 18t44 -18t18 -44t-18 -44t-44 -18zM62 768q-26 0 -44 18t-18 44t18 44t44 18t44 -18t18 -44t-18 -44t-44 -18z" />
    <glyph glyph-name="uni0307.cap" 
d="M62 764q-26 0 -44 18t-18 44t18 44t44 18t44 -18t18 -44t-18 -44t-44 -18z" />
    <glyph glyph-name="gravecomb.cap" 
d="M226 740l-226 108v104l226 -122v-90z" />
    <glyph glyph-name="acutecomb.cap" 
d="M0 740v90l226 122v-104z" />
    <glyph glyph-name="uni030B.cap" 
d="M170 748l81 179h105l-106 -179h-80zM0 748l71 179h104l-94 -179h-81z" />
    <glyph glyph-name="uni0302.cap" 
d="M0 747v92l146 80l146 -80v-92l-146 82z" />
    <glyph glyph-name="uni030C.cap" 
d="M146 746l-146 80v92l146 -85l146 85v-92z" />
    <glyph glyph-name="uni0306.cap" 
d="M155 749q-72 0 -113.5 41t-41.5 111v16h68q0 -34 19.5 -53t67.5 -19q49 0 68.5 19t19.5 53h68v-17q0 -69 -42 -110t-114 -41z" />
    <glyph glyph-name="uni030A.cap" 
d="M113 751q-46 0 -79.5 30t-33.5 82t33.5 82t79.5 30q48 0 81.5 -30t33.5 -82t-33.5 -82t-81.5 -30zM113 809q23 0 38 15t15 39q0 25 -15 39.5t-38 14.5q-21 0 -36 -14.5t-15 -39.5q0 -24 15 -39t36 -15z" />
    <glyph glyph-name="tildecomb.cap" 
d="M234 752q-28 0 -48 11.5t-37 23t-38 11.5q-36 0 -43 -45h-68q10 64 40.5 94t76.5 30q28 0 48 -11.5t37 -23t38 -11.5q17 0 28.5 11t14.5 34h68q-9 -64 -40.5 -94t-76.5 -30z" />
    <glyph glyph-name="uni0304.cap" 
d="M0 783v91h374v-91h-374z" />
    <glyph glyph-name="uni0327.cap" 
d="M0 -263v74h112q53 0 53 36q0 35 -53 35h-61v125h80v-57q34 1 63.5 -10t48 -34.5t18.5 -60.5q0 -54 -39 -81t-91 -27h-131z" />
    <glyph glyph-name="uni0328.cap" 
d="M133 -210q-54 0 -93.5 25t-39.5 79q0 40 30 76t110 70l46 20l29 -60l-52 -26q-36 -18 -51 -34t-15 -34q0 -19 14 -30t38 -11q32 0 71 15v-76q-19 -6 -41.5 -10t-45.5 -4z" />
    </font>
</defs>
</svg>
