<?xml version="1.0" standalone="no"?>
<!DOCTYPE svg PUBLIC "-//W3C//DTD SVG 1.1//EN" "http://www.w3.org/Graphics/SVG/1.1/DTD/svg11.dtd" >
<svg xmlns="http://www.w3.org/2000/svg" xmlns:xlink="http://www.w3.org/1999/xlink" version="1.1">
<metadata>
Created by FontForge 20170731 at Tue Oct 15 18:58:08 2019
 By Aleksey,,,
Copyright 2014-2017 Indian Type Foundry (info@indiantypefoundry.com) with Reserved Font Name 'Poppins'. Copyright 2019 Google LLC.
</metadata>
<defs>
<font id="DMSans-BoldItalic" horiz-adv-x="0" >
  <font-face 
    font-family="DM Sans"
    font-weight="700"
    font-style="italic"
    font-stretch="normal"
    units-per-em="1000"
    panose-1="0 0 0 0 0 0 0 0 0 0"
    ascent="800"
    descent="-200"
    x-height="496"
    cap-height="700"
    bbox="-145 -274 1203 975"
    underline-thickness="50"
    underline-position="-175"
    slope="-10"
    unicode-range="U+000D-FB02"
  />
<missing-glyph horiz-adv-x="537" 
d="M24 0l124 700h401l-124 -700h-401zM104 57h261l104 586h-261z" />
    <glyph glyph-name="fi" unicode="fi" horiz-adv-x="608" 
d="M544 571q-35 0 -57.5 21.5t-22.5 53.5t22.5 53.5t57.5 21.5t57.5 -21.5t22.5 -53.5t-22.5 -53.5t-57.5 -21.5zM45 0l69 389h-69l19 107h68l10 58q16 90 68.5 128t131.5 38h54l-20 -109h-34q-33 0 -49.5 -13t-22.5 -44l-10 -58h321l-88 -496h-128l69 389h-193l-68 -389
h-128z" />
    <glyph glyph-name="fl" unicode="fl" horiz-adv-x="621" 
d="M45 0l68 389h-68l19 107h68l10 58q16 90 68.5 128t131.5 38h54l-20 -109h-34q-33 0 -49.5 -13t-22.5 -44l-10 -58h107l-19 -107h-107l-68 -389h-128zM382 0l128 720h128l-128 -720h-128z" />
    <glyph glyph-name=".notdef" horiz-adv-x="537" 
d="M24 0l124 700h401l-124 -700h-401zM104 57h261l104 586h-261z" />
    <glyph glyph-name=".null" 
 />
    <glyph glyph-name="nonmarkingreturn" horiz-adv-x="333" 
 />
    <glyph glyph-name="CR" unicode="&#xd;" horiz-adv-x="600" 
 />
    <glyph glyph-name="space" unicode=" " horiz-adv-x="258" 
 />
    <glyph glyph-name="exclam" unicode="!" horiz-adv-x="298" 
d="M81 221l70 479h137l-99 -479h-108zM118 -7q-35 0 -57.5 22t-22.5 53q0 32 22.5 54t57.5 22t57 -22t22 -54q0 -31 -22 -53t-57 -22z" />
    <glyph glyph-name="quotedbl" unicode="&#x22;" horiz-adv-x="350" 
d="M265 546l24 209h111l-48 -209h-87zM105 546l24 209h110l-48 -209h-86z" />
    <glyph glyph-name="numbersign" unicode="#" horiz-adv-x="860" 
d="M92 0l68 175h-144l20 115h169l57 146h-146l19 115h172l67 172h121l-67 -172h189l68 172h120l-67 -172h131l-20 -115h-156l-57 -146h133l-20 -115h-158l-68 -175h-121l69 175h-190l-69 -175h-120zM326 290h189l58 146h-190z" />
    <glyph glyph-name="dollar" unicode="$" horiz-adv-x="604" 
d="M204 -87l14 78q-82 12 -132.5 58.5t-50.5 122.5q0 10 1 19.5t2 19.5h136q-1 -11 -1 -20q0 -32 17 -55t47 -33l37 209q-8 2 -16.5 5t-16.5 6q-66 24 -101 66t-35 99q0 63 30.5 111t84.5 77.5t125 34.5l14 81h66l-15 -82q80 -9 127.5 -53.5t47.5 -115.5q0 -7 -0.5 -15
t-1.5 -16h-137q1 9 1 17q0 24 -14 43.5t-42 28.5l-33 -186q8 -3 16.5 -6t17.5 -6q43 -15 78.5 -39.5t57 -59.5t21.5 -83q0 -68 -34 -119t-94 -80t-138 -32l-13 -75h-66zM243 511q0 -26 14.5 -43t39.5 -30l28 164q-38 -7 -60 -32t-22 -59zM410 202q0 32 -21 52t-53 34
l-34 -192q51 4 79.5 33t28.5 73z" />
    <glyph glyph-name="percent" unicode="%" horiz-adv-x="873" 
d="M237 356q-65 0 -107.5 39.5t-42.5 105.5q0 59 27 106.5t73 76t103 28.5q64 0 106 -39t42 -106q0 -59 -26.5 -107t-72 -76t-102.5 -28zM131 0l518 700h125l-518 -700h-125zM247 444q37 0 63.5 33t26.5 81q0 33 -16.5 50t-42.5 17q-37 0 -63.5 -33.5t-26.5 -80.5
q0 -33 16.5 -50t42.5 -17zM620 -12q-64 0 -107 39t-43 106q0 59 27 106.5t73 75.5t103 28q64 0 106 -38.5t42 -105.5q0 -59 -26.5 -106.5t-72 -76t-102.5 -28.5zM630 76q38 0 64 33.5t26 79.5q0 34 -16.5 51t-41.5 17q-38 0 -64 -33.5t-26 -81.5q0 -33 16.5 -49.5
t41.5 -16.5z" />
    <glyph glyph-name="ampersand" unicode="&#x26;" horiz-adv-x="778" 
d="M251 -11q-103 0 -163.5 48t-60.5 131t55 146t141 98q-37 53 -37 103q0 59 30 103t82 69t118 25q82 0 126 -39t44 -97q0 -13 -3 -28h-121q0 4 0.5 7.5t0.5 6.5q0 26 -18.5 40.5t-45.5 14.5q-38 0 -63 -24t-25 -59q0 -23 11.5 -46.5t33.5 -52.5l161 -193q23 29 48 66l40 56
h130l-54 -78q-48 -74 -95 -127l132 -159h-153l-64 77q-57 -46 -118.5 -67t-131.5 -21zM158 190q0 -41 30.5 -68.5t85.5 -27.5q87 0 162 61l-154 184q-57 -23 -90.5 -61t-33.5 -88z" />
    <glyph glyph-name="quotesingle" unicode="'" horiz-adv-x="189" 
d="M105 546l24 209h110l-48 -209h-86z" />
    <glyph glyph-name="parenleft" unicode="(" horiz-adv-x="400" 
d="M170 -145q-54 65 -87 159t-33 203q0 110 35 218t100 204.5t154 171.5h127l-1 -12q-91 -81 -155.5 -174t-98.5 -192.5t-34 -199.5q0 -102 33 -196.5t91 -169.5l-3 -12h-128z" />
    <glyph glyph-name="parenright" unicode=")" horiz-adv-x="400" 
d="M-36 -145l2 12q90 81 154.5 174t98.5 192.5t34 199.5q0 102 -32.5 196.5t-91.5 169.5l3 12h128q54 -65 87 -159t33 -203q0 -110 -35 -218t-100 -204.5t-153 -171.5h-128z" />
    <glyph glyph-name="asterisk" unicode="*" horiz-adv-x="506" 
d="M223 360l42 141l-126 -88l-34 85l140 52l-121 50l59 81l100 -87l6 143h93l-45 -143l128 87l31 -80l-140 -52l122 -52l-60 -83l-98 87l-5 -141h-92z" />
    <glyph glyph-name="plus" unicode="+" horiz-adv-x="597" 
d="M211 63l31 173h-187l18 107h188l31 173h109l-31 -173h187l-18 -107h-188l-30 -173h-110z" />
    <glyph glyph-name="comma" unicode="," horiz-adv-x="232" 
d="M-52 -116l101 249h124l-141 -249h-84z" />
    <glyph glyph-name="hyphen" unicode="-" horiz-adv-x="527" 
d="M53 236l18 107h419l-19 -107h-418z" />
    <glyph glyph-name="period" unicode="." horiz-adv-x="242" 
d="M90 -7q-36 0 -58 22t-22 53q0 32 22 54t58 22q35 0 57 -22t22 -54q0 -31 -22 -53t-57 -22z" />
    <glyph glyph-name="slash" unicode="/" horiz-adv-x="421" 
d="M-40 -111l406 888h125l-407 -888h-124z" />
    <glyph glyph-name="zero" unicode="0" horiz-adv-x="713" 
d="M313 -12q-81 0 -138.5 34t-88 95t-30.5 144q0 95 29 177t80.5 143.5t120.5 96t149 34.5q82 0 139.5 -34t88 -95.5t30.5 -143.5q0 -95 -29 -177t-80.5 -143.5t-120.5 -96t-150 -34.5zM331 103q47 0 88.5 25t73.5 69t49.5 101.5t17.5 123.5q0 82 -38 128.5t-104 46.5
q-47 0 -88.5 -25t-73.5 -69t-50 -101.5t-18 -123.5q0 -82 38.5 -128.5t104.5 -46.5z" />
    <glyph glyph-name="one" unicode="1" horiz-adv-x="345" 
d="M101 0l97 554l-121 -32l18 103l183 75h79l-124 -700h-132z" />
    <glyph glyph-name="two" unicode="2" horiz-adv-x="578" 
d="M13 0l16 93q119 84 208.5 158.5t138.5 140.5t49 126q0 34 -20 60t-67 26q-53 0 -87 -36t-42 -87h-124q15 75 53.5 126.5t94 78t120.5 26.5q95 0 149 -49.5t54 -128.5q0 -78 -47 -151t-125.5 -142t-173.5 -136h304l-19 -105h-482z" />
    <glyph glyph-name="three" unicode="3" horiz-adv-x="596" 
d="M252 -12q-61 0 -110 20t-77 61t-28 103q0 23 3 44h126q-1 -5 -1.5 -11t-0.5 -14q0 -41 27 -68t79 -27q58 0 96.5 35.5t38.5 89.5q0 46 -33 71t-87 25h-52l18 105h52q61 0 99 30t38 81q0 31 -22 50.5t-61 19.5q-49 0 -81.5 -29t-43.5 -71h-125q22 97 93.5 153t172.5 56
q96 0 146 -44.5t50 -111.5q0 -62 -39 -113.5t-103 -70.5q48 -10 76 -47t28 -92q0 -70 -36.5 -125.5t-99.5 -87.5t-143 -32z" />
    <glyph glyph-name="four" unicode="4" horiz-adv-x="641" 
d="M345 0l22 130h-345l18 102l411 468h145l-81 -459h92l-19 -111h-93l-23 -130h-127zM179 241h216l56 318z" />
    <glyph glyph-name="five" unicode="5" horiz-adv-x="621" 
d="M274 -12q-106 0 -164.5 54t-57.5 137q0 4 0.5 8.5t1.5 9.5h125q0 -45 31.5 -72.5t80.5 -27.5q45 0 80 22t55.5 59.5t20.5 85.5q0 49 -28 81t-76 32q-46 0 -82.5 -22t-55.5 -55h-123l131 400h387l-19 -112h-293l-60 -162q27 24 66 39.5t86 15.5q64 0 107 -27.5t64.5 -72.5
t21.5 -97q0 -85 -40 -152t-107.5 -105.5t-151.5 -38.5z" />
    <glyph glyph-name="six" unicode="6" horiz-adv-x="633" 
d="M292 -12q-83 0 -134 34.5t-74.5 90.5t-23.5 122q0 98 25.5 184t71.5 152t110 103.5t140 37.5q71 0 116 -28.5t65 -74.5t16 -99h-119q-1 46 -24.5 71t-68.5 25q-64 0 -116.5 -59.5t-78.5 -180.5q32 38 78.5 62t104.5 24q55 0 99 -25t69 -69.5t25 -100.5q0 -76 -37.5 -137
t-101.5 -96.5t-142 -35.5zM302 98q42 0 75 18t52 49.5t19 72.5q0 45 -29.5 75.5t-79.5 30.5q-42 0 -75.5 -19t-53 -50.5t-19.5 -70.5q0 -45 30.5 -75.5t80.5 -30.5z" />
    <glyph glyph-name="seven" unicode="7" horiz-adv-x="535" 
d="M61 0l368 591h-341l19 109h477l-16 -91l-371 -609h-136z" />
    <glyph glyph-name="eight" unicode="8" horiz-adv-x="623" 
d="M271 -12q-65 0 -115.5 21t-79.5 62t-29 100q0 69 44 125t116 80q-40 19 -62.5 51.5t-22.5 73.5q0 62 36.5 109.5t98 74.5t138.5 27q99 0 150.5 -45t51.5 -117q0 -45 -20 -79.5t-51 -58t-64 -36.5q49 -19 73 -58t24 -90q0 -73 -39.5 -127t-105 -83.5t-143.5 -29.5z
M345 414q31 0 59 13.5t46 38.5t18 60q0 43 -27.5 62.5t-66.5 19.5q-52 0 -89 -31t-37 -79q0 -41 27.5 -62.5t69.5 -21.5zM287 95q41 0 74 17t52.5 46.5t19.5 66.5q0 45 -30.5 69.5t-79.5 24.5q-40 0 -73.5 -16.5t-53.5 -45.5t-20 -67q0 -42 29 -68.5t82 -26.5z" />
    <glyph glyph-name="nine" unicode="9" horiz-adv-x="633" 
d="M262 -12q-72 0 -117 28.5t-64.5 74.5t-15.5 99h119q0 -46 24 -71t68 -25q65 0 117.5 59.5t77.5 180.5q-32 -38 -78 -62t-104 -24q-56 0 -99.5 25t-68.5 69.5t-25 100.5q0 76 37.5 137t101.5 96.5t142 35.5q83 0 134 -34.5t74.5 -90.5t23.5 -122q0 -98 -25.5 -184
t-72 -152t-110 -103.5t-139.5 -37.5zM330 356q42 0 75.5 19t53 50.5t19.5 70.5q0 45 -30.5 75.5t-80.5 30.5q-42 0 -75 -18t-52 -49.5t-19 -72.5q0 -45 29.5 -75.5t79.5 -30.5z" />
    <glyph glyph-name="colon" unicode=":" horiz-adv-x="242" 
d="M90 -7q-36 0 -58 22t-22 53q0 32 22 54t58 22q35 0 57 -22t22 -54q0 -31 -22 -53t-57 -22zM154 357q-36 0 -58 22t-22 53q0 32 22 54t58 22q35 0 57 -22t22 -54q0 -31 -22 -53t-57 -22z" />
    <glyph glyph-name="semicolon" unicode=";" horiz-adv-x="265" 
d="M178 357q-36 0 -58 22t-22 53q0 32 22 54t58 22q35 0 57 -22t22 -54q0 -31 -22 -53t-57 -22zM-43 -116l101 249h124l-141 -249h-84z" />
    <glyph glyph-name="less" unicode="&#x3c;" horiz-adv-x="521" 
d="M277 133l-184 226l264 225h160l-264 -225l185 -226h-161z" />
    <glyph glyph-name="equal" unicode="=" horiz-adv-x="543" 
d="M76 345l20 112h424l-19 -112h-425zM37 123l20 112h425l-20 -112h-425z" />
    <glyph glyph-name="greater" unicode="&#x3e;" horiz-adv-x="520" 
d="M43 133l264 226l-185 225h161l184 -225l-263 -226h-161z" />
    <glyph glyph-name="question" unicode="?" horiz-adv-x="527" 
d="M129 218l25 165h45q58 0 105.5 12t75.5 42.5t28 84.5q0 38 -24 61t-66 23q-50 0 -83.5 -27.5t-41.5 -74.5h-121q10 60 45.5 107t92 74t128.5 27q89 0 142.5 -47t53.5 -128q0 -76 -35.5 -129t-97.5 -81t-142 -29l-18 -80h-112zM164 -7q-36 0 -58.5 22t-22.5 53
q0 32 22.5 54t58.5 22q35 0 57 -22t22 -54q0 -31 -22 -53t-57 -22z" />
    <glyph glyph-name="at" unicode="@" horiz-adv-x="1040" 
d="M436 -212q-112 0 -195 42.5t-129 120t-46 183.5q0 111 39 206t109.5 165.5t166 109.5t208.5 39q115 0 199.5 -43.5t130.5 -121.5t46 -180q0 -60 -15.5 -116.5t-45 -101t-73 -70.5t-100.5 -26q-52 0 -82 23t-38 63q-30 -41 -75 -64.5t-98 -23.5q-76 0 -118 45.5t-42 123.5
q0 54 17 104.5t48.5 90t75 62.5t96.5 23q92 0 122 -70l11 61h105l-47 -268q-6 -39 2.5 -62.5t41.5 -23.5q30 0 51.5 20.5t36 54t21.5 73t7 77.5q0 122 -77 192.5t-213 70.5q-89 0 -164 -32.5t-130.5 -90.5t-86 -134.5t-30.5 -164.5q0 -128 76 -198.5t210 -70.5q95 0 172 35
l20 -83q-47 -20 -99.5 -30t-107.5 -10zM479 87q35 0 65 20t49 54.5t21 77.5q3 46 -19.5 78t-69.5 32q-41 0 -71 -24t-46.5 -61.5t-16.5 -80.5t22 -69.5t66 -26.5z" />
    <glyph glyph-name="A" unicode="A" horiz-adv-x="701" 
d="M-21 0l379 700h145l132 -700h-135l-28 162h-273l-85 -162h-135zM250 260h206l-51 296z" />
    <glyph glyph-name="B" unicode="B" horiz-adv-x="638" 
d="M24 0l124 700h282q96 0 145 -41.5t49 -110.5t-42.5 -119.5t-109.5 -67.5q50 -11 80 -49t30 -90q0 -67 -36 -117t-96.5 -77.5t-134.5 -27.5h-291zM224 405h133q61 0 96.5 31.5t35.5 85.5q0 36 -24.5 57t-74.5 20h-132zM170 102h144q64 0 102 35t38 91q0 38 -28 60t-78 22
h-141z" />
    <glyph glyph-name="C" unicode="C" horiz-adv-x="739" 
d="M341 -12q-90 0 -153.5 35.5t-97 98.5t-33.5 147q0 94 31 175t86.5 141t130 93.5t162.5 33.5q126 0 196 -62.5t71 -175.5h-142q-2 58 -39 90t-106 32q-74 0 -132 -41t-92 -112t-34 -160q0 -85 45.5 -132.5t127.5 -47.5q69 0 115.5 30t69.5 85h142q-40 -109 -131.5 -169.5
t-216.5 -60.5z" />
    <glyph glyph-name="D" unicode="D" horiz-adv-x="716" 
d="M25 0l123 700h239q158 0 232 -77t74 -208q0 -122 -53.5 -216t-149.5 -146.5t-226 -52.5h-239zM172 110h105q91 0 154.5 36t96.5 102t33 156q0 94 -48 140.5t-151 46.5h-105z" />
    <glyph glyph-name="E" unicode="E" horiz-adv-x="560" 
d="M24 0l124 700h433l-19 -101h-304l-34 -195h274l-17 -98h-274l-37 -205h305l-18 -101h-433z" />
    <glyph glyph-name="F" unicode="F" horiz-adv-x="542" 
d="M24 0l124 700h437l-19 -101h-308l-35 -199h247l-18 -98h-247l-53 -302h-128z" />
    <glyph glyph-name="G" unicode="G" horiz-adv-x="777" 
d="M333 -12q-86 0 -147 38.5t-94 104.5t-33 150q0 95 31 174t87.5 136.5t132.5 89t167 31.5q123 0 196 -59t78 -163h-143q-7 49 -44.5 76.5t-104.5 27.5q-79 0 -139.5 -38.5t-94.5 -106.5t-34 -158q0 -88 46 -138.5t128 -50.5q95 0 152.5 51.5t81.5 135.5h-176l17 96h305
l-68 -385h-116l4 92q-42 -50 -97 -77t-135 -27z" />
    <glyph glyph-name="H" unicode="H" horiz-adv-x="706" 
d="M24 0l124 700h128l-52 -292h315l51 292h128l-124 -700h-128l55 307h-314l-55 -307h-128z" />
    <glyph glyph-name="I" unicode="I" horiz-adv-x="264" 
d="M24 0l124 700h128l-124 -700h-128z" />
    <glyph glyph-name="J" unicode="J" horiz-adv-x="522" 
d="M198 -12q-98 0 -148.5 57.5t-31.5 162.5h128q-9 -48 7.5 -77t62.5 -29q43 0 68.5 26.5t32.5 67.5l88 504h128l-88 -504q-18 -99 -85 -153.5t-162 -54.5z" />
    <glyph glyph-name="K" unicode="K" horiz-adv-x="647" 
d="M25 0l123 700h128l-49 -283l308 283h158l-307 -278l191 -422h-152l-145 327l-83 -76l-44 -251h-128z" />
    <glyph glyph-name="L" unicode="L" horiz-adv-x="552" 
d="M25 0l123 700h128l-106 -600h310l-17 -100h-438z" />
    <glyph glyph-name="M" unicode="M" horiz-adv-x="884" 
d="M25 0l123 700h152l145 -444l298 444h152l-123 -700h-128l85 483l-262 -383h-101l-128 383l-85 -483h-128z" />
    <glyph glyph-name="N" unicode="N" horiz-adv-x="721" 
d="M24 0l124 700h129l240 -499l88 499h128l-124 -700h-128l-240 499l-89 -499h-128z" />
    <glyph glyph-name="O" unicode="O" horiz-adv-x="804" 
d="M361 -12q-89 0 -157 39t-106.5 107.5t-38.5 155.5q0 88 32.5 164.5t90 134.5t134 90.5t163.5 32.5q89 0 157 -39t106.5 -107t38.5 -155q0 -88 -32.5 -165t-90.5 -135t-134 -90.5t-163 -32.5zM377 103q56 0 105 22.5t86.5 63.5t59 95t21.5 116q0 90 -49 143.5t-136 53.5
q-57 0 -106 -23t-86.5 -63t-59 -94t-21.5 -116q0 -90 50 -144t136 -54z" />
    <glyph glyph-name="P" unicode="P" horiz-adv-x="611" 
d="M25 0l123 700h259q73 0 121 -25.5t71 -67.5t23 -92q0 -76 -37 -130.5t-102.5 -84t-150.5 -29.5h-131l-48 -271h-128zM219 375h123q70 0 109 33.5t39 96.5q0 41 -26 66t-83 25h-123z" />
    <glyph glyph-name="Q" unicode="Q" horiz-adv-x="788" 
d="M361 -12q-89 0 -157 39t-106.5 107.5t-38.5 155.5q0 88 32.5 164.5t90 134.5t134 90.5t163.5 32.5q89 0 157 -39t106.5 -107t38.5 -155q0 -81 -27.5 -152t-76.5 -127.5t-114 -92.5l125 -166h-158l-86 123q-41 -8 -83 -8zM377 103q56 0 105 22.5t86.5 63.5t59 95t21.5 116
q0 90 -49 143.5t-136 53.5q-57 0 -106 -23t-86.5 -63t-59 -94t-21.5 -116q0 -90 50 -144t136 -54z" />
    <glyph glyph-name="R" unicode="R" horiz-adv-x="624" 
d="M25 0l123 700h253q74 0 122 -25.5t71.5 -67.5t23.5 -91q0 -84 -47.5 -142t-127.5 -82l93 -292h-140l-81 276h-113l-49 -276h-128zM218 370h121q67 0 107 35t40 97q0 40 -25.5 65.5t-82.5 25.5h-121z" />
    <glyph glyph-name="S" unicode="S" horiz-adv-x="604" 
d="M270 -12q-69 0 -122 21.5t-83 63t-30 99.5q0 10 1 19.5t2 19.5h136q-1 -11 -1 -20q0 -43 30.5 -69.5t82.5 -26.5q58 0 91 29.5t33 77.5q0 36 -25 57t-63.5 35t-80.5 29q-66 24 -101 66t-35 99q0 67 34.5 117.5t95 78.5t139.5 28q95 0 153 -46t58 -125q0 -7 -0.5 -15
t-1.5 -16h-137q1 9 1 17q0 31 -24 54t-70 23q-51 0 -80.5 -26.5t-29.5 -66.5q0 -31 20 -49.5t54 -32t75 -28.5q43 -15 78.5 -39.5t57 -59.5t21.5 -83q0 -70 -36 -122t-99 -80.5t-144 -28.5z" />
    <glyph glyph-name="T" unicode="T" horiz-adv-x="591" 
d="M188 0l105 599h-204l18 101h537l-17 -101h-206l-105 -599h-128z" />
    <glyph glyph-name="U" unicode="U" horiz-adv-x="686" 
d="M289 -12q-66 0 -118.5 23t-82.5 70.5t-30 119.5q0 31 6 67l76 432h128l-76 -432q-3 -12 -4 -23.5t-1 -21.5q0 -59 33 -88t92 -29q69 0 116 40t61 122l77 432h128l-76 -432q-17 -96 -65.5 -158t-117 -92t-146.5 -30z" />
    <glyph glyph-name="V" unicode="V" horiz-adv-x="699" 
d="M227 0l-132 700h137l97 -568l298 568h137l-380 -700h-157z" />
    <glyph glyph-name="W" unicode="W" horiz-adv-x="1011" 
d="M160 0l-61 700h137l28 -552l245 552h143l45 -551l223 551h139l-314 -700h-152l-47 518l-235 -518h-151z" />
    <glyph glyph-name="X" unicode="X" horiz-adv-x="655" 
d="M-21 0l282 355l-161 345h148l113 -243l186 243h145l-281 -351l163 -349h-148l-115 247l-187 -247h-145z" />
    <glyph glyph-name="Y" unicode="Y" horiz-adv-x="625" 
d="M199 0l44 249l-157 451h146l98 -322l211 322h144l-314 -451l-44 -249h-128z" />
    <glyph glyph-name="Z" unicode="Z" horiz-adv-x="566" 
d="M-4 0l18 98l409 495h-319l19 107h467l-17 -98l-411 -495h325l-19 -107h-472z" />
    <glyph glyph-name="bracketleft" unicode="[" horiz-adv-x="361" 
d="M-6 -171l173 981h238l-18 -104h-118l-136 -772h118l-19 -105h-238z" />
    <glyph glyph-name="backslash" unicode="\" horiz-adv-x="421" 
d="M210 -111l-93 888h124l93 -888h-124z" />
    <glyph glyph-name="bracketright" unicode="]" horiz-adv-x="361" 
d="M-19 -170l19 104h118l136 772h-118l18 105h238l-173 -981h-238z" />
    <glyph glyph-name="asciicircum" unicode="^" horiz-adv-x="665" 
d="M13 170l332 530h122l145 -530h-130l-102 379l-238 -379h-129z" />
    <glyph glyph-name="underscore" unicode="_" horiz-adv-x="681" 
d="M-17 -160l21 122h572l-21 -122h-572z" />
    <glyph glyph-name="grave" unicode="`" horiz-adv-x="258" 
d="M292 536l-206 108l18 104l205 -122z" />
    <glyph glyph-name="a" unicode="a" horiz-adv-x="575" 
d="M188 -12q-84 0 -123 38.5t-39 92.5q0 80 67 127t179 47h126l2 12q1 6 1.5 12.5t0.5 11.5q0 38 -24 56.5t-61 18.5q-39 0 -71.5 -18.5t-46.5 -54.5h-125q15 54 52.5 94t91.5 61.5t117 21.5q92 0 144.5 -41t52.5 -118q0 -10 -1 -21.5t-3 -22.5l-54 -305h-114l5 77
q-29 -38 -72.5 -63.5t-104.5 -25.5zM235 88q55 0 91.5 36t53.5 89h-108q-50 0 -79 -20t-29 -55q0 -25 19.5 -37.5t51.5 -12.5z" />
    <glyph glyph-name="b" unicode="b" horiz-adv-x="644" 
d="M314 -12q-55 0 -94.5 23.5t-58.5 56.5l-26 -68h-114l127 720h128l-50 -287q28 31 70.5 53t102.5 22q61 0 106 -28t70.5 -76.5t25.5 -109.5q0 -64 -22 -119.5t-61 -97.5t-91 -65.5t-113 -23.5zM307 100q46 0 82.5 22.5t57.5 61.5t21 88q0 53 -32 88.5t-87 35.5
q-46 0 -82.5 -23t-57.5 -63t-21 -90q0 -52 32.5 -86t86.5 -34z" />
    <glyph glyph-name="c" unicode="c" horiz-adv-x="598" 
d="M261 -12q-66 0 -115 26.5t-75.5 74.5t-26.5 112t23 120t65 98t98 65.5t122 23.5q96 0 153.5 -51t57.5 -141h-135q0 40 -27 61.5t-68 21.5q-43 0 -79 -24.5t-57 -66.5t-21 -95t29 -84.5t75 -31.5q41 0 75.5 21.5t49.5 61.5h134q-21 -58 -62 -101t-96.5 -67t-119.5 -24z
" />
    <glyph glyph-name="d" unicode="d" horiz-adv-x="644" 
d="M243 -12q-62 0 -106 29t-68 79t-24 112q0 85 37.5 153t101 107.5t141.5 39.5q62 0 100 -22.5t57 -57.5l51 292h128l-127 -720h-114l-2 71q-28 -33 -70.5 -58t-104.5 -25zM292 100q47 0 83.5 24.5t58 65.5t21.5 90q0 52 -31 84t-85 32q-47 0 -83.5 -23t-57.5 -62t-21 -88
q0 -52 30.5 -87.5t84.5 -35.5z" />
    <glyph glyph-name="e" unicode="e" horiz-adv-x="596" 
d="M260 -12q-99 0 -157.5 57t-58.5 154q0 63 22 119t63 98.5t97.5 67t124.5 24.5q66 0 113 -25.5t72.5 -70t25.5 -101.5q0 -24 -4.5 -49.5t-10.5 -44.5h-377v-17q0 -50 30 -78.5t78 -28.5q38 0 67.5 17.5t48.5 45.5h130q-23 -48 -62.5 -86t-91 -60t-110.5 -22zM334 404
q-46 0 -87 -26.5t-60 -80.5h247q1 8 1 11q1 44 -27 70t-74 26z" />
    <glyph glyph-name="f" unicode="f" horiz-adv-x="361" 
d="M45 0l68 389h-68l19 107h68l10 58q16 90 68.5 128t131.5 38h54l-20 -109h-34q-33 0 -49.5 -13t-22.5 -44l-10 -58h107l-19 -107h-107l-68 -389h-128z" />
    <glyph glyph-name="g" unicode="g" horiz-adv-x="565" 
d="M256 148q-36 0 -66 8l-38 -32q18 -11 45 -17.5t77 -10.5q95 -8 135 -43.5t40 -90.5q0 -57 -33.5 -100.5t-91.5 -68.5t-133 -25q-96 0 -154 35t-58 104q0 43 23.5 78.5t65.5 63.5q-33 17 -51 38l4 23l99 87q-38 39 -38 98t32 107.5t85.5 77t119.5 28.5q42 0 76 -12h188
l-14 -78l-86 -6q8 -24 8 -51q0 -60 -31.5 -108t-85 -76.5t-118.5 -28.5zM273 245q47 0 77.5 28t30.5 72q0 31 -22 48t-57 17q-48 0 -78.5 -28.5t-30.5 -71.5q0 -31 21.5 -48t58.5 -17zM100 -68q0 -33 29.5 -50t77.5 -17q51 0 86.5 21.5t35.5 61.5q0 23 -17.5 40t-68.5 20
q-41 3 -77 10q-34 -17 -50 -39.5t-16 -46.5z" />
    <glyph glyph-name="h" unicode="h" horiz-adv-x="609" 
d="M22 0l126 720h128l-52 -300q31 40 77.5 64t102.5 24q92 0 132.5 -58t21.5 -170l-50 -280h-128l48 268q11 64 -9 98t-76 34q-53 0 -94 -38t-54 -106v1l-45 -257h-128z" />
    <glyph glyph-name="i" unicode="i" horiz-adv-x="270" 
d="M205 570q-35 0 -57.5 21.5t-22.5 53.5t22.5 53.5t57.5 21.5t57.5 -21.5t22.5 -53.5t-22.5 -53.5t-57.5 -21.5zM27 0l87 496h128l-87 -496h-128z" />
    <glyph glyph-name="j" unicode="j" horiz-adv-x="268" 
d="M200 570q-35 0 -57.5 21.5t-22.5 53.5t22.5 53.5t57.5 21.5t57 -21.5t22 -53.5t-22 -53.5t-57 -21.5zM-118 -220l19 109h39q33 0 49.5 13t22.5 44l96 550h128l-96 -550q-16 -90 -68.5 -128t-131.5 -38h-58z" />
    <glyph glyph-name="k" unicode="k" horiz-adv-x="576" 
d="M21 0l128 720h128l-75 -422l215 198h159l-253 -220l197 -276h-152l-173 258l-46 -258h-128z" />
    <glyph glyph-name="l" unicode="l" horiz-adv-x="260" 
d="M21 0l128 720h128l-128 -720h-128z" />
    <glyph glyph-name="m" unicode="m" horiz-adv-x="928" 
d="M22 0l87 496h113l-1 -70q29 38 69 60t91 22q55 0 94 -23t57 -68q33 42 80 66.5t100 24.5q93 0 139 -58t26 -170l-50 -280h-127l47 268q11 64 -10 98t-69 34q-45 0 -81 -33.5t-50 -95.5l-48 -271h-128l47 268q12 64 -8.5 98t-69.5 34q-48 0 -85 -38t-50 -106v0l-45 -256
h-128z" />
    <glyph glyph-name="n" unicode="n" horiz-adv-x="609" 
d="M22 0l87 496h113l-3 -82q31 43 78 68.5t105 25.5q77 0 119.5 -42.5t42.5 -122.5q0 -28 -6 -63l-50 -280h-128l48 268q1 12 2.5 22.5t1.5 19.5q0 90 -89 90q-53 0 -94 -37.5t-53 -102.5l-46 -260h-128z" />
    <glyph glyph-name="o" unicode="o" horiz-adv-x="607" 
d="M263 -12q-65 0 -114 29t-76.5 78.5t-27.5 113.5q0 63 22.5 117.5t63 95.5t94.5 63.5t116 22.5q66 0 115.5 -28t77.5 -77t28 -114q0 -64 -23 -118.5t-63.5 -95.5t-95 -64t-117.5 -23zM280 99q43 0 77 24t54 65.5t20 93.5q0 55 -30.5 85t-73.5 30q-42 0 -76.5 -24
t-54.5 -65.5t-20 -93.5q0 -55 30.5 -85t73.5 -30z" />
    <glyph glyph-name="p" unicode="p" horiz-adv-x="645" 
d="M-16 -220l125 716h115l1 -71q30 37 72.5 60t101.5 23q61 0 106.5 -28t70.5 -76.5t25 -109.5q0 -64 -21.5 -119.5t-60.5 -97.5t-91.5 -65.5t-113.5 -23.5q-54 0 -94 23.5t-58 56.5l-50 -288h-128zM308 100q46 0 82.5 22.5t57.5 61.5t21 88q0 53 -32 88.5t-87 35.5
q-47 0 -83.5 -23t-57.5 -63t-21 -90q0 -52 33 -86t87 -34z" />
    <glyph glyph-name="q" unicode="q" horiz-adv-x="645" 
d="M369 -220l49 291q-28 -33 -70.5 -58t-104.5 -25t-106 29t-68 79t-24 112q0 85 37.5 153t101 107.5t141.5 39.5q62 0 100 -22.5t57 -57.5l26 68h114l-125 -716h-128zM292 100q47 0 83.5 24.5t58 65.5t21.5 90q0 52 -31 84t-85 32q-47 0 -83.5 -23t-57.5 -62t-21 -88
q0 -52 30.5 -87.5t84.5 -35.5z" />
    <glyph glyph-name="r" unicode="r" horiz-adv-x="403" 
d="M22 0l87 496h115l-4 -90q35 46 86.5 74t114.5 28l-24 -135h-35q-64 0 -110 -29.5t-60 -108.5l-42 -235h-128z" />
    <glyph glyph-name="s" unicode="s" horiz-adv-x="536" 
d="M230 -12q-68 0 -115.5 23t-71.5 63t-20 91h128q-1 -35 23 -57t72 -22q42 0 65.5 18t23.5 46q0 25 -25 36.5t-64 20.5q-41 10 -80 26t-64.5 42t-25.5 67q0 48 28.5 85.5t78.5 59t115 21.5q88 0 139 -42t49 -114h-123q-1 26 -22.5 42t-56.5 16q-36 0 -58.5 -15.5
t-22.5 -38.5q0 -22 26.5 -33.5t69.5 -21.5q47 -11 84.5 -27t60 -41.5t22.5 -66.5q0 -54 -31 -94t-84.5 -62t-120.5 -22z" />
    <glyph glyph-name="t" unicode="t" horiz-adv-x="412" 
d="M234 0q-68 0 -108.5 28t-40.5 97q0 22 5 49l38 215h-80l19 107h80l38 133h114l-24 -133h135l-20 -107h-133l-39 -216q-2 -10 -2 -20q0 -24 13.5 -34t44.5 -10h68l-20 -109h-88z" />
    <glyph glyph-name="u" unicode="u" horiz-adv-x="609" 
d="M207 -12q-78 0 -120 42.5t-42 122.5q0 28 6 63l50 280h127l-47 -268q-2 -12 -3 -22.5t-1 -19.5q0 -90 88 -90q54 0 95 37.5t53 102.5l45 260h128l-87 -496h-113l4 82q-31 -43 -78 -68.5t-105 -25.5z" />
    <glyph glyph-name="v" unicode="v" horiz-adv-x="563" 
d="M159 0l-97 496h133l64 -376l195 376h136l-274 -496h-157z" />
    <glyph glyph-name="w" unicode="w" horiz-adv-x="804" 
d="M120 0l-58 496h126l24 -357l163 357h142l37 -358l150 358h126l-232 -496h-133l-41 371l-171 -371h-133z" />
    <glyph glyph-name="x" unicode="x" horiz-adv-x="562" 
d="M-25 0l225 249l-137 247h136l95 -176l156 176h138l-225 -249l136 -247h-136l-94 176l-157 -176h-137z" />
    <glyph glyph-name="y" unicode="y" horiz-adv-x="592" 
d="M43 -220l159 253h-30l-111 463h137l80 -349l206 349h136l-442 -716h-135z" />
    <glyph glyph-name="z" unicode="z" horiz-adv-x="481" 
d="M-14 0l19 103l313 287h-250l19 106h396l-19 -103l-315 -287h261l-20 -106h-404z" />
    <glyph glyph-name="braceleft" unicode="{" horiz-adv-x="463" 
d="M264 -173q-67 0 -106.5 32t-39.5 95q0 43 15 84.5t29.5 80.5t14.5 75q0 28 -19.5 48t-64.5 26l18 103q63 7 92 42.5t29 123.5v21v19q0 82 27.5 133.5t74 76t104.5 24.5h62l-19 -106h-38q-34 0 -59 -18t-28 -76q-3 -26 -2.5 -54.5t-4.5 -63.5q-5 -77 -41 -119t-95 -54v-2
q46 -10 66.5 -38.5t20.5 -66.5q0 -43 -13.5 -82.5t-27.5 -75t-14 -67.5t17.5 -43.5t44.5 -11.5h38l-18 -106h-63z" />
    <glyph glyph-name="bar" unicode="|" horiz-adv-x="265" 
d="M7 -100l145 820h128l-145 -820h-128z" />
    <glyph glyph-name="braceright" unicode="}" horiz-adv-x="462" 
d="M-13 -173l20 106h38q34 0 59 18t28 76q3 26 2.5 54.5t4.5 63.5q5 77 41 119t95 54v2q-47 10 -67 38.5t-20 66.5q0 43 13.5 82.5t27 75t13.5 67.5t-17 43.5t-44 11.5h-38l18 106h63q67 0 106.5 -32t39.5 -95q0 -43 -15 -84.5t-29.5 -80.5t-14.5 -75q0 -28 19.5 -48
t64.5 -26l-18 -103q-64 -8 -92.5 -43t-28.5 -123v-21v-19q0 -82 -27.5 -134t-74 -76t-104.5 -24h-63z" />
    <glyph glyph-name="asciitilde" unicode="~" horiz-adv-x="575" 
d="M371 228q-31 0 -53 10t-40 23t-36 23t-40 10q-54 0 -77 -65h-95q33 94 84.5 136.5t115.5 42.5q31 0 53 -10t40.5 -23t36 -23t39.5 -10q26 0 46 17t30 49h96q-32 -94 -84.5 -137t-115.5 -43z" />
    <glyph glyph-name="uni00A0" unicode="&#xa0;" horiz-adv-x="258" 
 />
    <glyph glyph-name="exclamdown" unicode="&#xa1;" horiz-adv-x="299" 
d="M192 417q-35 0 -57.5 21.5t-22.5 53.5t22.5 53.5t57.5 21.5t57.5 -21.5t22.5 -53.5t-22.5 -53.5t-57.5 -21.5zM21 -139l100 478h108l-70 -478h-138z" />
    <glyph glyph-name="cent" unicode="&#xa2;" horiz-adv-x="598" 
d="M185 -93l16 88q-73 16 -115 71t-42 135q0 75 31.5 138.5t87 106t127.5 56.5l17 96h118l-17 -95q72 -14 113.5 -62.5t41.5 -124.5h-135q0 40 -27 61.5t-68 21.5q-43 0 -79 -24.5t-57 -66.5t-21 -95t29 -84.5t75 -31.5q41 0 75.5 21.5t49.5 61.5h134q-26 -73 -85 -122.5
t-135 -64.5l-16 -86h-118z" />
    <glyph glyph-name="sterling" unicode="&#xa3;" horiz-adv-x="616" 
d="M30 0l12 70q55 48 84.5 102.5t29.5 120.5v5h-113l15 88h87q-3 15 -4.5 31.5t-1.5 33.5q0 77 33 135.5t92.5 92t136.5 33.5q102 0 153 -51.5t51 -128.5q0 -16 -2 -36h-117q1 10 1 21q0 39 -25 64t-72 25q-65 0 -98.5 -42t-33.5 -100q0 -20 3 -39.5t7 -38.5h188l-15 -88
h-163q0 -59 -28 -109.5t-74 -86.5h355l-17 -102h-484z" />
    <glyph glyph-name="currency" unicode="&#xa4;" horiz-adv-x="555" 
d="M85 81l-42 53l69 59q-19 34 -19 78q0 41 14 75.5t40 61.5l-46 56l61 52l51 -62q49 21 106 21q54 0 94 -23l75 64l43 -52l-69 -59q20 -34 20 -78q0 -41 -14.5 -76t-40.5 -62l45 -55l-61 -53l-49 61q-50 -23 -107 -23q-55 0 -96 25zM270 201q44 0 74 34t30 85
q0 37 -21.5 55.5t-48.5 18.5q-44 0 -74 -34t-30 -86q0 -37 20.5 -55t49.5 -18z" />
    <glyph glyph-name="yen" unicode="&#xa5;" horiz-adv-x="647" 
d="M43 150l15 88h201l2 11l-22 65h-167l15 88h121l-104 298h146l96 -333l213 333h144l-207 -298h119l-15 -88l-166 -1l-45 -64l-2 -11h199l-15 -88h-200l-27 -150h-128l27 150h-200z" />
    <glyph glyph-name="brokenbar" unicode="&#xa6;" horiz-adv-x="265" 
d="M94 394l58 326h128l-58 -326h-128zM7 -100l58 326h128l-58 -326h-128z" />
    <glyph glyph-name="section" unicode="&#xa7;" horiz-adv-x="616" 
d="M229 -232q-70 0 -121 25t-76 70t-16 107h137q-6 -37 16.5 -65.5t71.5 -28.5q50 -1 82.5 27.5t32.5 70.5q0 28 -20 44.5t-54 28t-76 26.5q-44 16 -79.5 39.5t-57 57.5t-21.5 81q0 48 22.5 90t61.5 76q-14 27 -14 60q0 67 33.5 120t93.5 84t138 31q70 0 121 -25t76 -70
t16 -107h-136q5 37 -17.5 65.5t-71.5 28.5q-49 1 -81.5 -27t-32.5 -71q0 -29 20 -45t54 -28t76 -26q43 -16 78.5 -39.5t57 -57.5t21.5 -81q0 -48 -22 -90.5t-62 -75.5q16 -32 12 -73q-4 -64 -37.5 -114t-91 -79t-134.5 -29zM391 134q15 14 24 33t9 41q0 31 -19.5 50
t-53.5 33.5t-76 30.5q-14 5 -29 11.5t-25 12.5q-14 -12 -23.5 -32t-9.5 -42q0 -29 18 -48t51.5 -34t78.5 -32q18 -6 31 -12t24 -12z" />
    <glyph glyph-name="dieresis" unicode="&#xa8;" horiz-adv-x="347" 
d="M330 564q-26 0 -43.5 18t-17.5 44t17.5 44t43.5 18t44 -18t18 -44t-18 -44t-44 -18zM150 564q-26 0 -44 18t-18 44t18 44t44 18t44 -18t18 -44t-18 -44t-44 -18z" />
    <glyph glyph-name="copyright" unicode="&#xa9;" horiz-adv-x="786" 
d="M342 -6q-91 0 -156.5 38t-101.5 104.5t-36 151.5q0 88 32 164t89 134t133.5 90t165.5 32q91 0 156.5 -37.5t101 -103.5t35.5 -150q0 -89 -31.5 -165.5t-88.5 -134.5t-133.5 -90.5t-165.5 -32.5zM351 40q80 0 146 28.5t114 79.5t74 119t26 146q0 73 -29.5 129.5
t-85.5 88.5t-135 32q-81 0 -147 -28t-114 -78.5t-74 -118.5t-26 -147q0 -73 29 -129.5t85 -89t137 -32.5zM365 123q-81 0 -132 49.5t-51 134.5q0 75 34.5 137.5t94 99.5t135.5 37q77 0 126 -42t53 -117h-113q-4 33 -26 51.5t-58 18.5q-44 0 -75.5 -26.5t-47.5 -67.5t-16 -85
q0 -51 24.5 -76.5t64.5 -25.5q38 0 65.5 19t44.5 51h112q-30 -72 -94 -115t-141 -43z" />
    <glyph glyph-name="ordfeminine" unicode="&#xaa;" horiz-adv-x="459" 
d="M207 349q-62 0 -100 38.5t-38 103.5q0 59 26.5 109t71.5 80.5t103 30.5q47 0 75.5 -19.5t38.5 -52.5l20 67h89l-61 -351h-90l4 66q-23 -32 -57.5 -52t-81.5 -20zM250 427q32 0 58.5 16.5t42.5 45t16 64.5q0 39 -23 60t-57 21q-31 0 -57.5 -16.5t-42.5 -45t-16 -65.5
q0 -39 23 -59.5t56 -20.5z" />
    <glyph glyph-name="guillemotleft" unicode="&#xab;" horiz-adv-x="505" 
d="M309 120l-59 175l121 175h121l-124 -175l62 -175h-121zM107 120l-59 175l121 175h121l-124 -175l63 -175h-122z" />
    <glyph glyph-name="logicalnot" unicode="&#xac;" horiz-adv-x="700" 
d="M503 201l24 137h-465l17 99h593l-42 -236h-127z" />
    <glyph glyph-name="uni00AD" unicode="&#xad;" horiz-adv-x="600" 
d="M53 236l18 107h419l-19 -107h-418z" />
    <glyph glyph-name="registered" unicode="&#xae;" horiz-adv-x="509" 
d="M258 293q-62 0 -104 27t-60.5 74.5t-8.5 107.5q11 61 46 108.5t87.5 74.5t112.5 27q62 0 104.5 -27t60.5 -74.5t7 -108.5q-11 -60 -46 -107.5t-86.5 -74.5t-112.5 -27zM265 339q73 0 124.5 45.5t63.5 117.5q13 73 -22.5 118t-107.5 45t-123.5 -45t-63.5 -118
q-13 -72 22 -117.5t107 -45.5zM191 398l38 213h103q33 0 50.5 -18t12.5 -49q-8 -47 -55 -62l38 -83l-69 -1l-33 79h-11l-14 -79h-60zM272 522h34q23 0 25 19q3 18 -18 18h-34z" />
    <glyph glyph-name="macron" unicode="&#xaf;" horiz-adv-x="406" 
d="M74 579l16 91h374l-15 -91h-375z" />
    <glyph glyph-name="degree" unicode="&#xb0;" horiz-adv-x="366" 
d="M239 426q-38 0 -70.5 17.5t-52 49.5t-19.5 75q0 44 20 76.5t52.5 50t70.5 17.5t70 -17.5t52 -50t20 -76.5q0 -43 -20 -75t-52.5 -49.5t-70.5 -17.5zM239 508q21 0 39 15t18 46t-17.5 46t-38.5 15t-39.5 -15t-18.5 -46t18 -46t39 -15z" />
    <glyph glyph-name="plusminus" unicode="&#xb1;" horiz-adv-x="617" 
d="M237 154l23 128h-192l19 107h192l23 127h109l-23 -127h192l-19 -107h-192l-23 -128h-109zM19 0l20 112h492l-20 -112h-492z" />
    <glyph glyph-name="uni00B2" unicode="&#xb2;" horiz-adv-x="357" 
d="M48 352l13 72l133 83q31 21 51.5 42t25.5 48q4 21 -5.5 32t-26.5 11q-40 0 -53 -47h-98q12 51 57 85t115 34q67 0 95 -33.5t21 -75.5q-7 -39 -38.5 -68t-91.5 -61l-81 -45h180l-14 -77h-283z" />
    <glyph glyph-name="uni00B3" unicode="&#xb3;" horiz-adv-x="352" 
d="M187 348q-75 0 -107.5 30t-27.5 84h100q-1 -24 10.5 -33.5t31.5 -9.5q22 0 37 11t19 32q4 22 -9 33t-37 11h-40l9 49h36q24 0 40 11t20 33q3 19 -7 30t-31 11q-22 0 -35.5 -10t-21.5 -29h-93q11 45 54 78t117 33q63 0 97 -29.5t26 -73.5q-5 -32 -26.5 -51.5t-53.5 -26.5
l-1 -3q32 -9 47.5 -29t9.5 -53q-7 -43 -52 -70.5t-112 -27.5z" />
    <glyph glyph-name="acute" unicode="&#xb4;" horiz-adv-x="259" 
d="M67 536l16 90l247 122l-18 -104z" />
    <glyph glyph-name="uni00B5" unicode="&#xb5;" horiz-adv-x="618" 
d="M-18 -220l128 716h128l-47 -268q-2 -12 -3.5 -22.5t-1.5 -19.5q0 -90 89 -90q52 0 93 36.5t54 102.5l46 261h128l-87 -496h-113l2 81q-30 -42 -77 -67.5t-104 -25.5q-40 0 -67 18l-40 -226h-128z" />
    <glyph glyph-name="paragraph" unicode="&#xb6;" horiz-adv-x="644" 
d="M227 -100l68 383h-17q-72 0 -117 27t-66 69t-21 89q0 74 35.5 125.5t98 79t144.5 27.5h304l-141 -800h-108l124 702h-72l-124 -702h-108z" />
    <glyph glyph-name="periodcentered" unicode="&#xb7;" horiz-adv-x="242" 
d="M135 253q-35 0 -57.5 22t-22.5 53q0 32 22.5 54t57.5 22t57.5 -22t22.5 -54q0 -31 -22.5 -53t-57.5 -22z" />
    <glyph glyph-name="cedilla" unicode="&#xb8;" horiz-adv-x="293" 
d="M-81 -263l13 74h112q61 0 61 40q0 31 -47 31h-62l22 125h81l-11 -57q46 1 79.5 -20t33.5 -69q0 -38 -20.5 -65.5t-54 -43t-74.5 -15.5h-133z" />
    <glyph glyph-name="uni00B9" unicode="&#xb9;" horiz-adv-x="233" 
d="M105 352l45 259l-71 -16l10 61l120 48h56l-62 -352h-98z" />
    <glyph glyph-name="ordmasculine" unicode="&#xba;" horiz-adv-x="446" 
d="M234 349q-76 0 -120.5 40.5t-44.5 106.5q0 61 30.5 110t82 77.5t114.5 28.5q76 0 121 -40t45 -106q0 -61 -30.5 -110t-82.5 -78t-115 -29zM247 425q35 0 60.5 18.5t39.5 48.5t14 64q0 41 -22.5 61.5t-55.5 20.5q-35 0 -60.5 -19.5t-39 -50t-13.5 -63.5q0 -40 22 -60
t55 -20z" />
    <glyph glyph-name="guillemotright" unicode="&#xbb;" horiz-adv-x="505" 
d="M231 120l124 175l-62 175h121l59 -175l-121 -175h-121zM29 120l125 175l-63 175h121l59 -175l-121 -175h-121z" />
    <glyph glyph-name="onequarter" unicode="&#xbc;" horiz-adv-x="708" 
d="M124 352l46 259l-72 -16l10 61l120 48h56l-62 -352h-98zM26 0l501 700h122l-500 -700h-123zM481 0l13 66h-189l9 54l195 233h133l-40 -229h44l-10 -58h-44l-13 -66h-98zM411 126h97l27 153z" />
    <glyph glyph-name="onehalf" unicode="&#xbd;" horiz-adv-x="748" 
d="M124 352l46 259l-72 -16l10 61l120 48h56l-62 -352h-98zM22 0l497 700h124l-498 -700h-123zM423 -1l13 72l132 83q31 21 52 42t26 48q3 21 -6 32t-26 11q-41 0 -53 -47h-99q12 51 57 85t115 34q67 0 95.5 -33.5t20.5 -75.5q-7 -39 -38 -68t-92 -61l-81 -45h180l-14 -77
h-282z" />
    <glyph glyph-name="threequarters" unicode="&#xbe;" horiz-adv-x="794" 
d="M214 348q-75 0 -107.5 30t-27.5 84h100q-1 -24 10.5 -33.5t31.5 -9.5q22 0 37 11t19 32q4 22 -9 33t-37 11h-40l8 49h37q24 0 40 11t20 33q3 19 -7 30t-31 11q-22 0 -35.5 -10t-21.5 -29h-93q11 45 54 78t117 33q63 0 97 -29.5t26 -73.5q-5 -32 -26.5 -51.5t-53.5 -26.5
l-1 -3q32 -9 47.5 -29t9.5 -53q-8 -43 -52.5 -70.5t-111.5 -27.5zM119 0l504 700h123l-504 -700h-123zM568 0l12 66h-189l9 54l189 233h139l-40 -229h44l-10 -58h-44l-13 -66h-97zM497 124h96l30 161z" />
    <glyph glyph-name="questiondown" unicode="&#xbf;" horiz-adv-x="527" 
d="M374 412q-35 0 -57 22t-22 54q0 31 22 53t57 22t57.5 -22t22.5 -53q0 -32 -22.5 -54t-57.5 -22zM199 -156q-88 0 -141.5 47.5t-53.5 128.5q0 75 35.5 128.5t97.5 81.5t141 28l18 81h112l-24 -166h-45q-59 0 -106 -12t-75 -42t-28 -85q0 -38 24 -61t66 -23q50 0 83 28
t42 75h120q-10 -61 -45.5 -108t-91.5 -74t-129 -27z" />
    <glyph glyph-name="Agrave" unicode="&#xc0;" horiz-adv-x="701" 
d="M-21 0l379 700h145l132 -700h-135l-28 162h-273l-85 -162h-135zM250 260h206l-51 296zM472 740l-206 108l18 104l205 -122z" />
    <glyph glyph-name="Aacute" unicode="&#xc1;" horiz-adv-x="701" 
d="M-21 0l379 700h145l132 -700h-135l-28 162h-273l-85 -162h-135zM250 260h206l-51 296zM387 740l16 90l247 122l-18 -104z" />
    <glyph glyph-name="Acircumflex" unicode="&#xc2;" horiz-adv-x="701" 
d="M-21 0l379 700h145l132 -700h-135l-28 162h-273l-85 -162h-135zM250 260h206l-51 296zM291 747l16 92l162 83l131 -83l-17 -92l-130 85z" />
    <glyph glyph-name="Atilde" unicode="&#xc3;" horiz-adv-x="701" 
d="M-21 0l379 700h145l132 -700h-135l-28 162h-273l-85 -162h-135zM250 260h206l-51 296zM268 755q22 65 58 95t81 30q29 0 46.5 -11.5t32.5 -23t36 -11.5q17 0 30.5 11t20.5 34h69q-20 -64 -57 -94t-82 -30q-29 0 -47 11t-33 22.5t-35 11.5q-37 0 -51 -45h-69z" />
    <glyph glyph-name="Adieresis" unicode="&#xc4;" horiz-adv-x="701" 
d="M-21 0l379 700h145l132 -700h-135l-28 162h-273l-85 -162h-135zM250 260h206l-51 296zM543 768q-26 0 -44 18t-18 44t18 44t44 18t43.5 -18t17.5 -44t-17.5 -44t-43.5 -18zM362 768q-26 0 -43.5 18t-17.5 44t17.5 44t43.5 18t44 -18t18 -44t-18 -44t-44 -18z" />
    <glyph glyph-name="Aring" unicode="&#xc5;" horiz-adv-x="701" 
d="M-21 0l379 700h145l132 -700h-135l-28 162h-273l-85 -162h-135zM250 260h206l-51 296zM458 751q-46 0 -79.5 30t-33.5 82t33.5 82t79.5 30q48 0 81 -30t33 -82t-33 -82t-81 -30zM458 809q22 0 37.5 15t15.5 39q0 25 -15.5 39.5t-37.5 14.5q-21 0 -36.5 -14.5t-15.5 -39.5
q0 -24 15.5 -39t36.5 -15z" />
    <glyph glyph-name="AE" unicode="&#xc6;" horiz-adv-x="945" 
d="M-21 0l503 700h483l-18 -101h-271l-35 -194h242l-17 -99h-241l-36 -205h270l-18 -101h-399l25 138h-249l-100 -138h-139zM549 602l-261 -365h196z" />
    <glyph glyph-name="Ccedilla" unicode="&#xc7;" horiz-adv-x="739" 
d="M341 -12q-90 0 -153.5 35.5t-97 98.5t-33.5 147q0 94 31 175t86.5 141t130 93.5t162.5 33.5q126 0 196 -62.5t71 -175.5h-142q-2 58 -39 90t-106 32q-74 0 -132 -41t-92 -112t-34 -160q0 -85 45.5 -132.5t127.5 -47.5q69 0 115.5 30t69.5 85h142q-40 -109 -131.5 -169.5
t-216.5 -60.5zM206 -265l13 74h111q61 0 61 40q0 31 -46 31h-62l22 125h80l-10 -57q46 1 79 -20t33 -69q0 -38 -20 -65.5t-54 -43t-74 -15.5h-133z" />
    <glyph glyph-name="Egrave" unicode="&#xc8;" horiz-adv-x="560" 
d="M24 0l124 700h433l-19 -101h-304l-34 -195h274l-17 -98h-274l-37 -205h305l-18 -101h-433zM413 740l-206 108l18 104l205 -122z" />
    <glyph glyph-name="Eacute" unicode="&#xc9;" horiz-adv-x="560" 
d="M24 0l124 700h433l-19 -101h-304l-34 -195h274l-17 -98h-274l-37 -205h305l-18 -101h-433zM327 740l16 90l247 122l-18 -104z" />
    <glyph glyph-name="Ecircumflex" unicode="&#xca;" horiz-adv-x="560" 
d="M24 0l124 700h433l-19 -101h-304l-34 -195h274l-17 -98h-274l-37 -205h305l-18 -101h-433zM232 747l16 92l162 83l131 -83l-17 -92l-130 85z" />
    <glyph glyph-name="Edieresis" unicode="&#xcb;" horiz-adv-x="560" 
d="M24 0l124 700h433l-19 -101h-304l-34 -195h274l-17 -98h-274l-37 -205h305l-18 -101h-433zM484 768q-26 0 -44 18t-18 44t18 44t44 18t43.5 -18t17.5 -44t-17.5 -44t-43.5 -18zM303 768q-26 0 -43.5 18t-17.5 44t17.5 44t43.5 18t44 -18t18 -44t-18 -44t-44 -18z" />
    <glyph glyph-name="Igrave" unicode="&#xcc;" horiz-adv-x="264" 
d="M24 0l124 700h128l-124 -700h-128zM253 740l-206 108l18 104l205 -122z" />
    <glyph glyph-name="Iacute" unicode="&#xcd;" horiz-adv-x="264" 
d="M24 0l124 700h128l-124 -700h-128zM167 740l16 90l247 122l-18 -104z" />
    <glyph glyph-name="Icircumflex" unicode="&#xce;" horiz-adv-x="264" 
d="M24 0l124 700h128l-124 -700h-128zM72 747l16 92l162 83l131 -83l-17 -92l-130 85z" />
    <glyph glyph-name="Idieresis" unicode="&#xcf;" horiz-adv-x="264" 
d="M24 0l124 700h128l-124 -700h-128zM324 768q-26 0 -44 18t-18 44t18 44t44 18t43.5 -18t17.5 -44t-17.5 -44t-43.5 -18zM143 768q-26 0 -43.5 18t-17.5 44t17.5 44t43.5 18t44 -18t18 -44t-18 -44t-44 -18z" />
    <glyph glyph-name="Eth" unicode="&#xd0;" horiz-adv-x="723" 
d="M31 0l52 295h-74l19 110h75l51 295h240q157 0 231 -77t74 -208q0 -122 -53 -216t-149.5 -146.5t-225.5 -52.5h-240zM179 110h105q90 0 153.5 36t97 102t33.5 156q0 94 -48.5 140.5t-150.5 46.5h-105l-33 -186h176l-19 -110h-177z" />
    <glyph glyph-name="Ntilde" unicode="&#xd1;" horiz-adv-x="721" 
d="M24 0l124 700h129l240 -499l88 499h128l-124 -700h-128l-240 499l-89 -499h-128zM279 755q22 65 58 95t81 30q29 0 46.5 -11.5t32.5 -23t36 -11.5q17 0 30.5 11t20.5 34h69q-20 -64 -57 -94t-82 -30q-29 0 -47 11t-33 22.5t-35 11.5q-37 0 -51 -45h-69z" />
    <glyph glyph-name="Ograve" unicode="&#xd2;" horiz-adv-x="804" 
d="M361 -12q-89 0 -157 39t-106.5 107.5t-38.5 155.5q0 88 32.5 164.5t90 134.5t134 90.5t163.5 32.5q89 0 157 -39t106.5 -107t38.5 -155q0 -88 -32.5 -165t-90.5 -135t-134 -90.5t-163 -32.5zM377 103q56 0 105 22.5t86.5 63.5t59 95t21.5 116q0 90 -49 143.5t-136 53.5
q-57 0 -106 -23t-86.5 -63t-59 -94t-21.5 -116q0 -90 50 -144t136 -54zM525 740l-206 108l18 104l205 -122z" />
    <glyph glyph-name="Oacute" unicode="&#xd3;" horiz-adv-x="804" 
d="M361 -12q-89 0 -157 39t-106.5 107.5t-38.5 155.5q0 88 32.5 164.5t90 134.5t134 90.5t163.5 32.5q89 0 157 -39t106.5 -107t38.5 -155q0 -88 -32.5 -165t-90.5 -135t-134 -90.5t-163 -32.5zM377 103q56 0 105 22.5t86.5 63.5t59 95t21.5 116q0 90 -49 143.5t-136 53.5
q-57 0 -106 -23t-86.5 -63t-59 -94t-21.5 -116q0 -90 50 -144t136 -54zM439 740l16 90l247 122l-18 -104z" />
    <glyph glyph-name="Ocircumflex" unicode="&#xd4;" horiz-adv-x="804" 
d="M361 -12q-89 0 -157 39t-106.5 107.5t-38.5 155.5q0 88 32.5 164.5t90 134.5t134 90.5t163.5 32.5q89 0 157 -39t106.5 -107t38.5 -155q0 -88 -32.5 -165t-90.5 -135t-134 -90.5t-163 -32.5zM377 103q56 0 105 22.5t86.5 63.5t59 95t21.5 116q0 90 -49 143.5t-136 53.5
q-57 0 -106 -23t-86.5 -63t-59 -94t-21.5 -116q0 -90 50 -144t136 -54zM344 747l16 92l162 83l131 -83l-17 -92l-130 85z" />
    <glyph glyph-name="Otilde" unicode="&#xd5;" horiz-adv-x="804" 
d="M361 -12q-89 0 -157 39t-106.5 107.5t-38.5 155.5q0 88 32.5 164.5t90 134.5t134 90.5t163.5 32.5q89 0 157 -39t106.5 -107t38.5 -155q0 -88 -32.5 -165t-90.5 -135t-134 -90.5t-163 -32.5zM377 103q56 0 105 22.5t86.5 63.5t59 95t21.5 116q0 90 -49 143.5t-136 53.5
q-57 0 -106 -23t-86.5 -63t-59 -94t-21.5 -116q0 -90 50 -144t136 -54zM321 755q22 65 58 95t81 30q29 0 46.5 -11.5t32.5 -23t36 -11.5q17 0 30.5 11t20.5 34h69q-20 -64 -57 -94t-82 -30q-29 0 -47 11t-33 22.5t-35 11.5q-37 0 -51 -45h-69z" />
    <glyph glyph-name="Odieresis" unicode="&#xd6;" horiz-adv-x="804" 
d="M361 -12q-89 0 -157 39t-106.5 107.5t-38.5 155.5q0 88 32.5 164.5t90 134.5t134 90.5t163.5 32.5q89 0 157 -39t106.5 -107t38.5 -155q0 -88 -32.5 -165t-90.5 -135t-134 -90.5t-163 -32.5zM377 103q56 0 105 22.5t86.5 63.5t59 95t21.5 116q0 90 -49 143.5t-136 53.5
q-57 0 -106 -23t-86.5 -63t-59 -94t-21.5 -116q0 -90 50 -144t136 -54zM596 768q-26 0 -44 18t-18 44t18 44t44 18t43.5 -18t17.5 -44t-17.5 -44t-43.5 -18zM415 768q-26 0 -43.5 18t-17.5 44t17.5 44t43.5 18t44 -18t18 -44t-18 -44t-44 -18z" />
    <glyph glyph-name="multiply" unicode="&#xd7;" horiz-adv-x="514" 
d="M104 89l-62 75l146 126l-100 122l88 75l101 -123l148 127l62 -76l-148 -126l101 -122l-89 -75l-100 123z" />
    <glyph glyph-name="Oslash" unicode="&#xd8;" horiz-adv-x="786" 
d="M-13 0l118 115q-24 36 -37 80.5t-13 94.5q0 88 32 164.5t90 134.5t134 90.5t163 32.5q55 0 103 -15.5t85 -44.5l50 48h122l-113 -108q27 -37 41 -83t14 -98q0 -88 -32.5 -165t-90.5 -135t-134 -90.5t-163 -32.5q-57 0 -106 17t-87 47l-54 -52h-122zM187 301q0 -51 16 -92
l368 356q-45 32 -112 32q-56 0 -105.5 -23t-87 -63t-58.5 -94t-21 -116zM372 103q56 0 105 22.5t86.5 63.5t59 95t21.5 116q0 56 -19 98l-371 -357q48 -38 118 -38z" />
    <glyph glyph-name="Ugrave" unicode="&#xd9;" horiz-adv-x="686" 
d="M289 -12q-66 0 -118.5 23t-82.5 70.5t-30 119.5q0 31 6 67l76 432h128l-76 -432q-3 -12 -4 -23.5t-1 -21.5q0 -59 33 -88t92 -29q69 0 116 40t61 122l77 432h128l-76 -432q-17 -96 -65.5 -158t-117 -92t-146.5 -30zM459 740l-206 108l18 104l205 -122z" />
    <glyph glyph-name="Uacute" unicode="&#xda;" horiz-adv-x="686" 
d="M289 -12q-66 0 -118.5 23t-82.5 70.5t-30 119.5q0 31 6 67l76 432h128l-76 -432q-3 -12 -4 -23.5t-1 -21.5q0 -59 33 -88t92 -29q69 0 116 40t61 122l77 432h128l-76 -432q-17 -96 -65.5 -158t-117 -92t-146.5 -30zM373 740l16 90l247 122l-18 -104z" />
    <glyph glyph-name="Ucircumflex" unicode="&#xdb;" horiz-adv-x="686" 
d="M289 -12q-66 0 -118.5 23t-82.5 70.5t-30 119.5q0 31 6 67l76 432h128l-76 -432q-3 -12 -4 -23.5t-1 -21.5q0 -59 33 -88t92 -29q69 0 116 40t61 122l77 432h128l-76 -432q-17 -96 -65.5 -158t-117 -92t-146.5 -30zM278 747l16 92l162 83l131 -83l-17 -92l-130 85z" />
    <glyph glyph-name="Udieresis" unicode="&#xdc;" horiz-adv-x="686" 
d="M289 -12q-66 0 -118.5 23t-82.5 70.5t-30 119.5q0 31 6 67l76 432h128l-76 -432q-3 -12 -4 -23.5t-1 -21.5q0 -59 33 -88t92 -29q69 0 116 40t61 122l77 432h128l-76 -432q-17 -96 -65.5 -158t-117 -92t-146.5 -30zM530 768q-26 0 -44 18t-18 44t18 44t44 18t43.5 -18
t17.5 -44t-17.5 -44t-43.5 -18zM349 768q-26 0 -43.5 18t-17.5 44t17.5 44t43.5 18t44 -18t18 -44t-18 -44t-44 -18z" />
    <glyph glyph-name="Yacute" unicode="&#xdd;" horiz-adv-x="625" 
d="M199 0l44 249l-157 451h146l98 -322l211 322h144l-314 -451l-44 -249h-128zM344 740l16 90l247 122l-18 -104z" />
    <glyph glyph-name="Thorn" unicode="&#xde;" horiz-adv-x="610" 
d="M25 0l123 700h128l-24 -135h131q74 0 121.5 -25t70.5 -66.5t23 -91.5q0 -75 -37 -130.5t-102.5 -85.5t-150.5 -30h-131l-24 -136h-128zM195 239h124q69 0 108 36.5t39 101.5q0 40 -25.5 61.5t-82.5 21.5h-124z" />
    <glyph glyph-name="germandbls" unicode="&#xdf;" horiz-adv-x="710" 
d="M429 -10q-95 0 -145.5 50t-44.5 135h121q-3 -41 18 -65.5t62 -24.5t66 21.5t25 58.5q0 23 -17.5 39.5t-61.5 33.5q-68 24 -99.5 50.5t-31.5 66.5q0 31 16 53t40 39t47.5 33t40 34.5t16.5 44.5q0 31 -25.5 48.5t-72.5 17.5q-65 0 -101 -33.5t-47 -92.5l-88 -499h-128
l90 509q12 65 49 115.5t98 79t145 28.5q68 0 115 -21t72 -55.5t25 -75.5q0 -36 -16.5 -61.5t-40 -44t-47.5 -33t-40 -28.5t-16 -31q0 -10 6.5 -18.5t26.5 -18.5t59 -24q60 -23 87 -55t27 -86q0 -56 -29.5 -99t-81.5 -67t-119 -24z" />
    <glyph glyph-name="agrave" unicode="&#xe0;" horiz-adv-x="575" 
d="M188 -12q-84 0 -123 38.5t-39 92.5q0 80 67 127t179 47h126l2 12q1 6 1.5 12.5t0.5 11.5q0 38 -24 56.5t-61 18.5q-39 0 -71.5 -18.5t-46.5 -54.5h-125q15 54 52.5 94t91.5 61.5t117 21.5q92 0 144.5 -41t52.5 -118q0 -10 -1 -21.5t-3 -22.5l-54 -305h-114l5 77
q-29 -38 -72.5 -63.5t-104.5 -25.5zM235 88q55 0 91.5 36t53.5 89h-108q-50 0 -79 -20t-29 -55q0 -25 19.5 -37.5t51.5 -12.5zM375 536l-206 108l18 104l205 -122z" />
    <glyph glyph-name="aacute" unicode="&#xe1;" horiz-adv-x="575" 
d="M188 -12q-84 0 -123 38.5t-39 92.5q0 80 67 127t179 47h126l2 12q1 6 1.5 12.5t0.5 11.5q0 38 -24 56.5t-61 18.5q-39 0 -71.5 -18.5t-46.5 -54.5h-125q15 54 52.5 94t91.5 61.5t117 21.5q92 0 144.5 -41t52.5 -118q0 -10 -1 -21.5t-3 -22.5l-54 -305h-114l5 77
q-29 -38 -72.5 -63.5t-104.5 -25.5zM235 88q55 0 91.5 36t53.5 89h-108q-50 0 -79 -20t-29 -55q0 -25 19.5 -37.5t51.5 -12.5zM289 536l16 90l247 122l-18 -104z" />
    <glyph glyph-name="acircumflex" unicode="&#xe2;" horiz-adv-x="575" 
d="M188 -12q-84 0 -123 38.5t-39 92.5q0 80 67 127t179 47h126l2 12q1 6 1.5 12.5t0.5 11.5q0 38 -24 56.5t-61 18.5q-39 0 -71.5 -18.5t-46.5 -54.5h-125q15 54 52.5 94t91.5 61.5t117 21.5q92 0 144.5 -41t52.5 -118q0 -10 -1 -21.5t-3 -22.5l-54 -305h-114l5 77
q-29 -38 -72.5 -63.5t-104.5 -25.5zM235 88q55 0 91.5 36t53.5 89h-108q-50 0 -79 -20t-29 -55q0 -25 19.5 -37.5t51.5 -12.5zM193 543l16 92l161 83l132 -83l-17 -92l-130 85z" />
    <glyph glyph-name="atilde" unicode="&#xe3;" horiz-adv-x="575" 
d="M188 -12q-84 0 -123 38.5t-39 92.5q0 80 67 127t179 47h126l2 12q1 6 1.5 12.5t0.5 11.5q0 38 -24 56.5t-61 18.5q-39 0 -71.5 -18.5t-46.5 -54.5h-125q15 54 52.5 94t91.5 61.5t117 21.5q92 0 144.5 -41t52.5 -118q0 -10 -1 -21.5t-3 -22.5l-54 -305h-114l5 77
q-29 -38 -72.5 -63.5t-104.5 -25.5zM235 88q55 0 91.5 36t53.5 89h-108q-50 0 -79 -20t-29 -55q0 -25 19.5 -37.5t51.5 -12.5zM167 551q21 65 57 95t81 30q29 0 46.5 -11.5t32.5 -23t36 -11.5q17 0 31 11t20 34h69q-20 -64 -57 -94t-82 -30q-29 0 -47 11t-33 22.5t-35 11.5
q-36 0 -51 -45h-68z" />
    <glyph glyph-name="adieresis" unicode="&#xe4;" horiz-adv-x="575" 
d="M188 -12q-84 0 -123 38.5t-39 92.5q0 80 67 127t179 47h126l2 12q1 6 1.5 12.5t0.5 11.5q0 38 -24 56.5t-61 18.5q-39 0 -71.5 -18.5t-46.5 -54.5h-125q15 54 52.5 94t91.5 61.5t117 21.5q92 0 144.5 -41t52.5 -118q0 -10 -1 -21.5t-3 -22.5l-54 -305h-114l5 77
q-29 -38 -72.5 -63.5t-104.5 -25.5zM235 88q55 0 91.5 36t53.5 89h-108q-50 0 -79 -20t-29 -55q0 -25 19.5 -37.5t51.5 -12.5zM445 564q-26 0 -43.5 18t-17.5 44t17.5 44t43.5 18t44 -18t18 -44t-18 -44t-44 -18zM265 564q-26 0 -44 18t-18 44t18 44t44 18t44 -18t18 -44
t-18 -44t-44 -18z" />
    <glyph glyph-name="aring" unicode="&#xe5;" horiz-adv-x="575" 
d="M188 -12q-84 0 -123 38.5t-39 92.5q0 80 67 127t179 47h126l2 12q1 6 1.5 12.5t0.5 11.5q0 38 -24 56.5t-61 18.5q-39 0 -71.5 -18.5t-46.5 -54.5h-125q15 54 52.5 94t91.5 61.5t117 21.5q92 0 144.5 -41t52.5 -118q0 -10 -1 -21.5t-3 -22.5l-54 -305h-114l5 77
q-29 -38 -72.5 -63.5t-104.5 -25.5zM235 88q55 0 91.5 36t53.5 89h-108q-50 0 -79 -20t-29 -55q0 -25 19.5 -37.5t51.5 -12.5zM360 547q-46 0 -79.5 30t-33.5 82t33.5 82t79.5 30q48 0 81 -30t33 -82t-33 -82t-81 -30zM360 605q22 0 37.5 15t15.5 39q0 25 -15.5 39.5
t-37.5 14.5q-21 0 -36.5 -14.5t-15.5 -39.5q0 -24 15.5 -39t36.5 -15z" />
    <glyph glyph-name="ae" unicode="&#xe6;" horiz-adv-x="947" 
d="M200 -12q-84 0 -129.5 35t-45.5 93q0 54 30.5 93.5t85 61.5t126.5 22h140q3 12 3.5 21t0.5 15q0 38 -23.5 56.5t-60.5 18.5q-40 0 -72.5 -18.5t-45.5 -54.5h-125q15 54 53.5 94t92.5 61.5t115 21.5q120 0 167 -70q39 33 88 51.5t105 18.5q65 0 112 -25.5t72 -70
t25 -101.5q0 -16 -3 -36t-6.5 -36.5t-4.5 -21.5h-377q-1 -8 -1 -15q-1 -51 29 -80t79 -29q44 0 76.5 22t50.5 55h127q-22 -52 -62 -93t-93.5 -65t-115.5 -24q-66 0 -114.5 27.5t-73.5 75.5q-39 -47 -98 -75t-127 -28zM540 297h246q1 8 1 11q1 44 -26.5 70t-73.5 26
q-47 0 -87.5 -27t-59.5 -80zM234 88q52 0 92 33t58 80l2 12h-119q-46 0 -74.5 -19t-28.5 -54q0 -25 19 -38.5t51 -13.5z" />
    <glyph glyph-name="ccedilla" unicode="&#xe7;" horiz-adv-x="598" 
d="M261 -12q-66 0 -115 26.5t-75.5 74.5t-26.5 112t23 120t65 98t98 65.5t122 23.5q96 0 153.5 -51t57.5 -141h-135q0 40 -27 61.5t-68 21.5q-43 0 -79 -24.5t-57 -66.5t-21 -95t29 -84.5t75 -31.5q41 0 75.5 21.5t49.5 61.5h134q-21 -58 -62 -101t-96.5 -67t-119.5 -24z
M126 -266l13 74h112q61 0 61 40q0 31 -47 31h-62l22 125h81l-11 -57q46 1 79.5 -20t33.5 -69q0 -38 -20.5 -65.5t-54 -43t-74.5 -15.5h-133z" />
    <glyph glyph-name="egrave" unicode="&#xe8;" horiz-adv-x="596" 
d="M260 -12q-99 0 -157.5 57t-58.5 154q0 63 22 119t63 98.5t97.5 67t124.5 24.5q66 0 113 -25.5t72.5 -70t25.5 -101.5q0 -24 -4.5 -49.5t-10.5 -44.5h-377v-17q0 -50 30 -78.5t78 -28.5q38 0 67.5 17.5t48.5 45.5h130q-23 -48 -62.5 -86t-91 -60t-110.5 -22zM334 404
q-46 0 -87 -26.5t-60 -80.5h247q1 8 1 11q1 44 -27 70t-74 26zM392 536l-206 108l18 104l205 -122z" />
    <glyph glyph-name="eacute" unicode="&#xe9;" horiz-adv-x="596" 
d="M260 -12q-99 0 -157.5 57t-58.5 154q0 63 22 119t63 98.5t97.5 67t124.5 24.5q66 0 113 -25.5t72.5 -70t25.5 -101.5q0 -24 -4.5 -49.5t-10.5 -44.5h-377v-17q0 -50 30 -78.5t78 -28.5q38 0 67.5 17.5t48.5 45.5h130q-23 -48 -62.5 -86t-91 -60t-110.5 -22zM334 404
q-46 0 -87 -26.5t-60 -80.5h247q1 8 1 11q1 44 -27 70t-74 26zM306 536l16 90l247 122l-18 -104z" />
    <glyph glyph-name="ecircumflex" unicode="&#xea;" horiz-adv-x="596" 
d="M260 -12q-99 0 -157.5 57t-58.5 154q0 63 22 119t63 98.5t97.5 67t124.5 24.5q66 0 113 -25.5t72.5 -70t25.5 -101.5q0 -24 -4.5 -49.5t-10.5 -44.5h-377v-17q0 -50 30 -78.5t78 -28.5q38 0 67.5 17.5t48.5 45.5h130q-23 -48 -62.5 -86t-91 -60t-110.5 -22zM334 404
q-46 0 -87 -26.5t-60 -80.5h247q1 8 1 11q1 44 -27 70t-74 26zM210 543l16 92l161 83l132 -83l-17 -92l-130 85z" />
    <glyph glyph-name="edieresis" unicode="&#xeb;" horiz-adv-x="596" 
d="M260 -12q-99 0 -157.5 57t-58.5 154q0 63 22 119t63 98.5t97.5 67t124.5 24.5q66 0 113 -25.5t72.5 -70t25.5 -101.5q0 -24 -4.5 -49.5t-10.5 -44.5h-377v-17q0 -50 30 -78.5t78 -28.5q38 0 67.5 17.5t48.5 45.5h130q-23 -48 -62.5 -86t-91 -60t-110.5 -22zM334 404
q-46 0 -87 -26.5t-60 -80.5h247q1 8 1 11q1 44 -27 70t-74 26zM462 564q-26 0 -43.5 18t-17.5 44t17.5 44t43.5 18t44 -18t18 -44t-18 -44t-44 -18zM282 564q-26 0 -44 18t-18 44t18 44t44 18t44 -18t18 -44t-18 -44t-44 -18z" />
    <glyph glyph-name="igrave" unicode="&#xec;" horiz-adv-x="259" 
d="M22 0l87 496h128l-87 -496h-128zM216 536l-206 108l18 104l205 -122z" />
    <glyph glyph-name="iacute" unicode="&#xed;" horiz-adv-x="259" 
d="M22 0l87 496h128l-87 -496h-128zM130 536l16 90l247 122l-18 -104z" />
    <glyph glyph-name="icircumflex" unicode="&#xee;" horiz-adv-x="259" 
d="M22 0l87 496h128l-87 -496h-128zM34 543l16 92l161 83l132 -83l-17 -92l-130 85z" />
    <glyph glyph-name="idieresis" unicode="&#xef;" horiz-adv-x="259" 
d="M22 0l87 496h128l-87 -496h-128zM286 564q-26 0 -43.5 18t-17.5 44t17.5 44t43.5 18t44 -18t18 -44t-18 -44t-44 -18zM106 564q-26 0 -44 18t-18 44t18 44t44 18t44 -18t18 -44t-18 -44t-44 -18z" />
    <glyph glyph-name="eth" unicode="&#xf0;" horiz-adv-x="636" 
d="M284 -12q-74 0 -127.5 32t-82 84t-28.5 113q0 62 23 114t64 90.5t95 60t115 21.5q42 0 77 -12t59 -40q-12 66 -41 126l-131 -40l14 77l81 25q-23 33 -51 61h120q15 -15 28 -31l130 40l-14 -77l-75 -23q32 -57 47.5 -119.5t15.5 -122.5q0 -119 -44 -204t-116.5 -130
t-158.5 -45zM298 97q44 0 81 24.5t59 64t22 86.5q0 59 -34.5 90.5t-85.5 31.5q-45 0 -81.5 -23t-58.5 -61.5t-22 -85.5q0 -57 33.5 -92t86.5 -35z" />
    <glyph glyph-name="ntilde" unicode="&#xf1;" horiz-adv-x="609" 
d="M22 0l87 496h113l-3 -82q31 43 78 68.5t105 25.5q77 0 119.5 -42.5t42.5 -122.5q0 -28 -6 -63l-50 -280h-128l48 268q1 12 2.5 22.5t1.5 19.5q0 90 -89 90q-53 0 -94 -37.5t-53 -102.5l-46 -260h-128zM207 551q21 65 57 95t81 30q29 0 46.5 -11.5t32.5 -23t36 -11.5
q17 0 31 11t20 34h69q-20 -64 -57 -94t-82 -30q-29 0 -47 11t-33 22.5t-35 11.5q-36 0 -51 -45h-68z" />
    <glyph glyph-name="ograve" unicode="&#xf2;" horiz-adv-x="607" 
d="M263 -12q-65 0 -114 29t-76.5 78.5t-27.5 113.5q0 63 22.5 117.5t63 95.5t94.5 63.5t116 22.5q66 0 115.5 -28t77.5 -77t28 -114q0 -64 -23 -118.5t-63.5 -95.5t-95 -64t-117.5 -23zM280 99q43 0 77 24t54 65.5t20 93.5q0 55 -30.5 85t-73.5 30q-42 0 -76.5 -24
t-54.5 -65.5t-20 -93.5q0 -55 30.5 -85t73.5 -30zM388 536l-206 108l18 104l205 -122z" />
    <glyph glyph-name="oacute" unicode="&#xf3;" horiz-adv-x="607" 
d="M263 -12q-65 0 -114 29t-76.5 78.5t-27.5 113.5q0 63 22.5 117.5t63 95.5t94.5 63.5t116 22.5q66 0 115.5 -28t77.5 -77t28 -114q0 -64 -23 -118.5t-63.5 -95.5t-95 -64t-117.5 -23zM280 99q43 0 77 24t54 65.5t20 93.5q0 55 -30.5 85t-73.5 30q-42 0 -76.5 -24
t-54.5 -65.5t-20 -93.5q0 -55 30.5 -85t73.5 -30zM303 536l16 90l247 122l-18 -104z" />
    <glyph glyph-name="ocircumflex" unicode="&#xf4;" horiz-adv-x="607" 
d="M263 -12q-65 0 -114 29t-76.5 78.5t-27.5 113.5q0 63 22.5 117.5t63 95.5t94.5 63.5t116 22.5q66 0 115.5 -28t77.5 -77t28 -114q0 -64 -23 -118.5t-63.5 -95.5t-95 -64t-117.5 -23zM280 99q43 0 77 24t54 65.5t20 93.5q0 55 -30.5 85t-73.5 30q-42 0 -76.5 -24
t-54.5 -65.5t-20 -93.5q0 -55 30.5 -85t73.5 -30zM207 543l16 92l161 83l132 -83l-17 -92l-130 85z" />
    <glyph glyph-name="otilde" unicode="&#xf5;" horiz-adv-x="607" 
d="M263 -12q-65 0 -114 29t-76.5 78.5t-27.5 113.5q0 63 22.5 117.5t63 95.5t94.5 63.5t116 22.5q66 0 115.5 -28t77.5 -77t28 -114q0 -64 -23 -118.5t-63.5 -95.5t-95 -64t-117.5 -23zM280 99q43 0 77 24t54 65.5t20 93.5q0 55 -30.5 85t-73.5 30q-42 0 -76.5 -24
t-54.5 -65.5t-20 -93.5q0 -55 30.5 -85t73.5 -30zM181 551q21 65 57 95t81 30q29 0 46.5 -11.5t32.5 -23t36 -11.5q17 0 31 11t20 34h69q-20 -64 -57 -94t-82 -30q-29 0 -47 11t-33 22.5t-35 11.5q-36 0 -51 -45h-68z" />
    <glyph glyph-name="odieresis" unicode="&#xf6;" horiz-adv-x="607" 
d="M263 -12q-65 0 -114 29t-76.5 78.5t-27.5 113.5q0 63 22.5 117.5t63 95.5t94.5 63.5t116 22.5q66 0 115.5 -28t77.5 -77t28 -114q0 -64 -23 -118.5t-63.5 -95.5t-95 -64t-117.5 -23zM280 99q43 0 77 24t54 65.5t20 93.5q0 55 -30.5 85t-73.5 30q-42 0 -76.5 -24
t-54.5 -65.5t-20 -93.5q0 -55 30.5 -85t73.5 -30zM459 564q-26 0 -43.5 18t-17.5 44t17.5 44t43.5 18t44 -18t18 -44t-18 -44t-44 -18zM279 564q-26 0 -44 18t-18 44t18 44t44 18t44 -18t18 -44t-18 -44t-44 -18z" />
    <glyph glyph-name="divide" unicode="&#xf7;" horiz-adv-x="541" 
d="M307 391q-36 0 -58 22t-22 53q0 32 22 54t58 22q35 0 57 -22t22 -54q0 -31 -22 -53t-57 -22zM54 236l18 107h430l-19 -107h-429zM250 38q-35 0 -57.5 21.5t-22.5 52.5q0 33 22.5 54.5t57.5 21.5t57 -21.5t22 -54.5q0 -31 -22 -52.5t-57 -21.5z" />
    <glyph glyph-name="oslash" unicode="&#xf8;" horiz-adv-x="588" 
d="M-14 0l85 82q-36 55 -36 127q0 63 23 117.5t63.5 95.5t94 63.5t116.5 22.5q80 0 138 -42l31 30h101l-84 -81q35 -54 35 -126q0 -64 -23 -118.5t-63.5 -95.5t-95 -64t-117.5 -23q-40 0 -74 11t-61 32l-32 -31h-101zM158 211q0 -21 5 -40l224 215q-29 22 -67 22
q-46 0 -82.5 -25.5t-58 -70.5t-21.5 -101zM269 88q46 0 82.5 25.5t57.5 70.5t21 101q0 22 -5 40l-224 -215q29 -22 68 -22z" />
    <glyph glyph-name="ugrave" unicode="&#xf9;" horiz-adv-x="609" 
d="M207 -12q-78 0 -120 42.5t-42 122.5q0 28 6 63l50 280h127l-47 -268q-2 -12 -3 -22.5t-1 -19.5q0 -90 88 -90q54 0 95 37.5t53 102.5l45 260h128l-87 -496h-113l4 82q-31 -43 -78 -68.5t-105 -25.5zM386 536l-206 108l18 104l205 -122z" />
    <glyph glyph-name="uacute" unicode="&#xfa;" horiz-adv-x="609" 
d="M207 -12q-78 0 -120 42.5t-42 122.5q0 28 6 63l50 280h127l-47 -268q-2 -12 -3 -22.5t-1 -19.5q0 -90 88 -90q54 0 95 37.5t53 102.5l45 260h128l-87 -496h-113l4 82q-31 -43 -78 -68.5t-105 -25.5zM300 536l16 90l247 122l-18 -104z" />
    <glyph glyph-name="ucircumflex" unicode="&#xfb;" horiz-adv-x="609" 
d="M207 -12q-78 0 -120 42.5t-42 122.5q0 28 6 63l50 280h127l-47 -268q-2 -12 -3 -22.5t-1 -19.5q0 -90 88 -90q54 0 95 37.5t53 102.5l45 260h128l-87 -496h-113l4 82q-31 -43 -78 -68.5t-105 -25.5zM205 543l16 92l162 83l131 -83l-17 -92l-130 85z" />
    <glyph glyph-name="udieresis" unicode="&#xfc;" horiz-adv-x="609" 
d="M207 -12q-78 0 -120 42.5t-42 122.5q0 28 6 63l50 280h127l-47 -268q-2 -12 -3 -22.5t-1 -19.5q0 -90 88 -90q54 0 95 37.5t53 102.5l45 260h128l-87 -496h-113l4 82q-31 -43 -78 -68.5t-105 -25.5zM457 564q-26 0 -44 18t-18 44t18 44t44 18t43.5 -18t17.5 -44
t-17.5 -44t-43.5 -18zM276 564q-26 0 -43.5 18t-17.5 44t17.5 44t43.5 18t44 -18t18 -44t-18 -44t-44 -18z" />
    <glyph glyph-name="yacute" unicode="&#xfd;" horiz-adv-x="592" 
d="M43 -220l159 253h-30l-111 463h137l80 -349l206 349h136l-442 -716h-135zM301 536l16 90l247 122l-18 -104z" />
    <glyph glyph-name="thorn" unicode="&#xfe;" horiz-adv-x="645" 
d="M314 -12q-54 0 -94 23.5t-58 56.5l-50 -288h-128l164 940h128l-50 -287q29 31 71.5 53t101.5 22q61 0 106.5 -28t70.5 -76.5t25 -109.5q0 -64 -21.5 -119.5t-60.5 -97.5t-91.5 -65.5t-113.5 -23.5zM308 100q46 0 82.5 22.5t57.5 61.5t21 88q0 53 -32 88.5t-87 35.5
q-47 0 -83.5 -23t-57.5 -63t-21 -90q0 -52 33 -86t87 -34z" />
    <glyph glyph-name="ydieresis" unicode="&#xff;" horiz-adv-x="592" 
d="M43 -220l159 253h-30l-111 463h137l80 -349l206 349h136l-442 -716h-135zM458 564q-26 0 -44 18t-18 44t18 44t44 18t43.5 -18t17.5 -44t-17.5 -44t-43.5 -18zM277 564q-26 0 -43.5 18t-17.5 44t17.5 44t43.5 18t44 -18t18 -44t-18 -44t-44 -18z" />
    <glyph glyph-name="Amacron" unicode="&#x100;" horiz-adv-x="701" 
d="M-21 0l379 700h145l132 -700h-135l-28 162h-273l-85 -162h-135zM250 260h206l-51 296zM257 783l16 91h374l-15 -91h-375z" />
    <glyph glyph-name="amacron" unicode="&#x101;" horiz-adv-x="575" 
d="M188 -12q-84 0 -123 38.5t-39 92.5q0 80 67 127t179 47h126l2 12q1 6 1.5 12.5t0.5 11.5q0 38 -24 56.5t-61 18.5q-39 0 -71.5 -18.5t-46.5 -54.5h-125q15 54 52.5 94t91.5 61.5t117 21.5q92 0 144.5 -41t52.5 -118q0 -10 -1 -21.5t-3 -22.5l-54 -305h-114l5 77
q-29 -38 -72.5 -63.5t-104.5 -25.5zM235 88q55 0 91.5 36t53.5 89h-108q-50 0 -79 -20t-29 -55q0 -25 19.5 -37.5t51.5 -12.5zM159 579l16 91h374l-15 -91h-375z" />
    <glyph glyph-name="Abreve" unicode="&#x102;" horiz-adv-x="701" 
d="M-21 0l379 700h145l132 -700h-135l-28 162h-273l-85 -162h-135zM250 260h206l-51 296zM439 755q-71 0 -106 41t-22 110l3 17h68q-7 -35 9.5 -54t64.5 -19t71 19t30 54h68l-3 -17q-13 -70 -61.5 -110.5t-121.5 -40.5z" />
    <glyph glyph-name="abreve" unicode="&#x103;" horiz-adv-x="575" 
d="M188 -12q-84 0 -123 38.5t-39 92.5q0 80 67 127t179 47h126l2 12q1 6 1.5 12.5t0.5 11.5q0 38 -24 56.5t-61 18.5q-39 0 -71.5 -18.5t-46.5 -54.5h-125q15 54 52.5 94t91.5 61.5t117 21.5q92 0 144.5 -41t52.5 -118q0 -10 -1 -21.5t-3 -22.5l-54 -305h-114l5 77
q-29 -38 -72.5 -63.5t-104.5 -25.5zM235 88q55 0 91.5 36t53.5 89h-108q-50 0 -79 -20t-29 -55q0 -25 19.5 -37.5t51.5 -12.5zM341 551q-71 0 -106 41t-22 110l3 17h68q-7 -35 9.5 -54t64.5 -19t71 19t30 54h68l-3 -17q-13 -70 -62 -110.5t-121 -40.5z" />
    <glyph glyph-name="Aogonek" unicode="&#x104;" horiz-adv-x="701" 
d="M-21 0l379 700h145l132 -700h-7l-56 -25q-42 -18 -58 -34.5t-19 -33.5q-4 -20 8 -31t36 -11q32 0 74 15l-13 -76q-21 -6 -44 -10t-47 -4q-53 0 -88.5 25t-25.5 82q6 32 28.5 62.5t73.5 59.5l-25 143h-273l-85 -162h-135zM250 260h206l-51 296z" />
    <glyph glyph-name="aogonek" unicode="&#x105;" horiz-adv-x="575" 
d="M188 -12q-84 0 -123 38.5t-39 92.5q0 80 67 127t179 47h126l2 12q1 6 1.5 12.5t0.5 11.5q0 38 -24 56.5t-61 18.5q-39 0 -71.5 -18.5t-46.5 -54.5h-125q15 54 52.5 94t91.5 61.5t117 21.5q92 0 144.5 -41t52.5 -118q0 -10 -1 -21.5t-3 -22.5l-54 -305h-114l5 77
q-29 -38 -72.5 -63.5t-104.5 -25.5zM235 88q55 0 91.5 36t53.5 89h-108q-50 0 -79 -20t-29 -55q0 -25 19.5 -37.5t51.5 -12.5zM356 -210q-54 0 -89 25t-26 79q8 40 44 76t122 70l49 20l19 -60l-56 -26q-40 -18 -57.5 -34t-20.5 -34q-4 -19 8.5 -30t35.5 -11q32 0 74 15
l-13 -76q-21 -6 -44 -10t-46 -4z" />
    <glyph glyph-name="Cacute" unicode="&#x106;" horiz-adv-x="739" 
d="M341 -12q-90 0 -153.5 35.5t-97 98.5t-33.5 147q0 94 31 175t86.5 141t130 93.5t162.5 33.5q126 0 196 -62.5t71 -175.5h-142q-2 58 -39 90t-106 32q-74 0 -132 -41t-92 -112t-34 -160q0 -85 45.5 -132.5t127.5 -47.5q69 0 115.5 30t69.5 85h142q-40 -109 -131.5 -169.5
t-216.5 -60.5zM424 740l16 90l247 122l-18 -104z" />
    <glyph glyph-name="cacute" unicode="&#x107;" horiz-adv-x="598" 
d="M261 -12q-66 0 -115 26.5t-75.5 74.5t-26.5 112t23 120t65 98t98 65.5t122 23.5q96 0 153.5 -51t57.5 -141h-135q0 40 -27 61.5t-68 21.5q-43 0 -79 -24.5t-57 -66.5t-21 -95t29 -84.5t75 -31.5q41 0 75.5 21.5t49.5 61.5h134q-21 -58 -62 -101t-96.5 -67t-119.5 -24z
M311 536l16 90l247 122l-18 -104z" />
    <glyph glyph-name="Cdotaccent" unicode="&#x10a;" horiz-adv-x="739" 
d="M341 -12q-90 0 -153.5 35.5t-97 98.5t-33.5 147q0 94 31 175t86.5 141t130 93.5t162.5 33.5q126 0 196 -62.5t71 -175.5h-142q-2 58 -39 90t-106 32q-74 0 -132 -41t-92 -112t-34 -160q0 -85 45.5 -132.5t127.5 -47.5q69 0 115.5 30t69.5 85h142q-40 -109 -131.5 -169.5
t-216.5 -60.5zM488 764q-25 0 -43 18t-18 44t18 44t43 18q26 0 44 -18t18 -44t-18 -44t-44 -18z" />
    <glyph glyph-name="cdotaccent" unicode="&#x10b;" horiz-adv-x="598" 
d="M261 -12q-66 0 -115 26.5t-75.5 74.5t-26.5 112t23 120t65 98t98 65.5t122 23.5q96 0 153.5 -51t57.5 -141h-135q0 40 -27 61.5t-68 21.5q-43 0 -79 -24.5t-57 -66.5t-21 -95t29 -84.5t75 -31.5q41 0 75.5 21.5t49.5 61.5h134q-21 -58 -62 -101t-96.5 -67t-119.5 -24z
M376 560q-26 0 -43.5 18t-17.5 44t17.5 44t43.5 18t44 -18t18 -44t-18 -44t-44 -18z" />
    <glyph glyph-name="Ccaron" unicode="&#x10c;" horiz-adv-x="739" 
d="M341 -12q-90 0 -153.5 35.5t-97 98.5t-33.5 147q0 94 31 175t86.5 141t130 93.5t162.5 33.5q126 0 196 -62.5t71 -175.5h-142q-2 58 -39 90t-106 32q-74 0 -132 -41t-92 -112t-34 -160q0 -85 45.5 -132.5t127.5 -47.5q69 0 115.5 30t69.5 85h142q-40 -109 -131.5 -169.5
t-216.5 -60.5zM474 746l-131 83l16 89l129 -84l163 87l-16 -92z" />
    <glyph glyph-name="ccaron" unicode="&#x10d;" horiz-adv-x="598" 
d="M261 -12q-66 0 -115 26.5t-75.5 74.5t-26.5 112t23 120t65 98t98 65.5t122 23.5q96 0 153.5 -51t57.5 -141h-135q0 40 -27 61.5t-68 21.5q-43 0 -79 -24.5t-57 -66.5t-21 -95t29 -84.5t75 -31.5q41 0 75.5 21.5t49.5 61.5h134q-21 -58 -62 -101t-96.5 -67t-119.5 -24z
M361 542l-131 83l16 89l129 -84l163 87l-16 -92z" />
    <glyph glyph-name="Dcaron" unicode="&#x10e;" horiz-adv-x="716" 
d="M25 0l123 700h239q158 0 232 -77t74 -208q0 -122 -53.5 -216t-149.5 -146.5t-226 -52.5h-239zM172 110h105q91 0 154.5 36t96.5 102t33 156q0 94 -48 140.5t-151 46.5h-105zM396 746l-131 83l16 89l129 -84l163 87l-16 -92z" />
    <glyph glyph-name="dcaron" unicode="&#x10f;" horiz-adv-x="793" 
d="M695 505l9 53q49 0 60 59l4 20h-56l18 103h110q3 -29 2 -55t-5 -49q-10 -62 -46.5 -96.5t-95.5 -34.5zM243 -12q-62 0 -106 29t-68 79t-24 112q0 85 37.5 153t101 107.5t141.5 39.5q62 0 100 -22.5t57 -57.5l51 292h128l-127 -720h-114l-2 71q-28 -33 -70.5 -58
t-104.5 -25zM292 100q47 0 83.5 24.5t58 65.5t21.5 90q0 52 -31 84t-85 32q-47 0 -83.5 -23t-57.5 -62t-21 -88q0 -52 30.5 -87.5t84.5 -35.5z" />
    <glyph glyph-name="Dcroat" unicode="&#x110;" horiz-adv-x="723" 
d="M31 0l52 295h-74l19 110h75l51 295h240q157 0 231 -77t74 -208q0 -122 -53 -216t-149.5 -146.5t-225.5 -52.5h-240zM179 110h105q90 0 153.5 36t97 102t33.5 156q0 94 -48.5 140.5t-150.5 46.5h-105l-33 -186h176l-19 -110h-177z" />
    <glyph glyph-name="dcroat" unicode="&#x111;" horiz-adv-x="675" 
d="M243 -12q-62 0 -106 29t-68 79t-24 112q0 85 37.5 153t101 107.5t141.5 39.5q62 0 100 -22.5t57 -57.5l24 138h-134l14 78h134l13 76h128l-13 -76h71l-14 -78h-71l-100 -566h-114l-2 71q-28 -33 -70.5 -58t-104.5 -25zM292 100q47 0 83.5 24.5t58 65.5t21.5 90
q0 52 -31 84t-85 32q-47 0 -83.5 -23t-57.5 -62t-21 -88q0 -52 30.5 -87.5t84.5 -35.5z" />
    <glyph glyph-name="Emacron" unicode="&#x112;" horiz-adv-x="560" 
d="M24 0l124 700h433l-19 -101h-304l-34 -195h274l-17 -98h-274l-37 -205h305l-18 -101h-433zM197 783l16 91h374l-15 -91h-375z" />
    <glyph glyph-name="emacron" unicode="&#x113;" horiz-adv-x="596" 
d="M260 -12q-99 0 -157.5 57t-58.5 154q0 63 22 119t63 98.5t97.5 67t124.5 24.5q66 0 113 -25.5t72.5 -70t25.5 -101.5q0 -24 -4.5 -49.5t-10.5 -44.5h-377v-17q0 -50 30 -78.5t78 -28.5q38 0 67.5 17.5t48.5 45.5h130q-23 -48 -62.5 -86t-91 -60t-110.5 -22zM334 404
q-46 0 -87 -26.5t-60 -80.5h247q1 8 1 11q1 44 -27 70t-74 26zM176 579l16 91h374l-15 -91h-375z" />
    <glyph glyph-name="Ebreve" unicode="&#x114;" horiz-adv-x="560" 
d="M24 0l124 700h433l-19 -101h-304l-34 -195h274l-17 -98h-274l-37 -205h305l-18 -101h-433zM380 755q-71 0 -106 41t-22 110l3 17h68q-7 -35 9.5 -54t64.5 -19t71 19t30 54h68l-3 -17q-13 -70 -61.5 -110.5t-121.5 -40.5z" />
    <glyph glyph-name="ebreve" unicode="&#x115;" horiz-adv-x="596" 
d="M260 -12q-99 0 -157.5 57t-58.5 154q0 63 22 119t63 98.5t97.5 67t124.5 24.5q66 0 113 -25.5t72.5 -70t25.5 -101.5q0 -24 -4.5 -49.5t-10.5 -44.5h-377v-17q0 -50 30 -78.5t78 -28.5q38 0 67.5 17.5t48.5 45.5h130q-23 -48 -62.5 -86t-91 -60t-110.5 -22zM334 404
q-46 0 -87 -26.5t-60 -80.5h247q1 8 1 11q1 44 -27 70t-74 26zM358 551q-71 0 -106 41t-22 110l3 17h68q-7 -35 9.5 -54t64.5 -19t71 19t30 54h68l-3 -17q-13 -70 -62 -110.5t-121 -40.5z" />
    <glyph glyph-name="Edotaccent" unicode="&#x116;" horiz-adv-x="560" 
d="M24 0l124 700h433l-19 -101h-304l-34 -195h274l-17 -98h-274l-37 -205h305l-18 -101h-433zM392 764q-25 0 -43 18t-18 44t18 44t43 18q26 0 44 -18t18 -44t-18 -44t-44 -18z" />
    <glyph glyph-name="edotaccent" unicode="&#x117;" horiz-adv-x="596" 
d="M260 -12q-99 0 -157.5 57t-58.5 154q0 63 22 119t63 98.5t97.5 67t124.5 24.5q66 0 113 -25.5t72.5 -70t25.5 -101.5q0 -24 -4.5 -49.5t-10.5 -44.5h-377v-17q0 -50 30 -78.5t78 -28.5q38 0 67.5 17.5t48.5 45.5h130q-23 -48 -62.5 -86t-91 -60t-110.5 -22zM334 404
q-46 0 -87 -26.5t-60 -80.5h247q1 8 1 11q1 44 -27 70t-74 26zM371 560q-26 0 -43.5 18t-17.5 44t17.5 44t43.5 18t44 -18t18 -44t-18 -44t-44 -18z" />
    <glyph glyph-name="Eogonek" unicode="&#x118;" horiz-adv-x="560" 
d="M24 0l124 700h433l-19 -101h-304l-34 -195h274l-17 -98h-274l-37 -205h305l-18 -101h-433zM338 -210q-54 0 -89 25t-25 79q7 40 43 76t122 70l50 20l18 -60l-56 -26q-40 -18 -57 -34t-21 -34q-3 -19 9 -30t36 -11q31 0 73 15l-13 -76q-20 -6 -43.5 -10t-46.5 -4z" />
    <glyph glyph-name="eogonek" unicode="&#x119;" horiz-adv-x="596" 
d="M260 -12q-99 0 -157.5 57t-58.5 154q0 63 22 119t63 98.5t97.5 67t124.5 24.5q66 0 113 -25.5t72.5 -70t25.5 -101.5q0 -24 -4.5 -49.5t-10.5 -44.5h-377v-17q0 -50 30 -78.5t78 -28.5q38 0 67.5 17.5t48.5 45.5h130q-23 -48 -62.5 -86t-91 -60t-110.5 -22zM334 404
q-46 0 -87 -26.5t-60 -80.5h247q1 8 1 11q1 44 -27 70t-74 26zM246 -199q-54 0 -89 25t-26 79q8 40 44 76t122 70l49 20l19 -60l-56 -26q-40 -18 -57.5 -34t-20.5 -34q-4 -19 8.5 -30t35.5 -11q32 0 74 15l-13 -76q-21 -6 -44 -10t-46 -4z" />
    <glyph glyph-name="Ecaron" unicode="&#x11a;" horiz-adv-x="560" 
d="M24 0l124 700h433l-19 -101h-304l-34 -195h274l-17 -98h-274l-37 -205h305l-18 -101h-433zM378 746l-131 83l16 89l129 -84l163 87l-16 -92z" />
    <glyph glyph-name="ecaron" unicode="&#x11b;" horiz-adv-x="596" 
d="M260 -12q-99 0 -157.5 57t-58.5 154q0 63 22 119t63 98.5t97.5 67t124.5 24.5q66 0 113 -25.5t72.5 -70t25.5 -101.5q0 -24 -4.5 -49.5t-10.5 -44.5h-377v-17q0 -50 30 -78.5t78 -28.5q38 0 67.5 17.5t48.5 45.5h130q-23 -48 -62.5 -86t-91 -60t-110.5 -22zM334 404
q-46 0 -87 -26.5t-60 -80.5h247q1 8 1 11q1 44 -27 70t-74 26zM356 542l-131 83l16 89l129 -84l163 87l-16 -92z" />
    <glyph glyph-name="Gbreve" unicode="&#x11e;" horiz-adv-x="777" 
d="M333 -12q-86 0 -147 38.5t-94 104.5t-33 150q0 95 31 174t87.5 136.5t132.5 89t167 31.5q123 0 196 -59t78 -163h-143q-7 49 -44.5 76.5t-104.5 27.5q-79 0 -139.5 -38.5t-94.5 -106.5t-34 -158q0 -88 46 -138.5t128 -50.5q95 0 152.5 51.5t81.5 135.5h-176l17 96h305
l-68 -385h-116l4 92q-42 -50 -97 -77t-135 -27zM487 755q-71 0 -106 41t-22 110l3 17h68q-7 -35 9.5 -54t64.5 -19t71 19t30 54h68l-3 -17q-13 -70 -61.5 -110.5t-121.5 -40.5z" />
    <glyph glyph-name="gbreve" unicode="&#x11f;" horiz-adv-x="565" 
d="M256 148q-36 0 -66 8l-38 -32q18 -11 45 -17.5t77 -10.5q95 -8 135 -43.5t40 -90.5q0 -57 -33.5 -100.5t-91.5 -68.5t-133 -25q-96 0 -154 35t-58 104q0 43 23.5 78.5t65.5 63.5q-33 17 -51 38l4 23l99 87q-38 39 -38 98t32 107.5t85.5 77t119.5 28.5q42 0 76 -12h188
l-14 -78l-86 -6q8 -24 8 -51q0 -60 -31.5 -108t-85 -76.5t-118.5 -28.5zM273 245q47 0 77.5 28t30.5 72q0 31 -22 48t-57 17q-48 0 -78.5 -28.5t-30.5 -71.5q0 -31 21.5 -48t58.5 -17zM100 -68q0 -33 29.5 -50t77.5 -17q51 0 86.5 21.5t35.5 61.5q0 23 -17.5 40t-68.5 20
q-41 3 -77 10q-34 -17 -50 -39.5t-16 -46.5zM326 551q-71 0 -106 41t-22 110l3 17h68q-7 -35 9.5 -54t64.5 -19t71 19t30 54h68l-3 -17q-13 -70 -61.5 -110.5t-121.5 -40.5z" />
    <glyph glyph-name="Gdotaccent" unicode="&#x120;" horiz-adv-x="777" 
d="M333 -12q-86 0 -147 38.5t-94 104.5t-33 150q0 95 31 174t87.5 136.5t132.5 89t167 31.5q123 0 196 -59t78 -163h-143q-7 49 -44.5 76.5t-104.5 27.5q-79 0 -139.5 -38.5t-94.5 -106.5t-34 -158q0 -88 46 -138.5t128 -50.5q95 0 152.5 51.5t81.5 135.5h-176l17 96h305
l-68 -385h-116l4 92q-42 -50 -97 -77t-135 -27zM499 764q-25 0 -43 18t-18 44t18 44t43 18q26 0 44 -18t18 -44t-18 -44t-44 -18z" />
    <glyph glyph-name="gdotaccent" unicode="&#x121;" horiz-adv-x="565" 
d="M256 148q-36 0 -66 8l-38 -32q18 -11 45 -17.5t77 -10.5q95 -8 135 -43.5t40 -90.5q0 -57 -33.5 -100.5t-91.5 -68.5t-133 -25q-96 0 -154 35t-58 104q0 43 23.5 78.5t65.5 63.5q-33 17 -51 38l4 23l99 87q-38 39 -38 98t32 107.5t85.5 77t119.5 28.5q42 0 76 -12h188
l-14 -78l-86 -6q8 -24 8 -51q0 -60 -31.5 -108t-85 -76.5t-118.5 -28.5zM273 245q47 0 77.5 28t30.5 72q0 31 -22 48t-57 17q-48 0 -78.5 -28.5t-30.5 -71.5q0 -31 21.5 -48t58.5 -17zM100 -68q0 -33 29.5 -50t77.5 -17q51 0 86.5 21.5t35.5 61.5q0 23 -17.5 40t-68.5 20
q-41 3 -77 10q-34 -17 -50 -39.5t-16 -46.5zM339 560q-25 0 -43 18t-18 44t18 44t43 18q26 0 44 -18t18 -44t-18 -44t-44 -18z" />
    <glyph glyph-name="uni0122" unicode="&#x122;" horiz-adv-x="777" 
d="M333 -12q-86 0 -147 38.5t-94 104.5t-33 150q0 95 31 174t87.5 136.5t132.5 89t167 31.5q123 0 196 -59t78 -163h-143q-7 49 -44.5 76.5t-104.5 27.5q-79 0 -139.5 -38.5t-94.5 -106.5t-34 -158q0 -88 46 -138.5t128 -50.5q95 0 152.5 51.5t81.5 135.5h-176l17 96h305
l-68 -385h-116l4 92q-42 -50 -97 -77t-135 -27zM237 -274l9 52q50 0 60 62l2 15h-54l18 100h109q3 -26 2.5 -50.5t-3.5 -45.5q-12 -64 -48 -98.5t-95 -34.5z" />
    <glyph glyph-name="uni0123" unicode="&#x123;" horiz-adv-x="565" 
d="M324 597q-3 28 -2 54.5t5 49.5q10 62 46 96.5t95 34.5l-8 -53q-52 0 -61 -59l-3 -20h56l-19 -103h-109zM256 148q-36 0 -66 8l-38 -32q18 -11 45 -17.5t77 -10.5q95 -8 135 -43.5t40 -90.5q0 -57 -33.5 -100.5t-91.5 -68.5t-133 -25q-96 0 -154 35t-58 104
q0 43 23.5 78.5t65.5 63.5q-33 17 -51 38l4 23l99 87q-38 39 -38 98t32 107.5t85.5 77t119.5 28.5q42 0 76 -12h188l-14 -78l-86 -6q8 -24 8 -51q0 -60 -31.5 -108t-85 -76.5t-118.5 -28.5zM273 245q47 0 77.5 28t30.5 72q0 31 -22 48t-57 17q-48 0 -78.5 -28.5t-30.5 -71.5
q0 -31 21.5 -48t58.5 -17zM100 -68q0 -33 29.5 -50t77.5 -17q51 0 86.5 21.5t35.5 61.5q0 23 -17.5 40t-68.5 20q-41 3 -77 10q-34 -17 -50 -39.5t-16 -46.5z" />
    <glyph glyph-name="Itilde" unicode="&#x128;" horiz-adv-x="264" 
d="M24 0l124 700h128l-124 -700h-128zM48 755q22 65 58 95t81 30q29 0 46.5 -11.5t32.5 -23t36 -11.5q17 0 30.5 11t20.5 34h69q-20 -64 -57 -94t-82 -30q-29 0 -47 11t-33 22.5t-35 11.5q-37 0 -51 -45h-69z" />
    <glyph glyph-name="itilde" unicode="&#x129;" horiz-adv-x="259" 
d="M22 0l87 496h128l-87 -496h-128zM8 551q21 65 57 95t81 30q29 0 46.5 -11.5t32.5 -23t36 -11.5q17 0 31 11t20 34h69q-20 -64 -57 -94t-82 -30q-29 0 -47 11t-33 22.5t-35 11.5q-36 0 -51 -45h-68z" />
    <glyph glyph-name="Imacron" unicode="&#x12a;" horiz-adv-x="264" 
d="M24 0l124 700h128l-124 -700h-128zM37 783l16 91h374l-15 -91h-375z" />
    <glyph glyph-name="imacron" unicode="&#x12b;" horiz-adv-x="259" 
d="M22 0l87 496h128l-87 -496h-128zM0 579l16 91h374l-15 -91h-375z" />
    <glyph glyph-name="Ibreve" unicode="&#x12c;" horiz-adv-x="264" 
d="M24 0l124 700h128l-124 -700h-128zM219 755q-71 0 -106 41t-22 110l3 17h68q-7 -35 9.5 -54t64.5 -19t71 19t30 54h68l-3 -17q-13 -70 -61.5 -110.5t-121.5 -40.5z" />
    <glyph glyph-name="ibreve" unicode="&#x12d;" horiz-adv-x="259" 
d="M22 0l87 496h128l-87 -496h-128zM182 551q-71 0 -106 41t-22 110l3 17h68q-7 -35 9.5 -54t64.5 -19t71 19t30 54h68l-3 -17q-13 -70 -62 -110.5t-121 -40.5z" />
    <glyph glyph-name="Iogonek" unicode="&#x12e;" horiz-adv-x="264" 
d="M24 0l124 700h128l-124 -700h-128zM34 -210q-54 0 -89 25t-25 79q7 40 43 76t122 70l50 20l18 -60l-56 -26q-40 -18 -57 -34t-21 -34q-3 -19 9 -30t36 -11q31 0 73 15l-13 -76q-20 -6 -43.5 -10t-46.5 -4z" />
    <glyph glyph-name="iogonek" unicode="&#x12f;" horiz-adv-x="270" 
d="M205 570q-35 0 -57.5 21.5t-22.5 53.5t22.5 53.5t57.5 21.5t57.5 -21.5t22.5 -53.5t-22.5 -53.5t-57.5 -21.5zM27 0l87 496h128l-87 -496h-128zM36 -210q-54 0 -89 25t-26 79q8 40 44 76t122 70l49 20l19 -60l-56 -26q-40 -18 -57.5 -34t-20.5 -34q-4 -19 8.5 -30
t35.5 -11q32 0 74 15l-13 -76q-21 -6 -44 -10t-46 -4z" />
    <glyph glyph-name="Idotaccent" unicode="&#x130;" horiz-adv-x="264" 
d="M24 0l124 700h128l-124 -700h-128zM232 764q-25 0 -43 18t-18 44t18 44t43 18q26 0 44 -18t18 -44t-18 -44t-44 -18z" />
    <glyph glyph-name="dotlessi" unicode="&#x131;" horiz-adv-x="259" 
d="M22 0l87 496h128l-87 -496h-128z" />
    <glyph glyph-name="uni0136" unicode="&#x136;" horiz-adv-x="647" 
d="M25 0l123 700h128l-49 -283l308 283h158l-307 -278l191 -422h-152l-145 327l-83 -76l-44 -251h-128zM177 -274l10 52q48 0 59 62l3 15h-55l18 100h109q6 -51 -2 -96q-12 -64 -47.5 -98.5t-94.5 -34.5z" />
    <glyph glyph-name="uni0137" unicode="&#x137;" horiz-adv-x="576" 
d="M21 0l128 720h128l-75 -422l215 198h159l-253 -220l197 -276h-152l-173 258l-46 -258h-128zM132 -274l9 52q49 0 61 62l2 15h-54l17 100h109q6 -52 -2 -96q-12 -64 -47.5 -98.5t-94.5 -34.5z" />
    <glyph glyph-name="Lacute" unicode="&#x139;" horiz-adv-x="552" 
d="M25 0l123 700h128l-106 -600h310l-17 -100h-438zM179 740l16 90l247 122l-18 -104z" />
    <glyph glyph-name="lacute" unicode="&#x13a;" horiz-adv-x="260" 
d="M21 0l128 720h128l-128 -720h-128zM170 760l16 90l247 122l-18 -104z" />
    <glyph glyph-name="uni013B" unicode="&#x13b;" horiz-adv-x="552" 
d="M25 0l123 700h128l-106 -600h310l-17 -100h-438zM107 -274l9 52q50 0 61 62l2 15h-54l17 100h109q4 -26 3 -50.5t-4 -45.5q-11 -64 -47.5 -98.5t-95.5 -34.5z" />
    <glyph glyph-name="uni013C" unicode="&#x13c;" horiz-adv-x="267" 
d="M21 0l128 720h128l-128 -720h-128zM-15 -274l9 52q50 0 61 62l2 15h-55l18 100h109q7 -51 -2 -96q-11 -64 -47.5 -98.5t-94.5 -34.5z" />
    <glyph glyph-name="Lcaron" unicode="&#x13d;" horiz-adv-x="552" 
d="M344 465l9 53q49 0 60 60l4 19h-56l18 103h110q3 -29 1.5 -55t-4.5 -49q-11 -62 -47 -96.5t-95 -34.5zM25 0l123 700h128l-106 -600h310l-17 -100h-438z" />
    <glyph glyph-name="lcaron" unicode="&#x13e;" horiz-adv-x="407" 
d="M309 505l9 53q49 0 60 59l4 20h-56l18 103h110q5 -56 -4 -104q-10 -62 -46 -96.5t-95 -34.5zM21 0l128 720h128l-128 -720h-128z" />
    <glyph glyph-name="Ldot" unicode="&#x13f;" horiz-adv-x="552" 
d="M25 0l123 700h128l-106 -600h310l-17 -100h-438zM395 274q-35 0 -57.5 22t-22.5 53q0 32 22.5 54t57.5 22t57.5 -22t22.5 -54q0 -31 -22.5 -53t-57.5 -22z" />
    <glyph glyph-name="ldot" unicode="&#x140;" horiz-adv-x="391" 
d="M19 0l128 720h128l-128 -720h-128zM319 304q-27 0 -44.5 17.5t-17.5 43.5t17.5 44.5t44.5 18.5q26 0 44 -18.5t18 -44.5t-18 -43.5t-44 -17.5z" />
    <glyph glyph-name="Lslash" unicode="&#x141;" horiz-adv-x="577" 
d="M49 0l50 284l-77 -24l22 122l77 24l51 294h128l-44 -251l109 35l-21 -123l-109 -34l-40 -227h309l-17 -100h-438z" />
    <glyph glyph-name="lslash" unicode="&#x142;" horiz-adv-x="298" 
d="M38 0l54 304l-74 -24l22 122l74 24l52 294h128l-44 -249l74 24l-22 -122l-74 -24l-62 -349h-128z" />
    <glyph glyph-name="Nacute" unicode="&#x143;" horiz-adv-x="721" 
d="M24 0l124 700h129l240 -499l88 499h128l-124 -700h-128l-240 499l-89 -499h-128zM397 740l16 90l247 122l-18 -104z" />
    <glyph glyph-name="nacute" unicode="&#x144;" horiz-adv-x="609" 
d="M22 0l87 496h113l-3 -82q31 43 78 68.5t105 25.5q77 0 119.5 -42.5t42.5 -122.5q0 -28 -6 -63l-50 -280h-128l48 268q1 12 2.5 22.5t1.5 19.5q0 90 -89 90q-53 0 -94 -37.5t-53 -102.5l-46 -260h-128zM329 536l16 90l247 122l-18 -104z" />
    <glyph glyph-name="uni0145" unicode="&#x145;" horiz-adv-x="721" 
d="M24 0l124 700h129l240 -499l88 499h128l-124 -700h-128l-240 499l-89 -499h-128zM219 -274l10 52q51 0 60 62l2 15h-55l18 100h109q7 -53 -1 -96q-12 -64 -48 -98.5t-95 -34.5z" />
    <glyph glyph-name="uni0146" unicode="&#x146;" horiz-adv-x="609" 
d="M22 0l87 496h113l-3 -82q31 43 78 68.5t105 25.5q77 0 119.5 -42.5t42.5 -122.5q0 -28 -6 -63l-50 -280h-128l48 268q1 12 2.5 22.5t1.5 19.5q0 90 -89 90q-53 0 -94 -37.5t-53 -102.5l-46 -260h-128zM166 -274l9 52q50 0 60 62l3 15h-54l17 100h109q3 -26 2.5 -50.5
t-4.5 -45.5q-12 -64 -47.5 -98.5t-94.5 -34.5z" />
    <glyph glyph-name="Ncaron" unicode="&#x147;" horiz-adv-x="721" 
d="M24 0l124 700h129l240 -499l88 499h128l-124 -700h-128l-240 499l-89 -499h-128zM448 746l-131 83l16 89l129 -84l163 87l-16 -92z" />
    <glyph glyph-name="ncaron" unicode="&#x148;" horiz-adv-x="609" 
d="M22 0l87 496h113l-3 -82q31 43 78 68.5t105 25.5q77 0 119.5 -42.5t42.5 -122.5q0 -28 -6 -63l-50 -280h-128l48 268q1 12 2.5 22.5t1.5 19.5q0 90 -89 90q-53 0 -94 -37.5t-53 -102.5l-46 -260h-128zM380 542l-131 83l16 89l129 -84l163 87l-16 -92z" />
    <glyph glyph-name="Omacron" unicode="&#x14c;" horiz-adv-x="804" 
d="M361 -12q-89 0 -157 39t-106.5 107.5t-38.5 155.5q0 88 32.5 164.5t90 134.5t134 90.5t163.5 32.5q89 0 157 -39t106.5 -107t38.5 -155q0 -88 -32.5 -165t-90.5 -135t-134 -90.5t-163 -32.5zM377 103q56 0 105 22.5t86.5 63.5t59 95t21.5 116q0 90 -49 143.5t-136 53.5
q-57 0 -106 -23t-86.5 -63t-59 -94t-21.5 -116q0 -90 50 -144t136 -54zM310 783l16 91h374l-15 -91h-375z" />
    <glyph glyph-name="omacron" unicode="&#x14d;" horiz-adv-x="607" 
d="M263 -12q-65 0 -114 29t-76.5 78.5t-27.5 113.5q0 63 22.5 117.5t63 95.5t94.5 63.5t116 22.5q66 0 115.5 -28t77.5 -77t28 -114q0 -64 -23 -118.5t-63.5 -95.5t-95 -64t-117.5 -23zM280 99q43 0 77 24t54 65.5t20 93.5q0 55 -30.5 85t-73.5 30q-42 0 -76.5 -24
t-54.5 -65.5t-20 -93.5q0 -55 30.5 -85t73.5 -30zM173 579l16 91h374l-15 -91h-375z" />
    <glyph glyph-name="Obreve" unicode="&#x14e;" horiz-adv-x="804" 
d="M361 -12q-89 0 -157 39t-106.5 107.5t-38.5 155.5q0 88 32.5 164.5t90 134.5t134 90.5t163.5 32.5q89 0 157 -39t106.5 -107t38.5 -155q0 -88 -32.5 -165t-90.5 -135t-134 -90.5t-163 -32.5zM377 103q56 0 105 22.5t86.5 63.5t59 95t21.5 116q0 90 -49 143.5t-136 53.5
q-57 0 -106 -23t-86.5 -63t-59 -94t-21.5 -116q0 -90 50 -144t136 -54zM492 755q-71 0 -106 41t-22 110l3 17h68q-7 -35 9.5 -54t64.5 -19t71 19t30 54h68l-3 -17q-13 -70 -61.5 -110.5t-121.5 -40.5z" />
    <glyph glyph-name="obreve" unicode="&#x14f;" horiz-adv-x="607" 
d="M263 -12q-65 0 -114 29t-76.5 78.5t-27.5 113.5q0 63 22.5 117.5t63 95.5t94.5 63.5t116 22.5q66 0 115.5 -28t77.5 -77t28 -114q0 -64 -23 -118.5t-63.5 -95.5t-95 -64t-117.5 -23zM280 99q43 0 77 24t54 65.5t20 93.5q0 55 -30.5 85t-73.5 30q-42 0 -76.5 -24
t-54.5 -65.5t-20 -93.5q0 -55 30.5 -85t73.5 -30zM355 551q-71 0 -106 41t-22 110l3 17h68q-7 -35 9.5 -54t64.5 -19t71 19t30 54h68l-3 -17q-13 -70 -62 -110.5t-121 -40.5z" />
    <glyph glyph-name="Ohungarumlaut" unicode="&#x150;" horiz-adv-x="804" 
d="M361 -12q-89 0 -157 39t-106.5 107.5t-38.5 155.5q0 88 32.5 164.5t90 134.5t134 90.5t163.5 32.5q89 0 157 -39t106.5 -107t38.5 -155q0 -88 -32.5 -165t-90.5 -135t-134 -90.5t-163 -32.5zM377 103q56 0 105 22.5t86.5 63.5t59 95t21.5 116q0 90 -49 143.5t-136 53.5
q-57 0 -106 -23t-86.5 -63t-59 -94t-21.5 -116q0 -90 50 -144t136 -54zM525 748l118 179h105l-142 -179h-81zM355 748l102 179h105l-126 -179h-81z" />
    <glyph glyph-name="ohungarumlaut" unicode="&#x151;" horiz-adv-x="607" 
d="M263 -12q-65 0 -114 29t-76.5 78.5t-27.5 113.5q0 63 22.5 117.5t63 95.5t94.5 63.5t116 22.5q66 0 115.5 -28t77.5 -77t28 -114q0 -64 -23 -118.5t-63.5 -95.5t-95 -64t-117.5 -23zM280 99q43 0 77 24t54 65.5t20 93.5q0 55 -30.5 85t-73.5 30q-42 0 -76.5 -24
t-54.5 -65.5t-20 -93.5q0 -55 30.5 -85t73.5 -30zM387 544l119 179h104l-141 -179h-82zM217 544l103 179h104l-125 -179h-82z" />
    <glyph glyph-name="OE" unicode="&#x152;" horiz-adv-x="1107" 
d="M343 -12q-84 0 -148 40t-99.5 110t-35.5 158t32 163.5t87.5 132t127 88.5t152.5 32q72 0 133 -29.5t91 -81.5l18 99h426l-19 -103h-298l-34 -192h269l-18 -100h-268l-36 -202h298l-18 -103h-426l17 96q-48 -52 -116 -80t-135 -28zM373 103q56 0 105 23.5t86 65.5t58 96.5
t21 116.5q0 60 -24.5 103t-66.5 66t-96 23q-53 0 -100.5 -23t-84 -63t-57.5 -92.5t-21 -113.5t23.5 -106.5t64.5 -70.5t92 -25z" />
    <glyph glyph-name="oe" unicode="&#x153;" horiz-adv-x="980" 
d="M263 -12q-65 0 -114 29t-76.5 78.5t-27.5 113.5q0 63 22.5 117.5t63 95.5t94.5 63.5t116 22.5q60 0 106.5 -24t73.5 -67q41 43 97 67t120 24q65 0 111.5 -25.5t72 -70t25.5 -101.5q0 -16 -3 -36t-6.5 -36.5t-5.5 -21.5h-376q-1 -9 -1 -18q0 -50 30 -78t78 -28q44 0 76 22
t51 55h127q-22 -52 -62.5 -93t-94 -65t-114.5 -24q-59 0 -104 23t-71 63q-40 -40 -93 -63t-115 -23zM573 297h246q0 4 0.5 7.5t0.5 7.5q0 42 -27.5 67t-72.5 25q-48 0 -88.5 -27t-58.5 -80zM280 99q43 0 77 24t54 65.5t20 93.5q0 55 -30.5 85t-73.5 30q-42 0 -76.5 -24
t-54.5 -65.5t-20 -93.5q0 -55 30.5 -85t73.5 -30z" />
    <glyph glyph-name="Racute" unicode="&#x154;" horiz-adv-x="624" 
d="M25 0l123 700h253q74 0 122 -25.5t71.5 -67.5t23.5 -91q0 -84 -47.5 -142t-127.5 -82l93 -292h-140l-81 276h-113l-49 -276h-128zM218 370h121q67 0 107 35t40 97q0 40 -25.5 65.5t-82.5 25.5h-121zM316 740l16 90l247 122l-18 -104z" />
    <glyph glyph-name="racute" unicode="&#x155;" horiz-adv-x="403" 
d="M22 0l87 496h115l-4 -90q35 46 86.5 74t114.5 28l-24 -135h-35q-64 0 -110 -29.5t-60 -108.5l-42 -235h-128zM240 536l16 90l247 122l-18 -104z" />
    <glyph glyph-name="uni0156" unicode="&#x156;" horiz-adv-x="624" 
d="M25 0l123 700h253q74 0 122 -25.5t71.5 -67.5t23.5 -91q0 -84 -47.5 -142t-127.5 -82l93 -292h-140l-81 276h-113l-49 -276h-128zM218 370h121q67 0 107 35t40 97q0 40 -25.5 65.5t-82.5 25.5h-121zM166 -274l9 52q49 0 60 62l2 15h-53l17 100h109q3 -26 2 -50.5
t-4 -45.5q-12 -64 -48 -98.5t-94 -34.5z" />
    <glyph glyph-name="uni0157" unicode="&#x157;" horiz-adv-x="403" 
d="M22 0l87 496h115l-4 -90q35 46 86.5 74t114.5 28l-24 -135h-35q-64 0 -110 -29.5t-60 -108.5l-42 -235h-128zM-17 -274l9 52q48 0 60 62l2 15h-54l18 100h108q4 -26 3 -50.5t-4 -45.5q-12 -64 -48 -98.5t-94 -34.5z" />
    <glyph glyph-name="Rcaron" unicode="&#x158;" horiz-adv-x="624" 
d="M25 0l123 700h253q74 0 122 -25.5t71.5 -67.5t23.5 -91q0 -84 -47.5 -142t-127.5 -82l93 -292h-140l-81 276h-113l-49 -276h-128zM218 370h121q67 0 107 35t40 97q0 40 -25.5 65.5t-82.5 25.5h-121zM367 746l-131 83l16 89l129 -84l163 87l-16 -92z" />
    <glyph glyph-name="rcaron" unicode="&#x159;" horiz-adv-x="403" 
d="M22 0l87 496h115l-4 -90q35 46 86.5 74t114.5 28l-24 -135h-35q-64 0 -110 -29.5t-60 -108.5l-42 -235h-128zM291 542l-131 83l16 89l129 -84l163 87l-16 -92z" />
    <glyph glyph-name="Sacute" unicode="&#x15a;" horiz-adv-x="604" 
d="M270 -12q-69 0 -122 21.5t-83 63t-30 99.5q0 10 1 19.5t2 19.5h136q-1 -11 -1 -20q0 -43 30.5 -69.5t82.5 -26.5q58 0 91 29.5t33 77.5q0 36 -25 57t-63.5 35t-80.5 29q-66 24 -101 66t-35 99q0 67 34.5 117.5t95 78.5t139.5 28q95 0 153 -46t58 -125q0 -7 -0.5 -15
t-1.5 -16h-137q1 9 1 17q0 31 -24 54t-70 23q-51 0 -80.5 -26.5t-29.5 -66.5q0 -31 20 -49.5t54 -32t75 -28.5q43 -15 78.5 -39.5t57 -59.5t21.5 -83q0 -70 -36 -122t-99 -80.5t-144 -28.5zM333 740l16 90l247 122l-18 -104z" />
    <glyph glyph-name="sacute" unicode="&#x15b;" horiz-adv-x="536" 
d="M230 -12q-68 0 -115.5 23t-71.5 63t-20 91h128q-1 -35 23 -57t72 -22q42 0 65.5 18t23.5 46q0 25 -25 36.5t-64 20.5q-41 10 -80 26t-64.5 42t-25.5 67q0 48 28.5 85.5t78.5 59t115 21.5q88 0 139 -42t49 -114h-123q-1 26 -22.5 42t-56.5 16q-36 0 -58.5 -15.5
t-22.5 -38.5q0 -22 26.5 -33.5t69.5 -21.5q47 -11 84.5 -27t60 -41.5t22.5 -66.5q0 -54 -31 -94t-84.5 -62t-120.5 -22zM260 536l16 90l247 122l-18 -104z" />
    <glyph glyph-name="Scedilla" unicode="&#x15e;" horiz-adv-x="604" 
d="M270 -12q-69 0 -122 21.5t-83 63t-30 99.5q0 10 1 19.5t2 19.5h136q-1 -11 -1 -20q0 -43 30.5 -69.5t82.5 -26.5q58 0 91 29.5t33 77.5q0 36 -25 57t-63.5 35t-80.5 29q-66 24 -101 66t-35 99q0 67 34.5 117.5t95 78.5t139.5 28q95 0 153 -46t58 -125q0 -7 -0.5 -15
t-1.5 -16h-137q1 9 1 17q0 31 -24 54t-70 23q-51 0 -80.5 -26.5t-29.5 -66.5q0 -31 20 -49.5t54 -32t75 -28.5q43 -15 78.5 -39.5t57 -59.5t21.5 -83q0 -70 -36 -122t-99 -80.5t-144 -28.5zM105 -265l13 74h111q61 0 61 40q0 31 -46 31h-62l22 125h80l-10 -57q46 1 79 -20
t33 -69q0 -38 -20 -65.5t-54 -43t-74 -15.5h-133z" />
    <glyph glyph-name="scedilla" unicode="&#x15f;" horiz-adv-x="536" 
d="M230 -12q-68 0 -115.5 23t-71.5 63t-20 91h128q-1 -35 23 -57t72 -22q42 0 65.5 18t23.5 46q0 25 -25 36.5t-64 20.5q-41 10 -80 26t-64.5 42t-25.5 67q0 48 28.5 85.5t78.5 59t115 21.5q88 0 139 -42t49 -114h-123q-1 26 -22.5 42t-56.5 16q-36 0 -58.5 -15.5
t-22.5 -38.5q0 -22 26.5 -33.5t69.5 -21.5q47 -11 84.5 -27t60 -41.5t22.5 -66.5q0 -54 -31 -94t-84.5 -62t-120.5 -22zM94 -265l13 74h111q61 0 61 40q0 31 -46 31h-62l22 125h80l-10 -57q46 1 79 -20t33 -69q0 -38 -20 -65.5t-54 -43t-74 -15.5h-133z" />
    <glyph glyph-name="Scaron" unicode="&#x160;" horiz-adv-x="604" 
d="M270 -12q-69 0 -122 21.5t-83 63t-30 99.5q0 10 1 19.5t2 19.5h136q-1 -11 -1 -20q0 -43 30.5 -69.5t82.5 -26.5q58 0 91 29.5t33 77.5q0 36 -25 57t-63.5 35t-80.5 29q-66 24 -101 66t-35 99q0 67 34.5 117.5t95 78.5t139.5 28q95 0 153 -46t58 -125q0 -7 -0.5 -15
t-1.5 -16h-137q1 9 1 17q0 31 -24 54t-70 23q-51 0 -80.5 -26.5t-29.5 -66.5q0 -31 20 -49.5t54 -32t75 -28.5q43 -15 78.5 -39.5t57 -59.5t21.5 -83q0 -70 -36 -122t-99 -80.5t-144 -28.5zM383 746l-131 83l16 89l129 -84l163 87l-16 -92z" />
    <glyph glyph-name="scaron" unicode="&#x161;" horiz-adv-x="536" 
d="M230 -12q-68 0 -115.5 23t-71.5 63t-20 91h128q-1 -35 23 -57t72 -22q42 0 65.5 18t23.5 46q0 25 -25 36.5t-64 20.5q-41 10 -80 26t-64.5 42t-25.5 67q0 48 28.5 85.5t78.5 59t115 21.5q88 0 139 -42t49 -114h-123q-1 26 -22.5 42t-56.5 16q-36 0 -58.5 -15.5
t-22.5 -38.5q0 -22 26.5 -33.5t69.5 -21.5q47 -11 84.5 -27t60 -41.5t22.5 -66.5q0 -54 -31 -94t-84.5 -62t-120.5 -22zM310 542l-131 83l16 89l129 -84l163 87l-16 -92z" />
    <glyph glyph-name="uni0162" unicode="&#x162;" horiz-adv-x="591" 
d="M188 0l105 599h-204l18 101h537l-17 -101h-206l-105 -599h-128zM116 -265l13 74h112q61 0 61 40q0 31 -47 31h-62l22 125h81l-11 -57q46 1 79.5 -20t33.5 -69q0 -38 -20.5 -65.5t-54 -43t-74.5 -15.5h-133z" />
    <glyph glyph-name="uni0163" unicode="&#x163;" horiz-adv-x="412" 
d="M234 0h-8l-9 -52q46 1 79 -19.5t33 -64.5q0 -11 -2 -21q-9 -55 -52.5 -81.5t-95.5 -26.5h-131l13 74h111q61 0 61 43q0 28 -47 28h-61l24 135q-31 13 -47.5 39.5t-16.5 70.5q0 22 5 49l38 215h-80l19 107h80l38 133h114l-24 -133h135l-20 -107h-133l-39 -216
q-2 -10 -2 -20q0 -24 13.5 -34t44.5 -10h68l-20 -109h-88z" />
    <glyph glyph-name="Tcaron" unicode="&#x164;" horiz-adv-x="591" 
d="M188 0l105 599h-204l18 101h537l-17 -101h-206l-105 -599h-128zM382 746l-131 83l16 89l129 -84l163 87l-16 -92z" />
    <glyph glyph-name="tcaron" unicode="&#x165;" horiz-adv-x="412" 
d="M354 596l10 53q51 0 56 37l3 18h-56l19 103h110q3 -28 2.5 -50t-3.5 -46q-20 -115 -141 -115zM234 0q-68 0 -108.5 28t-40.5 97q0 22 5 49l38 215h-80l19 107h80l38 133h114l-24 -133h135l-20 -107h-133l-39 -216q-2 -10 -2 -20q0 -24 13.5 -34t44.5 -10h68l-20 -109h-88
z" />
    <glyph glyph-name="Utilde" unicode="&#x168;" horiz-adv-x="686" 
d="M289 -12q-66 0 -118.5 23t-82.5 70.5t-30 119.5q0 31 6 67l76 432h128l-76 -432q-3 -12 -4 -23.5t-1 -21.5q0 -59 33 -88t92 -29q69 0 116 40t61 122l77 432h128l-76 -432q-17 -96 -65.5 -158t-117 -92t-146.5 -30zM255 755q22 65 58 95t81 30q29 0 46.5 -11.5t32.5 -23
t36 -11.5q17 0 30.5 11t20.5 34h69q-20 -64 -57 -94t-82 -30q-29 0 -47 11t-33 22.5t-35 11.5q-37 0 -51 -45h-69z" />
    <glyph glyph-name="utilde" unicode="&#x169;" horiz-adv-x="609" 
d="M207 -12q-78 0 -120 42.5t-42 122.5q0 28 6 63l50 280h127l-47 -268q-2 -12 -3 -22.5t-1 -19.5q0 -90 88 -90q54 0 95 37.5t53 102.5l45 260h128l-87 -496h-113l4 82q-31 -43 -78 -68.5t-105 -25.5zM182 551q22 65 58 95t81 30q29 0 46.5 -11.5t32.5 -23t36 -11.5
q17 0 30.5 11t20.5 34h69q-20 -64 -57 -94t-82 -30q-29 0 -47 11t-33 22.5t-35 11.5q-37 0 -51 -45h-69z" />
    <glyph glyph-name="Umacron" unicode="&#x16a;" horiz-adv-x="686" 
d="M289 -12q-66 0 -118.5 23t-82.5 70.5t-30 119.5q0 31 6 67l76 432h128l-76 -432q-3 -12 -4 -23.5t-1 -21.5q0 -59 33 -88t92 -29q69 0 116 40t61 122l77 432h128l-76 -432q-17 -96 -65.5 -158t-117 -92t-146.5 -30zM244 783l16 91h374l-15 -91h-375z" />
    <glyph glyph-name="umacron" unicode="&#x16b;" horiz-adv-x="609" 
d="M207 -12q-78 0 -120 42.5t-42 122.5q0 28 6 63l50 280h127l-47 -268q-2 -12 -3 -22.5t-1 -19.5q0 -90 88 -90q54 0 95 37.5t53 102.5l45 260h128l-87 -496h-113l4 82q-31 -43 -78 -68.5t-105 -25.5zM170 579l16 91h374l-15 -91h-375z" />
    <glyph glyph-name="Ubreve" unicode="&#x16c;" horiz-adv-x="686" 
d="M289 -12q-66 0 -118.5 23t-82.5 70.5t-30 119.5q0 31 6 67l76 432h128l-76 -432q-3 -12 -4 -23.5t-1 -21.5q0 -59 33 -88t92 -29q69 0 116 40t61 122l77 432h128l-76 -432q-17 -96 -65.5 -158t-117 -92t-146.5 -30zM426 755q-71 0 -106 41t-22 110l3 17h68
q-7 -35 9.5 -54t64.5 -19t71 19t30 54h68l-3 -17q-13 -70 -61.5 -110.5t-121.5 -40.5z" />
    <glyph glyph-name="ubreve" unicode="&#x16d;" horiz-adv-x="609" 
d="M207 -12q-78 0 -120 42.5t-42 122.5q0 28 6 63l50 280h127l-47 -268q-2 -12 -3 -22.5t-1 -19.5q0 -90 88 -90q54 0 95 37.5t53 102.5l45 260h128l-87 -496h-113l4 82q-31 -43 -78 -68.5t-105 -25.5zM353 551q-71 0 -106 41t-22 110l3 17h68q-7 -35 9.5 -54t64.5 -19
t71 19t30 54h68l-3 -17q-13 -70 -61.5 -110.5t-121.5 -40.5z" />
    <glyph glyph-name="Uring" unicode="&#x16e;" horiz-adv-x="686" 
d="M289 -12q-66 0 -118.5 23t-82.5 70.5t-30 119.5q0 31 6 67l76 432h128l-76 -432q-3 -12 -4 -23.5t-1 -21.5q0 -59 33 -88t92 -29q69 0 116 40t61 122l77 432h128l-76 -432q-17 -96 -65.5 -158t-117 -92t-146.5 -30zM445 751q-46 0 -79.5 30t-33.5 82t33.5 82t79.5 30
q48 0 81 -30t33 -82t-33 -82t-81 -30zM445 809q22 0 37.5 15t15.5 39q0 25 -15.5 39.5t-37.5 14.5q-21 0 -36.5 -14.5t-15.5 -39.5q0 -24 15.5 -39t36.5 -15z" />
    <glyph glyph-name="uring" unicode="&#x16f;" horiz-adv-x="609" 
d="M207 -12q-78 0 -120 42.5t-42 122.5q0 28 6 63l50 280h127l-47 -268q-2 -12 -3 -22.5t-1 -19.5q0 -90 88 -90q54 0 95 37.5t53 102.5l45 260h128l-87 -496h-113l4 82q-31 -43 -78 -68.5t-105 -25.5zM372 547q-46 0 -79.5 30t-33.5 82t33.5 82t79.5 30q48 0 81 -30t33 -82
t-33 -82t-81 -30zM372 605q22 0 37.5 15t15.5 39q0 25 -15.5 39.5t-37.5 14.5q-21 0 -36.5 -14.5t-15.5 -39.5q0 -24 15.5 -39t36.5 -15z" />
    <glyph glyph-name="Uhungarumlaut" unicode="&#x170;" horiz-adv-x="686" 
d="M289 -12q-66 0 -118.5 23t-82.5 70.5t-30 119.5q0 31 6 67l76 432h128l-76 -432q-3 -12 -4 -23.5t-1 -21.5q0 -59 33 -88t92 -29q69 0 116 40t61 122l77 432h128l-76 -432q-17 -96 -65.5 -158t-117 -92t-146.5 -30zM459 748l118 179h105l-142 -179h-81zM289 748l102 179
h105l-126 -179h-81z" />
    <glyph glyph-name="uhungarumlaut" unicode="&#x171;" horiz-adv-x="609" 
d="M207 -12q-78 0 -120 42.5t-42 122.5q0 28 6 63l50 280h127l-47 -268q-2 -12 -3 -22.5t-1 -19.5q0 -90 88 -90q54 0 95 37.5t53 102.5l45 260h128l-87 -496h-113l4 82q-31 -43 -78 -68.5t-105 -25.5zM386 544l118 179h105l-142 -179h-81zM216 544l102 179h105l-126 -179
h-81z" />
    <glyph glyph-name="Uogonek" unicode="&#x172;" horiz-adv-x="686" 
d="M289 -12q-66 0 -118.5 23t-82.5 70.5t-30 119.5q0 31 6 67l76 432h128l-76 -432q-3 -12 -4 -23.5t-1 -21.5q0 -59 33 -88t92 -29q69 0 116 40t61 122l77 432h128l-76 -432q-17 -96 -65.5 -158t-117 -92t-146.5 -30zM251 -209q-54 0 -89 25t-26 79q8 40 44 76t122 70
l49 20l19 -60l-56 -26q-40 -18 -57.5 -34t-20.5 -34q-4 -19 8.5 -30t35.5 -11q32 0 74 15l-13 -76q-21 -6 -44 -10t-46 -4z" />
    <glyph glyph-name="uogonek" unicode="&#x173;" horiz-adv-x="609" 
d="M207 -12q-78 0 -120 42.5t-42 122.5q0 28 6 63l50 280h127l-47 -268q-2 -12 -3 -22.5t-1 -19.5q0 -90 88 -90q54 0 95 37.5t53 102.5l45 260h128l-87 -496h-113l4 82q-31 -43 -78 -68.5t-105 -25.5zM381 -210q-54 0 -89 25t-25 79q7 40 43 76t122 70l50 20l18 -60
l-56 -26q-40 -18 -57 -34t-21 -34q-3 -19 9 -30t36 -11q31 0 73 15l-13 -76q-20 -6 -43.5 -10t-46.5 -4z" />
    <glyph glyph-name="Wcircumflex" unicode="&#x174;" horiz-adv-x="1011" 
d="M160 0l-61 700h137l28 -552l245 552h143l45 -551l223 551h139l-314 -700h-152l-47 518l-235 -518h-151zM447 747l16 92l162 83l131 -83l-17 -92l-130 85z" />
    <glyph glyph-name="wcircumflex" unicode="&#x175;" horiz-adv-x="804" 
d="M120 0l-58 496h126l24 -357l163 357h142l37 -358l150 358h126l-232 -496h-133l-41 371l-171 -371h-133zM308 543l16 92l162 83l131 -83l-17 -92l-130 85z" />
    <glyph glyph-name="Ycircumflex" unicode="&#x176;" horiz-adv-x="625" 
d="M199 0l44 249l-157 451h146l98 -322l211 322h144l-314 -451l-44 -249h-128zM248 747l16 92l162 83l131 -83l-17 -92l-130 85z" />
    <glyph glyph-name="ycircumflex" unicode="&#x177;" horiz-adv-x="592" 
d="M43 -220l159 253h-30l-111 463h137l80 -349l206 349h136l-442 -716h-135zM206 543l16 92l162 83l131 -83l-17 -92l-130 85z" />
    <glyph glyph-name="Ydieresis" unicode="&#x178;" horiz-adv-x="625" 
d="M199 0l44 249l-157 451h146l98 -322l211 322h144l-314 -451l-44 -249h-128zM500 768q-26 0 -44 18t-18 44t18 44t44 18t43.5 -18t17.5 -44t-17.5 -44t-43.5 -18zM319 768q-26 0 -43.5 18t-17.5 44t17.5 44t43.5 18t44 -18t18 -44t-18 -44t-44 -18z" />
    <glyph glyph-name="Zacute" unicode="&#x179;" horiz-adv-x="566" 
d="M-4 0l18 98l409 495h-319l19 107h467l-17 -98l-411 -495h325l-19 -107h-472zM313 740l16 90l247 122l-18 -104z" />
    <glyph glyph-name="zacute" unicode="&#x17a;" horiz-adv-x="481" 
d="M-14 0l19 103l313 287h-250l19 106h396l-19 -103l-315 -287h261l-20 -106h-404zM241 536l16 90l247 122l-18 -104z" />
    <glyph glyph-name="Zdotaccent" unicode="&#x17b;" horiz-adv-x="566" 
d="M-4 0l18 98l409 495h-319l19 107h467l-17 -98l-411 -495h325l-19 -107h-472zM378 764q-25 0 -43 18t-18 44t18 44t43 18q26 0 44 -18t18 -44t-18 -44t-44 -18z" />
    <glyph glyph-name="zdotaccent" unicode="&#x17c;" horiz-adv-x="481" 
d="M-14 0l19 103l313 287h-250l19 106h396l-19 -103l-315 -287h261l-20 -106h-404zM306 560q-25 0 -43 18t-18 44t18 44t43 18q26 0 44 -18t18 -44t-18 -44t-44 -18z" />
    <glyph glyph-name="Zcaron" unicode="&#x17d;" horiz-adv-x="566" 
d="M-4 0l18 98l409 495h-319l19 107h467l-17 -98l-411 -495h325l-19 -107h-472zM364 746l-131 83l16 89l129 -84l163 87l-16 -92z" />
    <glyph glyph-name="zcaron" unicode="&#x17e;" horiz-adv-x="481" 
d="M-14 0l19 103l313 287h-250l19 106h396l-19 -103l-315 -287h261l-20 -106h-404zM292 542l-131 83l16 89l129 -84l163 87l-16 -92z" />
    <glyph glyph-name="uni018F" unicode="&#x18f;" horiz-adv-x="767" 
d="M333 -12q-82 0 -145.5 33.5t-99 95t-35.5 144.5q0 63 20 127h537v2q2 16 2 34q0 79 -46 125.5t-125 46.5q-67 0 -123 -32.5t-85 -89.5h-140q31 72 85.5 125.5t126 83t154.5 29.5q86 0 151 -36t100.5 -99t35.5 -144q0 -92 -30 -172.5t-85 -142t-130.5 -96t-167.5 -34.5z
M350 105q58 0 108.5 23.5t86.5 66.5t50 101h-409q-3 -18 -3 -38q0 -73 45.5 -113t121.5 -40z" />
    <glyph glyph-name="florin" unicode="&#x192;" horiz-adv-x="334" 
d="M-145 -229l30 108h25q23 0 37 12t22 41l146 515h-63l30 106h63l9 35q29 97 95 141.5t178 44.5l-29 -108q-49 0 -76.5 -18t-39.5 -60l-9 -35h100l-29 -106h-101l-145 -515q-26 -90 -81.5 -125.5t-134.5 -35.5h-27z" />
    <glyph glyph-name="AEacute" unicode="&#x1fc;" horiz-adv-x="945" 
d="M-21 0l503 700h483l-18 -101h-271l-35 -194h242l-17 -99h-241l-36 -205h270l-18 -101h-399l25 138h-249l-100 -138h-139zM549 602l-261 -365h196zM621 740l16 90l247 122l-18 -104z" />
    <glyph glyph-name="aeacute" unicode="&#x1fd;" horiz-adv-x="947" 
d="M200 -12q-84 0 -129.5 35t-45.5 93q0 54 30.5 93.5t85 61.5t126.5 22h140q3 12 3.5 21t0.5 15q0 38 -23.5 56.5t-60.5 18.5q-40 0 -72.5 -18.5t-45.5 -54.5h-125q15 54 53.5 94t92.5 61.5t115 21.5q120 0 167 -70q39 33 88 51.5t105 18.5q65 0 112 -25.5t72 -70
t25 -101.5q0 -16 -3 -36t-6.5 -36.5t-4.5 -21.5h-377q-1 -8 -1 -15q-1 -51 29 -80t79 -29q44 0 76.5 22t50.5 55h127q-22 -52 -62 -93t-93.5 -65t-115.5 -24q-66 0 -114.5 27.5t-73.5 75.5q-39 -47 -98 -75t-127 -28zM540 297h246q1 8 1 11q1 44 -26.5 70t-73.5 26
q-47 0 -87.5 -27t-59.5 -80zM234 88q52 0 92 33t58 80l2 12h-119q-46 0 -74.5 -19t-28.5 -54q0 -25 19 -38.5t51 -13.5zM489 536l16 90l247 122l-18 -104z" />
    <glyph glyph-name="uni0218" unicode="&#x218;" horiz-adv-x="604" 
d="M270 -12q-69 0 -122 21.5t-83 63t-30 99.5q0 10 1 19.5t2 19.5h136q-1 -11 -1 -20q0 -43 30.5 -69.5t82.5 -26.5q58 0 91 29.5t33 77.5q0 36 -25 57t-63.5 35t-80.5 29q-66 24 -101 66t-35 99q0 67 34.5 117.5t95 78.5t139.5 28q95 0 153 -46t58 -125q0 -7 -0.5 -15
t-1.5 -16h-137q1 9 1 17q0 31 -24 54t-70 23q-51 0 -80.5 -26.5t-29.5 -66.5q0 -31 20 -49.5t54 -32t75 -28.5q43 -15 78.5 -39.5t57 -59.5t21.5 -83q0 -70 -36 -122t-99 -80.5t-144 -28.5zM162 -274l10 52q50 0 60 62l2 15h-54l18 100h108q4 -26 3.5 -50.5t-4.5 -45.5
q-11 -64 -47 -98.5t-96 -34.5z" />
    <glyph glyph-name="uni0219" unicode="&#x219;" horiz-adv-x="536" 
d="M230 -12q-68 0 -115.5 23t-71.5 63t-20 91h128q-1 -35 23 -57t72 -22q42 0 65.5 18t23.5 46q0 25 -25 36.5t-64 20.5q-41 10 -80 26t-64.5 42t-25.5 67q0 48 28.5 85.5t78.5 59t115 21.5q88 0 139 -42t49 -114h-123q-1 26 -22.5 42t-56.5 16q-36 0 -58.5 -15.5
t-22.5 -38.5q0 -22 26.5 -33.5t69.5 -21.5q47 -11 84.5 -27t60 -41.5t22.5 -66.5q0 -54 -31 -94t-84.5 -62t-120.5 -22zM122 -274l10 52q49 0 60 62l3 15h-55l18 100h108q4 -26 3.5 -50.5t-4.5 -45.5q-11 -64 -47.5 -98.5t-95.5 -34.5z" />
    <glyph glyph-name="uni021A" unicode="&#x21a;" horiz-adv-x="591" 
d="M188 0l105 599h-204l18 101h537l-17 -101h-206l-105 -599h-128zM142 -274l10 52q49 0 59 62l3 15h-54l18 100h108q3 -26 2 -50.5t-4 -45.5q-11 -64 -47 -98.5t-95 -34.5z" />
    <glyph glyph-name="uni021B" unicode="&#x21b;" horiz-adv-x="412" 
d="M234 0q-68 0 -108.5 28t-40.5 97q0 22 5 49l38 215h-80l19 107h80l38 133h114l-24 -133h135l-20 -107h-133l-39 -216q-2 -10 -2 -20q0 -24 13.5 -34t44.5 -10h68l-20 -109h-88zM87 -274l10 52q52 0 60 62l2 15h-54l18 100h109q3 -26 2.5 -50.5t-4.5 -45.5
q-10 -64 -46.5 -98.5t-96.5 -34.5z" />
    <glyph glyph-name="uni0259" unicode="&#x259;" horiz-adv-x="596" 
d="M244 -12q-65 0 -112 25.5t-72.5 70t-25.5 101.5q0 24 4.5 49.5t10.5 44.5h376q1 8 1 17q0 50 -30 78.5t-78 28.5q-39 0 -68.5 -17.5t-47.5 -45.5h-130q23 48 62.5 86t91 60t109.5 22q100 0 158.5 -57t58.5 -154q0 -63 -22 -119t-63 -98.5t-97.5 -67t-125.5 -24.5zM261 92
q47 0 87.5 26.5t60.5 80.5h-247q-1 -8 -1 -11q-1 -44 26.5 -70t73.5 -26z" />
    <glyph glyph-name="circumflex" unicode="&#x2c6;" horiz-adv-x="324" 
d="M68 543l16 92l161 83l132 -83l-17 -92l-130 85z" />
    <glyph glyph-name="caron" unicode="&#x2c7;" horiz-adv-x="324" 
d="M214 542l-131 83l16 89l129 -84l163 87l-16 -92z" />
    <glyph glyph-name="breve" unicode="&#x2d8;" horiz-adv-x="343" 
d="M224 551q-71 0 -106 41t-22 110l3 17h68q-7 -35 9.5 -54t64.5 -19t71 19t30 54h68l-3 -17q-13 -70 -62 -110.5t-121 -40.5z" />
    <glyph glyph-name="dotaccent" unicode="&#x2d9;" horiz-adv-x="161" 
d="M146 560q-26 0 -43.5 18t-17.5 44t17.5 44t43.5 18t44 -18t18 -44t-18 -44t-44 -18z" />
    <glyph glyph-name="ring" unicode="&#x2da;" horiz-adv-x="262" 
d="M203 547q-46 0 -79.5 30t-33.5 82t33.5 82t79.5 30q48 0 81 -30t33 -82t-33 -82t-81 -30zM203 605q22 0 37.5 15t15.5 39q0 25 -15.5 39.5t-37.5 14.5q-21 0 -36.5 -14.5t-15.5 -39.5q0 -24 15.5 -39t36.5 -15z" />
    <glyph glyph-name="ogonek" unicode="&#x2db;" horiz-adv-x="261" 
d="M66 -210q-54 0 -89 25t-26 79q8 40 44 76t122 70l49 20l19 -60l-56 -26q-40 -18 -57.5 -34t-20.5 -34q-4 -19 8.5 -30t35.5 -11q32 0 74 15l-13 -76q-21 -6 -44 -10t-46 -4z" />
    <glyph glyph-name="tilde" unicode="&#x2dc;" horiz-adv-x="378" 
d="M67 551q21 65 57 95t81 30q29 0 46.5 -11.5t32.5 -23t36 -11.5q17 0 31 11t20 34h69q-20 -64 -57 -94t-82 -30q-29 0 -47 11t-33 22.5t-35 11.5q-36 0 -51 -45h-68z" />
    <glyph glyph-name="hungarumlaut" unicode="&#x2dd;" horiz-adv-x="393" 
d="M241 544l119 179h104l-141 -179h-82zM71 544l103 179h104l-125 -179h-82z" />
    <glyph glyph-name="gravecomb" unicode="&#x300;" 
d="M276 536l-206 108l18 104l205 -122z" />
    <glyph glyph-name="acutecomb" unicode="&#x301;" 
d="M51 536l16 90l247 122l-18 -104z" />
    <glyph glyph-name="uni0302" unicode="&#x302;" 
d="M52 543l16 92l162 83l131 -83l-17 -92l-130 85z" />
    <glyph glyph-name="tildecomb" unicode="&#x303;" 
d="M53 551q22 65 58 95t81 30q29 0 46.5 -11.5t32.5 -23t36 -11.5q17 0 30.5 11t20.5 34h69q-20 -64 -57 -94t-82 -30q-29 0 -47 11t-33 22.5t-35 11.5q-37 0 -51 -45h-69z" />
    <glyph glyph-name="uni0304" unicode="&#x304;" 
d="M58 579l16 91h374l-15 -91h-375z" />
    <glyph glyph-name="uni0306" unicode="&#x306;" 
d="M208 551q-71 0 -106 41t-22 110l3 17h68q-7 -35 9.5 -54t64.5 -19t71 19t30 54h68l-3 -17q-13 -70 -61.5 -110.5t-121.5 -40.5z" />
    <glyph glyph-name="uni0307" unicode="&#x307;" 
d="M128 560q-25 0 -43 18t-18 44t18 44t43 18q26 0 44 -18t18 -44t-18 -44t-44 -18z" />
    <glyph glyph-name="uni0308" unicode="&#x308;" 
d="M310 564q-26 0 -44 18t-18 44t18 44t44 18t43.5 -18t17.5 -44t-17.5 -44t-43.5 -18zM129 564q-26 0 -43.5 18t-17.5 44t17.5 44t43.5 18t44 -18t18 -44t-18 -44t-44 -18z" />
    <glyph glyph-name="uni030A" unicode="&#x30a;" 
d="M188 547q-46 0 -79.5 30t-33.5 82t33.5 82t79.5 30q48 0 81 -30t33 -82t-33 -82t-81 -30zM188 605q22 0 37.5 15t15.5 39q0 25 -15.5 39.5t-37.5 14.5q-21 0 -36.5 -14.5t-15.5 -39.5q0 -24 15.5 -39t36.5 -15z" />
    <glyph glyph-name="uni030B" unicode="&#x30b;" 
d="M222 544l118 179h105l-142 -179h-81zM52 544l102 179h105l-126 -179h-81z" />
    <glyph glyph-name="uni030C" unicode="&#x30c;" 
d="M198 542l-131 83l16 89l129 -84l163 87l-16 -92z" />
    <glyph glyph-name="uni0327" unicode="&#x327;" 
d="M-90 -263l13 74h111q61 0 61 40q0 31 -46 31h-62l22 125h80l-10 -57q46 1 79 -20t33 -69q0 -38 -20 -65.5t-54 -43t-74 -15.5h-133z" />
    <glyph glyph-name="uni0328" unicode="&#x328;" 
d="M52 -210q-54 0 -89 25t-25 79q7 40 43 76t122 70l50 20l18 -60l-56 -26q-40 -18 -57 -34t-21 -34q-3 -19 9 -30t36 -11q31 0 73 15l-13 -76q-20 -6 -43.5 -10t-46.5 -4z" />
    <glyph glyph-name="pi" unicode="&#x3c0;" horiz-adv-x="647" 
d="M63 0l71 398h-75l18 98h581l-18 -98h-74l-71 -398h-128l71 398h-176l-71 -398h-128z" />
    <glyph glyph-name="Wgrave" unicode="&#x1e80;" horiz-adv-x="1011" 
d="M160 0l-61 700h137l28 -552l245 552h143l45 -551l223 551h139l-314 -700h-152l-47 518l-235 -518h-151zM629 740l-206 108l18 104l205 -122z" />
    <glyph glyph-name="wgrave" unicode="&#x1e81;" horiz-adv-x="804" 
d="M120 0l-58 496h126l24 -357l163 357h142l37 -358l150 358h126l-232 -496h-133l-41 371l-171 -371h-133zM489 536l-206 108l18 104l205 -122z" />
    <glyph glyph-name="Wacute" unicode="&#x1e82;" horiz-adv-x="1011" 
d="M160 0l-61 700h137l28 -552l245 552h143l45 -551l223 551h139l-314 -700h-152l-47 518l-235 -518h-151zM543 740l16 90l247 122l-18 -104z" />
    <glyph glyph-name="wacute" unicode="&#x1e83;" horiz-adv-x="804" 
d="M120 0l-58 496h126l24 -357l163 357h142l37 -358l150 358h126l-232 -496h-133l-41 371l-171 -371h-133zM403 536l16 90l247 122l-18 -104z" />
    <glyph glyph-name="Wdieresis" unicode="&#x1e84;" horiz-adv-x="1011" 
d="M160 0l-61 700h137l28 -552l245 552h143l45 -551l223 551h139l-314 -700h-152l-47 518l-235 -518h-151zM699 768q-26 0 -44 18t-18 44t18 44t44 18t43.5 -18t17.5 -44t-17.5 -44t-43.5 -18zM518 768q-26 0 -43.5 18t-17.5 44t17.5 44t43.5 18t44 -18t18 -44t-18 -44
t-44 -18z" />
    <glyph glyph-name="wdieresis" unicode="&#x1e85;" horiz-adv-x="804" 
d="M120 0l-58 496h126l24 -357l163 357h142l37 -358l150 358h126l-232 -496h-133l-41 371l-171 -371h-133zM560 564q-26 0 -44 18t-18 44t18 44t44 18t43.5 -18t17.5 -44t-17.5 -44t-43.5 -18zM379 564q-26 0 -43.5 18t-17.5 44t17.5 44t43.5 18t44 -18t18 -44t-18 -44
t-44 -18z" />
    <glyph glyph-name="uni1EBC" unicode="&#x1ebc;" horiz-adv-x="560" 
d="M24 0l124 700h433l-19 -101h-304l-34 -195h274l-17 -98h-274l-37 -205h305l-18 -101h-433zM209 755q22 65 58 95t81 30q29 0 46.5 -11.5t32.5 -23t36 -11.5q17 0 30.5 11t20.5 34h69q-20 -64 -57 -94t-82 -30q-29 0 -47 11t-33 22.5t-35 11.5q-37 0 -51 -45h-69z" />
    <glyph glyph-name="uni1EBD" unicode="&#x1ebd;" horiz-adv-x="596" 
d="M260 -12q-99 0 -157.5 57t-58.5 154q0 63 22 119t63 98.5t97.5 67t124.5 24.5q66 0 113 -25.5t72.5 -70t25.5 -101.5q0 -24 -4.5 -49.5t-10.5 -44.5h-377v-17q0 -50 30 -78.5t78 -28.5q38 0 67.5 17.5t48.5 45.5h130q-23 -48 -62.5 -86t-91 -60t-110.5 -22zM334 404
q-46 0 -87 -26.5t-60 -80.5h247q1 8 1 11q1 44 -27 70t-74 26zM184 551q21 65 57 95t81 30q29 0 46.5 -11.5t32.5 -23t36 -11.5q17 0 31 11t20 34h69q-20 -64 -57 -94t-82 -30q-29 0 -47 11t-33 22.5t-35 11.5q-36 0 -51 -45h-68z" />
    <glyph glyph-name="Ygrave" unicode="&#x1ef2;" horiz-adv-x="625" 
d="M199 0l44 249l-157 451h146l98 -322l211 322h144l-314 -451l-44 -249h-128zM430 740l-206 108l18 104l205 -122z" />
    <glyph glyph-name="ygrave" unicode="&#x1ef3;" horiz-adv-x="592" 
d="M43 -220l159 253h-30l-111 463h137l80 -349l206 349h136l-442 -716h-135zM387 536l-206 108l18 104l205 -122z" />
    <glyph glyph-name="uni1EF8" unicode="&#x1ef8;" horiz-adv-x="625" 
d="M199 0l44 249l-157 451h146l98 -322l211 322h144l-314 -451l-44 -249h-128zM225 755q22 65 58 95t81 30q29 0 46.5 -11.5t32.5 -23t36 -11.5q17 0 30.5 11t20.5 34h69q-20 -64 -57 -94t-82 -30q-29 0 -47 11t-33 22.5t-35 11.5q-37 0 -51 -45h-69z" />
    <glyph glyph-name="uni1EF9" unicode="&#x1ef9;" horiz-adv-x="592" 
d="M43 -220l159 253h-30l-111 463h137l80 -349l206 349h136l-442 -716h-135zM183 551q22 65 58 95t81 30q29 0 46.5 -11.5t32.5 -23t36 -11.5q17 0 30.5 11t20.5 34h69q-20 -64 -57 -94t-82 -30q-29 0 -47 11t-33 22.5t-35 11.5q-37 0 -51 -45h-69z" />
    <glyph glyph-name="endash" unicode="&#x2013;" horiz-adv-x="649" 
d="M53 236l18 107h540l-19 -107h-539z" />
    <glyph glyph-name="emdash" unicode="&#x2014;" horiz-adv-x="869" 
d="M53 236l18 107h760l-19 -107h-759z" />
    <glyph glyph-name="quoteleft" unicode="&#x2018;" horiz-adv-x="264" 
d="M67 454l145 246h87l-97 -246h-135z" />
    <glyph glyph-name="quoteright" unicode="&#x2019;" horiz-adv-x="264" 
d="M81 454l98 246h135l-145 -246h-88z" />
    <glyph glyph-name="quotesinglbase" unicode="&#x201a;" horiz-adv-x="240" 
d="M-51 -113l98 246h135l-146 -246h-87z" />
    <glyph glyph-name="quotedblleft" unicode="&#x201c;" horiz-adv-x="461" 
d="M264 454l145 246h87l-97 -246h-135zM67 454l145 246h87l-97 -246h-135z" />
    <glyph glyph-name="quotedblright" unicode="&#x201d;" horiz-adv-x="461" 
d="M278 454l97 246h135l-145 -246h-87zM81 454l97 246h135l-145 -246h-87z" />
    <glyph glyph-name="quotedblbase" unicode="&#x201e;" horiz-adv-x="440" 
d="M148 -113l99 246h134l-145 -246h-88zM-51 -113l98 246h135l-146 -246h-87z" />
    <glyph glyph-name="dagger" unicode="&#x2020;" horiz-adv-x="593" 
d="M136 -263l141 727l-201 -10l17 99l198 -11l29 243h129l-56 -243l202 11l-18 -99l-198 10l-115 -727h-128z" />
    <glyph glyph-name="daggerdbl" unicode="&#x2021;" horiz-adv-x="594" 
d="M136 -263l56 243l-202 -11l18 99l197 -10l72 406l-201 -10l17 99l198 -11l29 243h128l-55 -243l202 11l-18 -99l-198 10l-72 -406l203 10l-18 -99l-198 11l-31 -243h-127z" />
    <glyph glyph-name="bullet" unicode="&#x2022;" horiz-adv-x="387" 
d="M208 198q-38 0 -68.5 18t-48.5 48.5t-18 68.5t18 69t48.5 49t68.5 18t69 -18t49 -49t18 -69t-18 -68.5t-49 -48.5t-69 -18z" />
    <glyph glyph-name="ellipsis" unicode="&#x2026;" horiz-adv-x="668" 
d="M303 -7q-36 0 -58 22t-22 53q0 32 22 54t58 22q35 0 57 -22t22 -54q0 -31 -22 -53t-57 -22zM516 -7q-36 0 -58 22t-22 53q0 32 22 54t58 22q35 0 57 -22t22 -54q0 -31 -22 -53t-57 -22zM90 -7q-36 0 -58 22t-22 53q0 32 22 54t58 22q35 0 57 -22t22 -54q0 -31 -22 -53
t-57 -22z" />
    <glyph glyph-name="perthousand" unicode="&#x2030;" horiz-adv-x="1255" 
d="M238 356q-65 0 -107.5 39.5t-42.5 105.5q0 59 27 106.5t73 76t103 28.5q63 0 105.5 -39t42.5 -106q0 -59 -27 -107t-72.5 -76t-101.5 -28zM132 0l518 700h125l-519 -700h-124zM248 444q37 0 63.5 33t26.5 81q0 33 -16.5 50t-42.5 17q-37 0 -63.5 -33.5t-26.5 -80.5
q0 -33 16.5 -50t42.5 -17zM620 -12q-63 0 -106 39t-43 106q0 59 27 106.5t73 75.5t103 28q64 0 106 -38.5t42 -105.5q0 -59 -26.5 -106.5t-72 -76t-103.5 -28.5zM1001 -12q-64 0 -106.5 39t-42.5 106q0 59 27 106.5t72.5 75.5t103.5 28q63 0 105.5 -38.5t42.5 -105.5
q0 -59 -26.5 -106.5t-72.5 -76t-103 -28.5zM631 76q38 0 64 33.5t26 79.5q0 34 -16.5 51t-42.5 17q-37 0 -63 -33.5t-26 -81.5q0 -33 16.5 -49.5t41.5 -16.5zM1012 76q37 0 63 33.5t26 79.5q0 34 -16 51t-42 17q-37 0 -63 -33.5t-26 -81.5q0 -33 16 -49.5t42 -16.5z" />
    <glyph glyph-name="guilsinglleft" unicode="&#x2039;" horiz-adv-x="304" 
d="M107 120l-59 175l121 175h121l-124 -175l63 -175h-122z" />
    <glyph glyph-name="guilsinglright" unicode="&#x203a;" horiz-adv-x="303" 
d="M29 120l125 175l-63 175h121l59 -175l-121 -175h-121z" />
    <glyph glyph-name="fraction" unicode="&#x2044;" horiz-adv-x="501" 
d="M-57 0l518 700h125l-518 -700h-125z" />
    <glyph glyph-name="uni2074" unicode="&#x2074;" horiz-adv-x="346" 
d="M211 352l11 62h-166l11 65l194 221h106l-38 -219h38l-12 -67h-38l-11 -62h-95zM161 481h79l20 115z" />
    <glyph glyph-name="uni20A8" unicode="&#x20a8;" horiz-adv-x="1141" 
d="M19 0l124 701h254q84 0 134.5 -28.5t69 -77t7.5 -107.5q-12 -72 -63.5 -128t-144.5 -74l130 -286h-148l-120 278h-66l-49 -278h-128zM213 372h120q66 0 100.5 30t43.5 81q10 52 -14.5 82.5t-89.5 30.5h-121zM816 -8q-101 0 -156.5 47t-49.5 135h128q-3 -39 22.5 -61.5
t72.5 -22.5q45 0 71 19t31 49q5 26 -10.5 41t-43 24t-61.5 16t-67 16.5t-59.5 25.5t-39.5 44t-5 71q7 45 39 82.5t84 60t121 22.5q100 0 150 -50t45 -132h-128q2 38 -20.5 61t-68.5 23q-44 0 -71 -19t-32 -48q-5 -26 10.5 -40.5t43.5 -23.5t61.5 -16t67 -16.5t60 -26.5
t39.5 -45t5 -73q-9 -47 -41 -84t-83 -58t-115 -21z" />
    <glyph glyph-name="Euro" unicode="&#x20ac;" horiz-adv-x="784" 
d="M13 237l13 76h78q3 38 12 74h-76l12 76h89q32 75 87 131t127.5 87t155.5 31q126 0 196.5 -62.5t71.5 -175.5h-143q-1 58 -38 90t-106 32t-124.5 -36t-89.5 -97h206l-12 -76h-225q-9 -36 -12 -74h223l-13 -76h-207q11 -64 54.5 -99t114.5 -35q69 0 115.5 30t69.5 85h142
q-40 -109 -132 -169.5t-216 -60.5q-127 0 -200.5 68.5t-82.5 180.5h-90z" />
    <glyph glyph-name="uni20BD" unicode="&#x20bd;" horiz-adv-x="645" 
d="M69 0l18 104h-90l18 99h90l14 80h-90l17 100h91l56 317h249q110 0 163 -50t53 -131q0 -70 -38 -123.5t-103.5 -83t-148.5 -29.5h-121l-14 -80h189l-18 -99h-189l-18 -104h-128zM420 602h-117l-38 -219h116q70 0 107 36t37 93q0 42 -25.5 66t-79.5 24z" />
    <glyph glyph-name="uni2113" unicode="&#x2113;" horiz-adv-x="266" 
d="M7 -100l146 820h128l-146 -820h-128z" />
    <glyph glyph-name="trademark" unicode="&#x2122;" horiz-adv-x="828" 
d="M358 349l62 351h126l50 -239l141 239h118l-62 -351h-88l39 230l-139 -230h-66l-54 238l-42 -238h-85zM124 349l50 275h-87l14 76h267l-14 -76h-86l-49 -275h-95z" />
    <glyph glyph-name="uni2126" unicode="&#x2126;" horiz-adv-x="788" 
d="M-3 0l18 98h120q-43 38 -66 96.5t-23 116.5q0 87 32.5 160t91 127t135 84t164.5 30t155.5 -35t106.5 -99t39 -150q0 -103 -47.5 -190.5t-132.5 -139.5h118l-18 -98h-273l19 102q62 26 107 73t69 107t24 125q0 88 -51 138t-137 50q-82 0 -143.5 -39t-95.5 -105t-34 -146
q0 -70 31 -124.5t83 -78.5l-19 -102h-273z" />
    <glyph glyph-name="estimated" unicode="&#x212e;" horiz-adv-x="755" 
d="M335 -7q-87 0 -152.5 31t-102.5 90t-37 144q0 18 1.5 36.5t5.5 38.5q18 105 72 189.5t137.5 134t191.5 49.5q95 0 158.5 -36.5t95 -97.5t31.5 -133q0 -14 -1 -29t-4 -31l-12 -62h-511l-31 -171q30 -37 71.5 -56t100.5 -19q74 0 139 31.5t131 88.5l39 -56
q-74 -67 -155 -104.5t-168 -37.5zM221 392h346l30 172q-50 65 -159 65q-112 0 -189 -74z" />
    <glyph glyph-name="partialdiff" unicode="&#x2202;" horiz-adv-x="591" 
d="M199 -8q-58 0 -102.5 26t-64 80t-5.5 137q12 68 43 126.5t75 103t98 69.5t112 25q40 0 69.5 -17t40.5 -61q4 54 -5 95.5t-37.5 65.5t-80.5 24q-32 0 -74 -10l12 69q29 8 56 11.5t52 3.5q120 0 168 -87.5t20 -243.5q-22 -130 -77.5 -223.5t-133 -143.5t-166.5 -50z
M232 101q45 0 84 30t66.5 80t37.5 110q12 67 -9.5 99t-65.5 32q-45 0 -83.5 -28.5t-65.5 -77.5t-38 -110q-13 -71 9.5 -103t64.5 -32z" />
    <glyph glyph-name="uni2206" unicode="&#x2206;" horiz-adv-x="712" 
d="M-21 0l17 98l387 602h105l174 -602l-18 -98h-665zM128 98h403l-122 457z" />
    <glyph glyph-name="product" unicode="&#x220f;" horiz-adv-x="737" 
d="M60 0l105 602h-74l19 98h679l-18 -98h-76l-105 -602h-128l106 602h-275l-105 -602h-128z" />
    <glyph glyph-name="summation" unicode="&#x2211;" horiz-adv-x="550" 
d="M6 -50l26 149l289 231l-209 222l27 148h423l-18 -98h-316l221 -225l-16 -93l-298 -236h312l-18 -98h-423z" />
    <glyph glyph-name="minus" unicode="&#x2212;" horiz-adv-x="531" 
d="M55 236l18 107h419l-19 -107h-418z" />
    <glyph glyph-name="uni2215" unicode="&#x2215;" horiz-adv-x="421" 
d="M-40 -111l406 888h125l-407 -888h-124z" />
    <glyph glyph-name="radical" unicode="&#x221a;" horiz-adv-x="783" 
d="M207 -42l-93 240l-80 -42l-27 62l204 108l85 -219l563 778h82l-672 -927h-62z" />
    <glyph glyph-name="infinity" unicode="&#x221e;" horiz-adv-x="743" 
d="M180 128q-61 0 -101 34.5t-40 100.5q0 53 25.5 94.5t69.5 65.5t99 24q62 0 98 -29.5t61 -67.5q32 42 79 69.5t104 27.5q64 0 103.5 -35.5t39.5 -99.5q0 -53 -26.5 -94.5t-71 -65.5t-99.5 -24q-60 0 -97 27.5t-63 63.5q-33 -39 -79 -65t-102 -26zM143 277q0 -30 19 -45.5
t46 -15.5q30 0 59.5 17.5t53.5 47.5q-20 33 -42 56t-55 23t-57 -24t-24 -59zM551 359q-31 0 -63 -19.5t-58 -52.5q19 -30 42 -51t58 -21q37 0 60.5 24t23.5 58q0 30 -17 46t-46 16z" />
    <glyph glyph-name="integral" unicode="&#x222b;" horiz-adv-x="275" 
d="M-134 -229l29 108h19q22 0 34.5 12t20.5 41l237 838q25 90 80.5 124.5t130.5 34.5h21l-30 -109h-18q-21 0 -34.5 -11.5t-21.5 -38.5l-237 -838q-26 -90 -80.5 -125.5t-131.5 -35.5h-19z" />
    <glyph glyph-name="approxequal" unicode="&#x2248;" horiz-adv-x="575" 
d="M346 86q-31 0 -53 10t-40 23t-36 23t-40 10q-54 0 -77 -65h-95q33 94 84.5 136.5t115.5 42.5q31 0 53 -10t40.5 -23t36 -23t39.5 -10q26 0 46 17t30 49h96q-32 -94 -84.5 -137t-115.5 -43zM386 315q-31 0 -53 10t-40 23t-36 23t-40 10q-54 0 -77 -65h-95
q33 94 84.5 136.5t115.5 42.5q31 0 53 -10t40.5 -23t36 -23t39.5 -10q26 0 46 17t30 49h96q-32 -94 -84.5 -137t-115.5 -43z" />
    <glyph glyph-name="notequal" unicode="&#x2260;" horiz-adv-x="543" 
d="M64 56l47 67h-74l20 112h133l77 110h-191l20 112h250l47 67h101l-47 -67h73l-19 -112h-133l-77 -110h191l-20 -112h-250l-47 -67h-101z" />
    <glyph glyph-name="lessequal" unicode="&#x2264;" horiz-adv-x="501" 
d="M280 207l-192 188l258 189h163l-256 -188l190 -189h-163zM39 44l17 98h374l-18 -98h-373z" />
    <glyph glyph-name="greaterequal" unicode="&#x2265;" horiz-adv-x="500" 
d="M44 207l255 189l-189 188h162l191 -189l-257 -188h-162zM16 44l18 98h374l-18 -98h-374z" />
    <glyph glyph-name="lozenge" unicode="&#x25ca;" horiz-adv-x="559" 
d="M247 100l-207 251l296 251l207 -251zM269 225l148 127l-102 124l-149 -125z" />
    <glyph glyph-name="a.ss02" horiz-adv-x="644" 
d="M243 -12q-62 0 -106 29t-68 79t-24 112q0 85 37.5 153t101 107.5t141.5 39.5q62 0 100 -22.5t57 -57.5l26 68h114l-88 -496h-113l-3 71q-28 -33 -70.5 -58t-104.5 -25zM292 100q47 0 83.5 24.5t58 65.5t21.5 90q0 52 -31 84t-85 32q-47 0 -83.5 -23t-57.5 -62t-21 -88
q0 -52 30.5 -87.5t84.5 -35.5z" />
    <glyph glyph-name="aacute.ss02" horiz-adv-x="644" 
d="M243 -12q-62 0 -106 29t-68 79t-24 112q0 85 37.5 153t101 107.5t141.5 39.5q62 0 100 -22.5t57 -57.5l26 68h114l-88 -496h-113l-3 71q-28 -33 -70.5 -58t-104.5 -25zM292 100q47 0 83.5 24.5t58 65.5t21.5 90q0 52 -31 84t-85 32q-47 0 -83.5 -23t-57.5 -62t-21 -88
q0 -52 30.5 -87.5t84.5 -35.5zM319 536l16 90l247 122l-18 -104z" />
    <glyph glyph-name="abreve.ss02" horiz-adv-x="644" 
d="M243 -12q-62 0 -106 29t-68 79t-24 112q0 85 37.5 153t101 107.5t141.5 39.5q62 0 100 -22.5t57 -57.5l26 68h114l-88 -496h-113l-3 71q-28 -33 -70.5 -58t-104.5 -25zM292 100q47 0 83.5 24.5t58 65.5t21.5 90q0 52 -31 84t-85 32q-47 0 -83.5 -23t-57.5 -62t-21 -88
q0 -52 30.5 -87.5t84.5 -35.5zM371 551q-71 0 -106 41t-22 110l3 17h68q-7 -35 9.5 -54t64.5 -19t71 19t30 54h68l-3 -17q-13 -70 -61.5 -110.5t-121.5 -40.5z" />
    <glyph glyph-name="acircumflex.ss02" horiz-adv-x="644" 
d="M243 -12q-62 0 -106 29t-68 79t-24 112q0 85 37.5 153t101 107.5t141.5 39.5q62 0 100 -22.5t57 -57.5l26 68h114l-88 -496h-113l-3 71q-28 -33 -70.5 -58t-104.5 -25zM292 100q47 0 83.5 24.5t58 65.5t21.5 90q0 52 -31 84t-85 32q-47 0 -83.5 -23t-57.5 -62t-21 -88
q0 -52 30.5 -87.5t84.5 -35.5zM223 543l16 92l162 83l131 -83l-17 -92l-130 85z" />
    <glyph glyph-name="adieresis.ss02" horiz-adv-x="644" 
d="M243 -12q-62 0 -106 29t-68 79t-24 112q0 85 37.5 153t101 107.5t141.5 39.5q62 0 100 -22.5t57 -57.5l26 68h114l-88 -496h-113l-3 71q-28 -33 -70.5 -58t-104.5 -25zM292 100q47 0 83.5 24.5t58 65.5t21.5 90q0 52 -31 84t-85 32q-47 0 -83.5 -23t-57.5 -62t-21 -88
q0 -52 30.5 -87.5t84.5 -35.5zM476 564q-26 0 -44 18t-18 44t18 44t44 18t43.5 -18t17.5 -44t-17.5 -44t-43.5 -18zM295 564q-26 0 -43.5 18t-17.5 44t17.5 44t43.5 18t44 -18t18 -44t-18 -44t-44 -18z" />
    <glyph glyph-name="agrave.ss02" horiz-adv-x="644" 
d="M243 -12q-62 0 -106 29t-68 79t-24 112q0 85 37.5 153t101 107.5t141.5 39.5q62 0 100 -22.5t57 -57.5l26 68h114l-88 -496h-113l-3 71q-28 -33 -70.5 -58t-104.5 -25zM292 100q47 0 83.5 24.5t58 65.5t21.5 90q0 52 -31 84t-85 32q-47 0 -83.5 -23t-57.5 -62t-21 -88
q0 -52 30.5 -87.5t84.5 -35.5zM405 536l-206 108l18 104l205 -122z" />
    <glyph glyph-name="amacron.ss02" horiz-adv-x="644" 
d="M243 -12q-62 0 -106 29t-68 79t-24 112q0 85 37.5 153t101 107.5t141.5 39.5q62 0 100 -22.5t57 -57.5l26 68h114l-88 -496h-113l-3 71q-28 -33 -70.5 -58t-104.5 -25zM292 100q47 0 83.5 24.5t58 65.5t21.5 90q0 52 -31 84t-85 32q-47 0 -83.5 -23t-57.5 -62t-21 -88
q0 -52 30.5 -87.5t84.5 -35.5zM189 579l16 91h374l-15 -91h-375z" />
    <glyph glyph-name="aogonek.ss02" horiz-adv-x="644" 
d="M243 -12q-62 0 -106 29t-68 79t-24 112q0 85 37.5 153t101 107.5t141.5 39.5q62 0 100 -22.5t57 -57.5l26 68h114l-88 -496h-113l-3 71q-28 -33 -70.5 -58t-104.5 -25zM292 100q47 0 83.5 24.5t58 65.5t21.5 90q0 52 -31 84t-85 32q-47 0 -83.5 -23t-57.5 -62t-21 -88
q0 -52 30.5 -87.5t84.5 -35.5zM415 -210q-54 0 -89 25t-25 79q7 40 43 76t122 70l50 20l18 -60l-56 -26q-40 -18 -57 -34t-21 -34q-3 -19 9 -30t36 -11q31 0 73 15l-13 -76q-20 -6 -43.5 -10t-46.5 -4z" />
    <glyph glyph-name="aring.ss02" horiz-adv-x="644" 
d="M243 -12q-62 0 -106 29t-68 79t-24 112q0 85 37.5 153t101 107.5t141.5 39.5q62 0 100 -22.5t57 -57.5l26 68h114l-88 -496h-113l-3 71q-28 -33 -70.5 -58t-104.5 -25zM292 100q47 0 83.5 24.5t58 65.5t21.5 90q0 52 -31 84t-85 32q-47 0 -83.5 -23t-57.5 -62t-21 -88
q0 -52 30.5 -87.5t84.5 -35.5zM391 547q-46 0 -79.5 30t-33.5 82t33.5 82t79.5 30q48 0 81 -30t33 -82t-33 -82t-81 -30zM391 605q22 0 37.5 15t15.5 39q0 25 -15.5 39.5t-37.5 14.5q-21 0 -36.5 -14.5t-15.5 -39.5q0 -24 15.5 -39t36.5 -15z" />
    <glyph glyph-name="atilde.ss02" horiz-adv-x="644" 
d="M243 -12q-62 0 -106 29t-68 79t-24 112q0 85 37.5 153t101 107.5t141.5 39.5q62 0 100 -22.5t57 -57.5l26 68h114l-88 -496h-113l-3 71q-28 -33 -70.5 -58t-104.5 -25zM292 100q47 0 83.5 24.5t58 65.5t21.5 90q0 52 -31 84t-85 32q-47 0 -83.5 -23t-57.5 -62t-21 -88
q0 -52 30.5 -87.5t84.5 -35.5zM200 551q22 65 58 95t81 30q29 0 46.5 -11.5t32.5 -23t36 -11.5q17 0 30.5 11t20.5 34h69q-20 -64 -57 -94t-82 -30q-29 0 -47 11t-33 22.5t-35 11.5q-37 0 -51 -45h-69z" />
    <glyph glyph-name="ae.ss02" horiz-adv-x="1002" 
d="M243 -12q-62 0 -106 29t-68 79t-24 112q0 85 37.5 153t101 107.5t141.5 39.5q57 0 93.5 -19.5t56.5 -49.5l15 57h101l-7 -39q36 24 80 37.5t94 13.5q65 0 112 -25.5t72.5 -70t25.5 -101.5q0 -24 -4.5 -49.5t-9.5 -44.5h-377q-1 -8 -1 -17q0 -50 30 -78.5t78 -28.5
q39 0 68.5 17.5t47.5 45.5h130q-23 -48 -62 -86t-90.5 -60t-110.5 -22q-98 0 -156 55l-7 -43h-101l6 61q-28 -30 -68.5 -51.5t-97.5 -21.5zM741 404q-47 0 -87.5 -26.5t-60.5 -80.5h247q1 8 1 11q1 44 -26.5 70t-73.5 26zM292 100q47 0 83.5 24.5t58 65.5t21.5 90
q0 52 -31 84t-85 32q-47 0 -83.5 -23t-57.5 -62t-21 -88q0 -52 30.5 -87.5t84.5 -35.5z" />
    <glyph glyph-name="aeacute.ss02" horiz-adv-x="1002" 
d="M243 -12q-62 0 -106 29t-68 79t-24 112q0 85 37.5 153t101 107.5t141.5 39.5q57 0 93.5 -19.5t56.5 -49.5l15 57h101l-7 -39q36 24 80 37.5t94 13.5q65 0 112 -25.5t72.5 -70t25.5 -101.5q0 -24 -4.5 -49.5t-9.5 -44.5h-377q-1 -8 -1 -17q0 -50 30 -78.5t78 -28.5
q39 0 68.5 17.5t47.5 45.5h130q-23 -48 -62 -86t-90.5 -60t-110.5 -22q-98 0 -156 55l-7 -43h-101l6 61q-28 -30 -68.5 -51.5t-97.5 -21.5zM741 404q-47 0 -87.5 -26.5t-60.5 -80.5h247q1 8 1 11q1 44 -26.5 70t-73.5 26zM292 100q47 0 83.5 24.5t58 65.5t21.5 90
q0 52 -31 84t-85 32q-47 0 -83.5 -23t-57.5 -62t-21 -88q0 -52 30.5 -87.5t84.5 -35.5zM497 536l16 90l247 122l-18 -104z" />
    <glyph glyph-name="g.ss03" horiz-adv-x="662" 
d="M247 -232q-62 0 -116.5 21t-87 65t-29.5 114h127q2 -42 35.5 -65.5t86.5 -23.5q37 0 72 15.5t60.5 48t33.5 81.5l11 62q-29 -36 -76.5 -62.5t-110.5 -26.5q-62 0 -109 28.5t-73 77t-26 108.5q0 61 22 115t61.5 95t92.5 64t114 23q57 0 101 -23.5t64 -58.5l28 70h112
l-83 -470q-15 -86 -60.5 -143.5t-110.5 -86t-139 -28.5zM298 108q47 0 86 23.5t62 62.5t23 87q0 50 -34.5 82.5t-90.5 32.5q-48 0 -86 -23t-59.5 -61.5t-21.5 -84.5q0 -51 32.5 -85t88.5 -34z" />
    <glyph glyph-name="gbreve.ss03" horiz-adv-x="662" 
d="M247 -232q-62 0 -116.5 21t-87 65t-29.5 114h127q2 -42 35.5 -65.5t86.5 -23.5q37 0 72 15.5t60.5 48t33.5 81.5l11 62q-29 -36 -76.5 -62.5t-110.5 -26.5q-62 0 -109 28.5t-73 77t-26 108.5q0 61 22 115t61.5 95t92.5 64t114 23q57 0 101 -23.5t64 -58.5l28 70h112
l-83 -470q-15 -86 -60.5 -143.5t-110.5 -86t-139 -28.5zM298 108q47 0 86 23.5t62 62.5t23 87q0 50 -34.5 82.5t-90.5 32.5q-48 0 -86 -23t-59.5 -61.5t-21.5 -84.5q0 -51 32.5 -85t88.5 -34zM364 551q-71 0 -106 41t-22 110l3 17h68q-7 -35 9.5 -54t64.5 -19t71 19t30 54
h68l-3 -17q-13 -70 -61.5 -110.5t-121.5 -40.5z" />
    <glyph glyph-name="uni0123.ss03" horiz-adv-x="662" 
d="M314 597q-3 28 -2 54.5t5 49.5q10 62 46 96.5t95 34.5l-8 -53q-52 0 -61 -59l-3 -20h56l-19 -103h-109zM247 -232q-62 0 -116.5 21t-87 65t-29.5 114h127q2 -42 35.5 -65.5t86.5 -23.5q37 0 72 15.5t60.5 48t33.5 81.5l11 62q-29 -36 -76.5 -62.5t-110.5 -26.5
q-62 0 -109 28.5t-73 77t-26 108.5q0 61 22 115t61.5 95t92.5 64t114 23q57 0 101 -23.5t64 -58.5l28 70h112l-83 -470q-15 -86 -60.5 -143.5t-110.5 -86t-139 -28.5zM298 108q47 0 86 23.5t62 62.5t23 87q0 50 -34.5 82.5t-90.5 32.5q-48 0 -86 -23t-59.5 -61.5
t-21.5 -84.5q0 -51 32.5 -85t88.5 -34z" />
    <glyph glyph-name="gdotaccent.ss03" horiz-adv-x="662" 
d="M247 -232q-62 0 -116.5 21t-87 65t-29.5 114h127q2 -42 35.5 -65.5t86.5 -23.5q37 0 72 15.5t60.5 48t33.5 81.5l11 62q-29 -36 -76.5 -62.5t-110.5 -26.5q-62 0 -109 28.5t-73 77t-26 108.5q0 61 22 115t61.5 95t92.5 64t114 23q57 0 101 -23.5t64 -58.5l28 70h112
l-83 -470q-15 -86 -60.5 -143.5t-110.5 -86t-139 -28.5zM298 108q47 0 86 23.5t62 62.5t23 87q0 50 -34.5 82.5t-90.5 32.5q-48 0 -86 -23t-59.5 -61.5t-21.5 -84.5q0 -51 32.5 -85t88.5 -34zM377 560q-25 0 -43 18t-18 44t18 44t43 18q26 0 44 -18t18 -44t-18 -44t-44 -18z
" />
    <glyph glyph-name="three.ss04" horiz-adv-x="600" 
d="M255 -6q-99 0 -156 46.5t-57 140.5q0 20 2 39h122q-1 -7 -1.5 -13.5t-0.5 -12.5q0 -42 29 -67.5t80 -25.5q67 0 106.5 42.5t39.5 107.5q0 48 -29 74.5t-83 26.5h-102l15 85l197 153h-271l20 110h432l-17 -94l-218 -171q83 -6 129.5 -52t46.5 -122q0 -79 -36.5 -139
t-101 -94t-146.5 -34z" />
    <glyph glyph-name="six.ss04" horiz-adv-x="602" 
d="M259 -7q-68 0 -116.5 25.5t-75 70.5t-26.5 104q0 55 19 103.5t46.5 89.5t54.5 72l210 247h143l-215 -246q32 10 68 10q58 0 100.5 -24.5t65.5 -67t23 -98.5q0 -83 -39.5 -147.5t-106.5 -101.5t-151 -37zM278 103q45 0 80.5 20.5t55.5 56.5t20 82q0 48 -29.5 78.5
t-81.5 30.5q-46 0 -81.5 -21.5t-56 -59t-20.5 -83.5q0 -48 30 -76t83 -28z" />
    <glyph glyph-name="nine.ss04" horiz-adv-x="602" 
d="M125 0l215 246q-32 -9 -69 -9q-57 0 -99.5 24t-65.5 66.5t-23 98.5q0 83 39.5 147.5t106.5 101.5t151 37q68 0 116.5 -26t75 -71t26.5 -104q0 -55 -19 -103.5t-46.5 -89t-54.5 -71.5l-210 -247h-143zM316 334q46 0 81.5 21.5t56 59t20.5 83.5q0 48 -30 76t-83 28
q-45 0 -80.5 -20t-55.5 -56t-20 -83t29.5 -78t81.5 -31z" />
    <glyph glyph-name="comma.ss01" horiz-adv-x="209" 
d="M-12 -102l9 52q50 0 60 61l4 19h-56l19 103h109q4 -28 2.5 -54.5t-5.5 -49.5q-10 -62 -46.5 -96.5t-95.5 -34.5z" />
    <glyph glyph-name="quotesinglbase.ss01" horiz-adv-x="209" 
d="M-12 -102l9 52q50 0 60 61l4 19h-56l19 103h109q4 -28 2.5 -54.5t-5.5 -49.5q-10 -62 -46.5 -96.5t-95.5 -34.5z" />
    <glyph glyph-name="quotedblbase.ss01" horiz-adv-x="369" 
d="M-12 -102l9 52q50 0 60 61l4 19h-56l19 103h109q4 -28 2.5 -54.5t-5.5 -49.5q-10 -62 -46.5 -96.5t-95.5 -34.5zM149 -102l9 52q50 0 60 61l3 19h-55l18 103h110q3 -28 2 -54.5t-5 -49.5q-10 -62 -46.5 -96.5t-95.5 -34.5z" />
    <glyph glyph-name="quotedblleft.ss01" horiz-adv-x="358" 
d="M263 576q-3 29 -2 55t5 49q11 62 47 96.5t96 34.5l-10 -53q-50 0 -60 -59l-3 -20h55l-18 -103h-110zM103 576q-4 29 -2.5 55t4.5 49q11 62 47 96.5t96 34.5l-10 -53q-49 0 -59 -59l-4 -20h56l-19 -103h-109z" />
    <glyph glyph-name="quotedblright.ss01" horiz-adv-x="357" 
d="M93 576l10 52q49 0 60 60l3 20h-56l19 103h110q3 -29 2 -55t-5 -49q-11 -62 -47 -96.5t-96 -34.5zM254 576l9 52q50 0 60 60l4 20h-56l19 103h109q6 -59 -3 -104q-11 -62 -47 -96.5t-95 -34.5z" />
    <glyph glyph-name="quoteleft.ss01" horiz-adv-x="197" 
d="M103 576q-4 29 -3 55t5 49q12 62 47.5 96.5t95.5 34.5l-10 -53q-49 0 -59 -59l-4 -20h56l-19 -103h-109z" />
    <glyph glyph-name="quoteright.ss01" horiz-adv-x="196" 
d="M93 576l10 52q49 0 60 60l3 20h-56l19 103h110q3 -29 2 -55t-5 -49q-11 -62 -47 -96.5t-96 -34.5z" />
    <glyph glyph-name="uni0308.cap" 
d="M346 768q-26 0 -44 18t-18 44t18 44t44 18t43.5 -18t17.5 -44t-17.5 -44t-43.5 -18zM165 768q-26 0 -43.5 18t-17.5 44t17.5 44t43.5 18t44 -18t18 -44t-18 -44t-44 -18z" />
    <glyph glyph-name="uni0307.cap" 
d="M164 764q-25 0 -43 18t-18 44t18 44t43 18q26 0 44 -18t18 -44t-18 -44t-44 -18z" />
    <glyph glyph-name="gravecomb.cap" 
d="M312 740l-206 108l18 104l205 -122z" />
    <glyph glyph-name="acutecomb.cap" 
d="M87 740l16 90l247 122l-18 -104z" />
    <glyph glyph-name="uni030B.cap" 
d="M258 748l118 179h105l-142 -179h-81zM88 748l102 179h105l-126 -179h-81z" />
    <glyph glyph-name="uni0302.cap" 
d="M88 747l16 92l162 83l131 -83l-17 -92l-130 85z" />
    <glyph glyph-name="uni030C.cap" 
d="M234 746l-131 83l16 89l129 -84l163 87l-16 -92z" />
    <glyph glyph-name="uni0306.cap" 
d="M244 755q-71 0 -106 41t-22 110l3 17h68q-7 -35 9.5 -54t64.5 -19t71 19t30 54h68l-3 -17q-13 -70 -61.5 -110.5t-121.5 -40.5z" />
    <glyph glyph-name="uni030A.cap" 
d="M224 751q-46 0 -79.5 30t-33.5 82t33.5 82t79.5 30q48 0 81 -30t33 -82t-33 -82t-81 -30zM224 809q22 0 37.5 15t15.5 39q0 25 -15.5 39.5t-37.5 14.5q-21 0 -36.5 -14.5t-15.5 -39.5q0 -24 15.5 -39t36.5 -15z" />
    <glyph glyph-name="tildecomb.cap" 
d="M89 755q22 65 58 95t81 30q29 0 46.5 -11.5t32.5 -23t36 -11.5q17 0 30.5 11t20.5 34h69q-20 -64 -57 -94t-82 -30q-29 0 -47 11t-33 22.5t-35 11.5q-37 0 -51 -45h-69z" />
    <glyph glyph-name="uni0304.cap" 
d="M94 783l16 91h374l-15 -91h-375z" />
    <glyph glyph-name="uni0327.cap" 
d="M-90 -263l13 74h111q61 0 61 40q0 31 -46 31h-62l22 125h80l-10 -57q46 1 79 -20t33 -69q0 -38 -20 -65.5t-54 -43t-74 -15.5h-133z" />
    <glyph glyph-name="uni0328.cap" 
d="M52 -210q-54 0 -89 25t-25 79q7 40 43 76t122 70l50 20l18 -60l-56 -26q-40 -18 -57 -34t-21 -34q-3 -19 9 -30t36 -11q31 0 73 15l-13 -76q-20 -6 -43.5 -10t-46.5 -4z" />
    </font>
</defs>
</svg>
