<?xml version="1.0" standalone="no"?>
<!DOCTYPE svg PUBLIC "-//W3C//DTD SVG 1.1//EN" "http://www.w3.org/Graphics/SVG/1.1/DTD/svg11.dtd" >
<svg xmlns="http://www.w3.org/2000/svg" xmlns:xlink="http://www.w3.org/1999/xlink" version="1.1">
<metadata>
Created by FontForge 20170731 at Tue Oct 15 18:58:09 2019
 By Aleksey,,,
Copyright 2014-2017 Indian Type Foundry (info@indiantypefoundry.com) with Reserved Font Name 'Poppins'. Copyright 2019 Google LLC.
</metadata>
<defs>
<font id="DMSans-Italic" horiz-adv-x="0" >
  <font-face 
    font-family="DM Sans"
    font-weight="400"
    font-style="italic"
    font-stretch="normal"
    units-per-em="1000"
    panose-1="0 0 0 0 0 0 0 0 0 0"
    ascent="800"
    descent="-200"
    x-height="496"
    cap-height="700"
    bbox="-128 -260 1132 967"
    underline-thickness="50"
    underline-position="-175"
    slope="-10"
    unicode-range="U+000D-FB02"
  />
<missing-glyph horiz-adv-x="549" 
d="M30 0l124 700h401l-124 -700h-401zM110 57h261l104 586h-261z" />
    <glyph glyph-name="fi" unicode="fi" horiz-adv-x="568" 
d="M520 606q-24 0 -41 16.5t-17 40.5q0 25 17 41t41 16q25 0 41.5 -16t16.5 -41q0 -24 -16.5 -40.5t-41.5 -16.5zM52 0l75 425h-74l12 71h74l15 86q13 72 55 105t112 33h49l-13 -72h-36q-38 0 -57 -15.5t-26 -52.5l-14 -84h308l-88 -496h-84l75 425h-224l-75 -425h-84z" />
    <glyph glyph-name="fl" unicode="fl" horiz-adv-x="557" 
d="M52 0l75 425h-74l12 71h74l15 86q13 72 55 105t112 33h49l-13 -72h-36q-38 0 -57 -15.5t-26 -52.5l-15 -84h123l-13 -71h-122l-75 -425h-84zM359 0l128 720h84l-128 -720h-84z" />
    <glyph glyph-name=".notdef" horiz-adv-x="549" 
d="M30 0l124 700h401l-124 -700h-401zM110 57h261l104 586h-261z" />
    <glyph glyph-name=".null" 
 />
    <glyph glyph-name="nonmarkingreturn" horiz-adv-x="333" 
 />
    <glyph glyph-name="CR" unicode="&#xd;" horiz-adv-x="600" 
 />
    <glyph glyph-name="space" unicode=" " horiz-adv-x="286" 
 />
    <glyph glyph-name="exclam" unicode="!" horiz-adv-x="250" 
d="M71 194l80 506h91l-100 -506h-71zM91 -5q-25 0 -41.5 16.5t-16.5 40.5t16.5 40.5t41.5 16.5q24 0 40.5 -16.5t16.5 -40.5t-16.5 -40.5t-40.5 -16.5z" />
    <glyph glyph-name="quotedbl" unicode="&#x22;" horiz-adv-x="286" 
d="M234 558l23 197h80l-45 -197h-58zM104 558l23 197h80l-45 -197h-58z" />
    <glyph glyph-name="numbersign" unicode="#" horiz-adv-x="814" 
d="M100 0l77 197h-141l13 75h157l64 163h-150l13 74h166l77 197h79l-76 -197h214l77 197h80l-77 -197h138l-12 -74h-155l-64 -163h147l-14 -75h-162l-77 -197h-80l77 197h-214l-77 -197h-80zM286 272h214l64 163h-214z" />
    <glyph glyph-name="dollar" unicode="$" horiz-adv-x="591" 
d="M199 -87l14 79q-80 13 -127 60t-47 118q0 9 1 19.5t3 20.5h88q-3 -14 -3 -27q0 -43 26 -74.5t72 -43.5l47 268q-14 5 -24 9q-66 24 -98.5 65.5t-32.5 94.5q0 59 27.5 104.5t77.5 72.5t117 32l14 80h69l-15 -82q72 -10 115 -53.5t43 -106.5q0 -15 -3 -31h-87q0 5 0.5 9.5
t0.5 9.5q0 32 -20 60t-62 39l-42 -240q8 -3 17 -6t17 -6q61 -23 103 -64.5t42 -108.5q0 -65 -31.5 -114.5t-88 -78t-131.5 -30.5l-13 -75h-69zM207 515q0 -36 22.5 -57.5t58.5 -37.5l39 219q-55 -8 -87.5 -41.5t-32.5 -82.5zM442 201q0 45 -30 69t-74 41l-45 -252
q73 4 111 42.5t38 99.5z" />
    <glyph glyph-name="percent" unicode="%" horiz-adv-x="774" 
d="M226 375q-60 0 -98.5 37.5t-38.5 101.5q0 54 25.5 98.5t68.5 71.5t96 27q59 0 97.5 -37t38.5 -102q0 -54 -25.5 -98.5t-68 -71.5t-95.5 -27zM95 0l530 700h83l-529 -700h-84zM234 438q30 0 55 17.5t40.5 46.5t15.5 64q0 42 -21.5 62.5t-53.5 20.5q-30 0 -55.5 -17.5
t-40.5 -46.5t-15 -64q0 -42 22 -62.5t53 -20.5zM531 -12q-60 0 -98.5 37t-38.5 102q0 54 25.5 98.5t68.5 71.5t96 27q60 0 98 -36.5t38 -101.5q0 -54 -25 -99t-68 -72t-96 -27zM540 51q30 0 55 17.5t40 46.5t15 64q0 42 -21.5 62.5t-52.5 20.5q-30 0 -55.5 -17.5
t-40.5 -46.5t-15 -64q0 -42 22 -62.5t53 -20.5z" />
    <glyph glyph-name="ampersand" unicode="&#x26;" horiz-adv-x="735" 
d="M240 -12q-97 0 -154.5 48.5t-57.5 129.5q0 86 57 150t148 99q-22 29 -32.5 56t-10.5 56q0 55 27 96.5t74.5 65t107.5 23.5q70 0 111.5 -35.5t41.5 -90.5q0 -13 -3 -27h-83q1 5 1 8.5v8.5q0 33 -22.5 51t-56.5 18q-49 0 -81.5 -30t-32.5 -74q0 -27 13 -53.5t37 -57.5
l183 -224q23 28 48 63l70 93h88l-85 -118q-38 -54 -75 -95l122 -149h-105l-74 91q-60 -53 -122.5 -78t-133.5 -25zM115 179q0 -52 37 -85.5t100 -33.5q106 0 199 86l-177 217q-72 -27 -115.5 -73t-43.5 -111z" />
    <glyph glyph-name="quotesingle" unicode="'" horiz-adv-x="156" 
d="M104 558l23 197h80l-45 -197h-58z" />
    <glyph glyph-name="parenleft" unicode="(" horiz-adv-x="373" 
d="M178 -145q-54 62 -90.5 153.5t-36.5 206.5q0 111 37 220.5t103.5 206t155.5 169.5h86l-1 -8q-93 -78 -159.5 -173t-101.5 -198t-35 -206q0 -106 35.5 -198.5t95.5 -164.5l-2 -8h-87z" />
    <glyph glyph-name="parenright" unicode=")" horiz-adv-x="373" 
d="M-30 -145l1 8q93 78 159 173t101.5 198t35.5 206q0 106 -35.5 198.5t-95.5 164.5l2 8h86q54 -62 90.5 -153.5t36.5 -206.5q0 -111 -36.5 -220.5t-103 -206t-155.5 -169.5h-86z" />
    <glyph glyph-name="asterisk" unicode="*" horiz-adv-x="478" 
d="M221 360l40 153l-140 -87l-24 61l149 61l-126 60l42 59l111 -87l14 153h67l-41 -153l139 86l23 -57l-150 -62l128 -61l-42 -59l-111 86l-12 -153h-67z" />
    <glyph glyph-name="plus" unicode="+" horiz-adv-x="584" 
d="M223 72l33 183h-191l12 71h191l32 182h76l-32 -182h190l-12 -71h-191l-32 -183h-76z" />
    <glyph glyph-name="comma" unicode="," horiz-adv-x="178" 
d="M-64 -119l97 221h87l-126 -221h-58z" />
    <glyph glyph-name="hyphen" unicode="-" horiz-adv-x="514" 
d="M61 255l12 71h396l-12 -71h-396z" />
    <glyph glyph-name="period" unicode="." horiz-adv-x="196" 
d="M64 -5q-25 0 -41.5 16.5t-16.5 40.5t16.5 40.5t41.5 16.5t41 -16.5t16 -40.5t-16 -40.5t-41 -16.5z" />
    <glyph glyph-name="slash" unicode="/" horiz-adv-x="391" 
d="M-32 -95l402 859h83l-403 -859h-82z" />
    <glyph glyph-name="zero" unicode="0" horiz-adv-x="697" 
d="M305 -12q-79 0 -134 34t-84 94.5t-29 142.5q0 95 28.5 177.5t78.5 144.5t117.5 96.5t145.5 34.5q79 0 134 -34t84 -95t29 -142q0 -96 -28.5 -178.5t-78.5 -144t-117.5 -96t-145.5 -34.5zM316 62q55 0 104.5 29t87 80t58.5 117.5t21 142.5q0 98 -46 152t-124 54
q-56 0 -105 -28.5t-86.5 -79.5t-58.5 -117.5t-21 -142.5q0 -98 46 -152.5t124 -54.5z" />
    <glyph glyph-name="one" unicode="1" horiz-adv-x="303" 
d="M99 0l107 606l-118 -30l12 63l152 61h57l-124 -700h-86z" />
    <glyph glyph-name="two" unicode="2" horiz-adv-x="574" 
d="M21 0l10 59q147 103 239 185t135 151.5t43 133.5q0 28 -11 53.5t-35.5 41.5t-65.5 16q-46 0 -79.5 -20.5t-54 -54.5t-26.5 -73h-82q13 69 49 118t88 75.5t114 26.5q84 0 136 -47t52 -127q0 -73 -38.5 -144t-121 -149.5t-215.5 -174.5h337l-12 -70h-462z" />
    <glyph glyph-name="three" unicode="3" horiz-adv-x="586" 
d="M250 -12q-61 0 -108.5 20t-75 60t-27.5 100q0 19 3 40h85q0 -7 -1 -14t-1 -17q0 -48 34 -82t100 -34q50 0 89 20t61.5 55.5t22.5 82.5q0 60 -42.5 91.5t-105.5 31.5h-52l12 71h53q74 0 120 36.5t46 99.5q0 38 -26.5 64t-79.5 26q-58 0 -99 -34.5t-54 -86.5h-85
q13 57 47 101t84.5 68.5t114.5 24.5q89 0 137 -42.5t48 -108.5q0 -40 -18 -77t-50.5 -64.5t-75.5 -38.5q49 -11 80 -51t31 -101q0 -70 -34.5 -124.5t-95 -85.5t-137.5 -31z" />
    <glyph glyph-name="four" unicode="4" horiz-adv-x="605" 
d="M347 0l27 150h-355l11 65l426 485h98l-84 -476h104l-13 -74h-104l-27 -150h-83zM125 224h266l68 383z" />
    <glyph glyph-name="five" unicode="5" horiz-adv-x="613" 
d="M270 -12q-68 0 -117 25.5t-75 70t-25 100.5v5h83q1 -58 41 -93.5t103 -35.5q54 0 98.5 26.5t71 73.5t26.5 106q0 62 -36.5 103t-97.5 41q-58 0 -102.5 -26t-70.5 -68h-80l128 384h367l-13 -73h-303l-78 -213q30 29 72.5 48t97.5 19q60 0 104.5 -27t69 -72.5t24.5 -101.5
q0 -84 -38.5 -150t-104 -104t-145.5 -38z" />
    <glyph glyph-name="six" unicode="6" horiz-adv-x="625" 
d="M287 -12q-81 0 -129.5 33t-69.5 88t-21 121q0 97 24.5 184t69.5 154t108 105.5t139 38.5q61 0 102.5 -26t61 -69.5t15.5 -96.5h-78q0 56 -30 87.5t-83 31.5q-79 0 -144.5 -73.5t-97.5 -229.5q35 49 87.5 80.5t121.5 31.5q58 0 102.5 -25.5t69.5 -69.5t25 -100
q0 -55 -21 -103t-58.5 -84.5t-87 -57t-106.5 -20.5zM293 62q53 0 93.5 23t64 63.5t23.5 91.5q0 58 -35.5 96.5t-98.5 38.5q-52 0 -93 -24t-65 -64.5t-24 -88.5q0 -57 36 -96.5t99 -39.5z" />
    <glyph glyph-name="seven" unicode="7" horiz-adv-x="533" 
d="M85 0l389 628h-381l13 72h470l-11 -63l-388 -637h-92z" />
    <glyph glyph-name="eight" unicode="8" horiz-adv-x="604" 
d="M263 -12q-62 0 -110 21.5t-75 61t-27 95.5q0 50 22.5 92.5t62.5 72t91 42.5q-47 17 -72.5 53t-25.5 78q0 61 34 108t91.5 73.5t127.5 26.5q90 0 140.5 -44.5t50.5 -117.5q0 -45 -20 -80t-54 -59.5t-74 -37.5q57 -17 83 -58t26 -94q0 -71 -37 -123t-98.5 -81t-135.5 -29z
M337 403q36 0 70.5 14.5t57 45t22.5 77.5q0 39 -16.5 60.5t-43 30.5t-57.5 9q-66 0 -110.5 -37t-44.5 -98q0 -52 35 -77t87 -25zM274 62q51 0 90.5 19.5t62.5 54.5t23 82q0 58 -37.5 86.5t-95.5 28.5q-50 0 -91 -19.5t-65.5 -55t-24.5 -82.5q0 -53 37 -83.5t101 -30.5z" />
    <glyph glyph-name="nine" unicode="9" horiz-adv-x="625" 
d="M254 -12q-62 0 -103 26t-60.5 69.5t-16.5 96.5h78q0 -56 30.5 -87.5t82.5 -31.5q79 0 144.5 73.5t97.5 229.5q-35 -49 -87.5 -80.5t-120.5 -31.5q-59 0 -103.5 25.5t-69.5 69.5t-25 100q0 55 21 103t58.5 84.5t87.5 57t107 20.5q81 0 129 -33t69.5 -88t21.5 -121
q0 -97 -24.5 -184t-70 -154t-108 -105.5t-138.5 -38.5zM321 325q52 0 93.5 24t65.5 64.5t24 88.5q0 57 -36.5 96.5t-99.5 39.5q-53 0 -93.5 -23t-63.5 -63.5t-23 -91.5q0 -58 35.5 -96.5t97.5 -38.5z" />
    <glyph glyph-name="colon" unicode=":" horiz-adv-x="199" 
d="M64 -5q-25 0 -41.5 16.5t-16.5 40.5t16.5 40.5t41.5 16.5t41 -16.5t16 -40.5t-16 -40.5t-41 -16.5zM134 394q-25 0 -41.5 16.5t-16.5 40.5t16.5 40.5t41.5 16.5t41 -16.5t16 -40.5t-16 -40.5t-41 -16.5z" />
    <glyph glyph-name="semicolon" unicode=";" horiz-adv-x="225" 
d="M160 393q-25 0 -41.5 16.5t-16.5 40.5t16.5 40.5t41.5 16.5t41 -16.5t16 -40.5t-16 -40.5t-41 -16.5zM-46 -119l97 221h87l-126 -221h-58z" />
    <glyph glyph-name="less" unicode="&#x3c;" horiz-adv-x="500" 
d="M304 137l-204 230l286 231h105l-286 -231l205 -230h-106z" />
    <glyph glyph-name="equal" unicode="=" horiz-adv-x="526" 
d="M84 359l12 72h398l-12 -72h-398zM47 151l12 72h399l-13 -72h-398z" />
    <glyph glyph-name="greater" unicode="&#x3e;" horiz-adv-x="498" 
d="M51 137l286 230l-205 231h106l203 -231l-285 -230h-105z" />
    <glyph glyph-name="question" unicode="?" horiz-adv-x="516" 
d="M137 196l25 161h29q71 0 125.5 16t86 54t31.5 103q0 50 -32 80.5t-87 30.5q-64 0 -107.5 -35t-54.5 -94h-79q10 60 45.5 105t89 70t118.5 25q86 0 137.5 -47t51.5 -127q0 -77 -36.5 -130.5t-101 -81t-147.5 -27.5l-22 -103h-72zM153 -5q-25 0 -41.5 16.5t-16.5 40.5
t16.5 40.5t41.5 16.5t41 -16.5t16 -40.5t-16 -40.5t-41 -16.5z" />
    <glyph glyph-name="at" unicode="@" horiz-adv-x="1007" 
d="M425 -199q-107 0 -187.5 41t-125 116t-44.5 178q0 106 37 198t104 160.5t158.5 107t199.5 38.5q112 0 193.5 -42.5t126 -118t44.5 -175.5q0 -57 -14 -112.5t-41.5 -100t-67 -71t-91.5 -26.5q-50 0 -76.5 26.5t-29.5 69.5q-30 -45 -78 -70.5t-101 -25.5q-76 0 -118.5 46
t-42.5 124q0 55 17.5 105.5t49.5 90t76.5 62.5t98.5 23q100 0 130 -81l13 70h72l-50 -286q-7 -43 4 -69.5t48 -26.5q33 0 58 22.5t41.5 60t25 81t8.5 84.5q0 87 -36.5 150t-105 97t-163.5 34q-91 0 -168 -34t-134 -94t-88.5 -139t-31.5 -171q0 -135 81.5 -208.5t222.5 -73.5
q43 0 86 8.5t81 25.5l12 -57q-44 -19 -93.5 -28t-100.5 -9zM458 58q42 0 78 23t59 63.5t28 93.5q7 59 -20 101t-89 42q-51 0 -88 -29.5t-57.5 -76.5t-20.5 -98q0 -54 28 -86.5t82 -32.5z" />
    <glyph glyph-name="A" unicode="A" horiz-adv-x="664" 
d="M-14 0l382 700h89l133 -700h-87l-33 180h-298l-96 -180h-90zM207 246h251l-64 354z" />
    <glyph glyph-name="B" unicode="B" horiz-adv-x="609" 
d="M31 0l123 700h247q97 0 143.5 -43t46.5 -106q0 -73 -43 -122.5t-112 -67.5q50 -10 81 -47.5t31 -91.5q0 -66 -35.5 -116t-95.5 -78t-132 -28h-254zM185 393h155q73 0 118 39.5t45 104.5q0 44 -30.5 70t-93.5 26h-153zM127 68h161q79 0 128 43t49 112q0 48 -36 76t-98 28
h-159z" />
    <glyph glyph-name="C" unicode="C" horiz-adv-x="722" 
d="M339 -12q-89 0 -151.5 35t-95.5 98t-33 147q0 94 30.5 175t85.5 141.5t128.5 94t159.5 33.5q120 0 186 -57.5t69 -160.5h-95q-2 67 -45 105.5t-127 38.5q-65 0 -120.5 -27.5t-96.5 -77t-64 -115.5t-23 -143q0 -101 54 -157t150 -56q84 0 139.5 38t81.5 103h95
q-39 -102 -124 -158.5t-204 -56.5z" />
    <glyph glyph-name="D" unicode="D" horiz-adv-x="701" 
d="M31 0l123 700h215q158 0 232.5 -73.5t74.5 -209.5q0 -123 -53 -217t-149.5 -147t-227.5 -53h-215zM127 70h130q104 0 178.5 42t114 118.5t39.5 180.5q0 107 -54.5 163t-179.5 56h-129z" />
    <glyph glyph-name="E" unicode="E" horiz-adv-x="542" 
d="M31 0l123 700h405l-13 -67h-320l-43 -247h290l-11 -66h-291l-44 -253h320l-12 -67h-404z" />
    <glyph glyph-name="F" unicode="F" horiz-adv-x="530" 
d="M31 0l123 700h416l-12 -67h-332l-43 -249h279l-12 -65h-279l-56 -319h-84z" />
    <glyph glyph-name="G" unicode="G" horiz-adv-x="761" 
d="M333 -12q-85 0 -145.5 37.5t-93.5 103.5t-33 150q0 94 30 173.5t84 137.5t128 90t163 32q119 0 190.5 -57t76.5 -157h-97q-3 63 -49 100t-130 37q-92 0 -161.5 -45t-108 -124t-38.5 -182q0 -101 53.5 -161t146.5 -60q112 0 180.5 65.5t96.5 179.5h-202l11 66h289
l-66 -374h-77l13 115q-49 -61 -109 -94t-152 -33z" />
    <glyph glyph-name="H" unicode="H" horiz-adv-x="680" 
d="M31 0l123 700h84l-55 -310h364l55 310h84l-124 -700h-84l58 324h-364l-57 -324h-84z" />
    <glyph glyph-name="I" unicode="I" horiz-adv-x="233" 
d="M31 0l123 700h84l-123 -700h-84z" />
    <glyph glyph-name="J" unicode="J" horiz-adv-x="486" 
d="M178 -12q-88 0 -131.5 52.5t-27.5 145.5h85q-9 -51 10 -87t77 -36q56 0 86 33.5t38 75.5l92 528h84l-92 -528q-15 -84 -75 -134t-146 -50z" />
    <glyph glyph-name="K" unicode="K" horiz-adv-x="589" 
d="M31 0l123 700h84l-55 -317l347 317h106l-309 -279l190 -421h-97l-161 360l-96 -87l-48 -273h-84z" />
    <glyph glyph-name="L" unicode="L" horiz-adv-x="526" 
d="M31 0l123 700h84l-111 -633h326l-12 -67h-410z" />
    <glyph glyph-name="M" unicode="M" horiz-adv-x="848" 
d="M31 0l123 700h98l166 -488l336 488h99l-123 -700h-84l96 550l-312 -450h-63l-155 449l-97 -549h-84z" />
    <glyph glyph-name="N" unicode="N" horiz-adv-x="690" 
d="M31 0l123 700h83l275 -567l99 567h84l-123 -700h-84l-273 567l-100 -567h-84z" />
    <glyph glyph-name="O" unicode="O" horiz-adv-x="795" 
d="M353 -12q-87 0 -153 38.5t-102.5 106t-36.5 153.5q0 89 32.5 166t90 135.5t133.5 91.5t161 33q87 0 152.5 -38t102.5 -105t37 -154q0 -89 -32.5 -166.5t-90.5 -136t-133.5 -91.5t-160.5 -33zM365 62q65 0 123 27t101.5 74.5t68.5 111t25 136.5q0 70 -27.5 120.5t-76.5 78
t-113 27.5q-66 0 -123.5 -26.5t-101.5 -74t-68.5 -110t-24.5 -135.5q0 -70 27.5 -121.5t76.5 -79.5t113 -28z" />
    <glyph glyph-name="P" unicode="P" horiz-adv-x="583" 
d="M31 0l123 700h230q72 0 118 -24t68 -64t22 -87q0 -74 -35.5 -126t-98 -79.5t-145.5 -27.5h-146l-52 -292h-84zM179 363h144q86 0 133.5 38.5t47.5 117.5q0 48 -31.5 79.5t-102.5 31.5h-144z" />
    <glyph glyph-name="Q" unicode="Q" horiz-adv-x="789" 
d="M353 -12q-87 0 -153 38.5t-102.5 106t-36.5 153.5q0 89 32.5 166t90 135.5t133.5 91.5t161 33q87 0 152.5 -38t102.5 -105t37 -154q0 -84 -29.5 -158.5t-82.5 -132.5t-122 -93l144 -166h-110l-115 136q-50 -13 -102 -13zM365 62q65 0 123 27t101.5 74.5t68.5 111
t25 136.5q0 70 -27.5 120.5t-76.5 78t-113 27.5q-66 0 -123.5 -26.5t-101.5 -74t-68.5 -110t-24.5 -135.5q0 -70 27.5 -121.5t76.5 -79.5t113 -28z" />
    <glyph glyph-name="R" unicode="R" horiz-adv-x="594" 
d="M31 0l123 700h225q72 0 117 -24.5t66 -64.5t21 -87q0 -86 -49.5 -144t-132.5 -79l99 -301h-91l-91 289h-14h-138l-51 -289h-84zM178 355h136q83 0 133 41.5t50 119.5q0 47 -32 80t-104 33h-135z" />
    <glyph glyph-name="S" unicode="S" horiz-adv-x="591" 
d="M269 -12q-69 0 -120.5 22.5t-80.5 63.5t-29 96q0 9 1 19.5t3 20.5h88q-3 -14 -3 -27q0 -54 40.5 -89t109.5 -35q80 0 122 39t42 103q0 33 -16.5 54.5t-44.5 36t-62.5 26t-69.5 24.5q-66 24 -98.5 65.5t-32.5 94.5q0 63 31 110t87 73.5t130 26.5q59 0 104.5 -20.5
t70.5 -57.5t25 -85q0 -15 -3 -31h-87q0 5 0.5 9.5t0.5 9.5q0 39 -30.5 71t-92.5 32q-66 0 -106.5 -35.5t-40.5 -89.5q0 -38 24.5 -60.5t65.5 -37.5t90 -33q61 -23 103 -64.5t42 -108.5t-33 -117t-92 -78t-138 -28z" />
    <glyph glyph-name="T" unicode="T" horiz-adv-x="559" 
d="M194 0l111 633h-208l12 67h501l-12 -67h-209l-111 -633h-84z" />
    <glyph glyph-name="U" unicode="U" horiz-adv-x="667" 
d="M281 -12q-63 0 -112 21.5t-77.5 66.5t-28.5 114q0 32 6 68l79 442h84l-79 -442q-6 -30 -6 -55q0 -73 40.5 -106t107.5 -33q78 0 134.5 46t74.5 148l79 442h84l-78 -442q-16 -93 -61.5 -153t-110 -88.5t-136.5 -28.5z" />
    <glyph glyph-name="V" unicode="V" horiz-adv-x="669" 
d="M241 0l-139 700h91l113 -608l330 608h91l-388 -700h-98z" />
    <glyph glyph-name="W" unicode="W" horiz-adv-x="968" 
d="M168 -1l-68 701h91l45 -596l277 596h94l60 -597l258 597h91l-320 -700h-96l-65 576l-272 -576z" />
    <glyph glyph-name="X" unicode="X" horiz-adv-x="594" 
d="M-19 0l274 352l-153 348h96l123 -279l213 279h96l-278 -351l154 -349h-96l-123 280l-212 -280h-94z" />
    <glyph glyph-name="Y" unicode="Y" horiz-adv-x="579" 
d="M198 0l47 266l-152 434h96l112 -354l238 354h94l-304 -434l-47 -266h-84z" />
    <glyph glyph-name="Z" unicode="Z" horiz-adv-x="535" 
d="M-6 0l12 66l443 561h-340l14 73h437l-11 -66l-445 -561h350l-13 -73h-447z" />
    <glyph glyph-name="bracketleft" unicode="[" horiz-adv-x="308" 
d="M4 -151l170 962h174l-13 -69h-95l-145 -823h95l-12 -70h-174z" />
    <glyph glyph-name="backslash" unicode="\" horiz-adv-x="391" 
d="M219 -95l-100 859h83l99 -859h-82z" />
    <glyph glyph-name="bracketright" unicode="]" horiz-adv-x="308" 
d="M-11 -151l12 69h96l145 823h-95l12 70h174l-170 -962h-174z" />
    <glyph glyph-name="asciicircum" unicode="^" horiz-adv-x="620" 
d="M17 178l327 522h78l142 -522h-86l-112 419l-263 -419h-86z" />
    <glyph glyph-name="underscore" unicode="_" horiz-adv-x="641" 
d="M-5 -115l13 79h524l-13 -79h-524z" />
    <glyph glyph-name="grave" unicode="`" horiz-adv-x="254" 
d="M283 537l-189 117l12 73l188 -127z" />
    <glyph glyph-name="a" unicode="a" horiz-adv-x="539" 
d="M186 -12q-56 0 -91 18.5t-52 49t-17 65.5q0 55 31 95t86.5 61.5t129.5 21.5h133l1 6q3 17 3 34q0 48 -27.5 73t-76.5 25q-48 0 -89 -24.5t-57 -71.5h-87q16 54 52.5 91t86.5 56.5t105 19.5q89 0 133.5 -42t44.5 -114q0 -11 -1 -23t-3 -24l-53 -305h-76l10 88
q-28 -42 -73.5 -71t-112.5 -29zM211 59q48 0 86.5 25t63.5 65t33 84v0v1h-126q-71 0 -111.5 -27.5t-40.5 -75.5q0 -34 24.5 -53t70.5 -19z" />
    <glyph glyph-name="b" unicode="b" horiz-adv-x="619" 
d="M290 -12q-41 0 -74.5 14t-57 36t-34.5 46l-23 -84h-76l127 720h84l-53 -301q30 35 75.5 62t113.5 27q64 0 109.5 -28t70 -76t24.5 -109q0 -87 -37.5 -156.5t-102.5 -110t-146 -40.5zM294 61q57 0 101 29t69 79t25 114q0 66 -37.5 109t-101.5 43q-57 0 -102 -30
t-70.5 -81.5t-25.5 -114.5q0 -67 38.5 -107.5t103.5 -40.5z" />
    <glyph glyph-name="c" unicode="c" horiz-adv-x="569" 
d="M250 -12q-61 0 -108 26.5t-73 74t-26 110.5q0 66 23 122.5t64 98.5t95 65t116 23q90 0 143 -47t54 -127h-86q0 51 -36 76.5t-87 25.5q-55 0 -100 -29.5t-72 -81t-27 -117.5q0 -71 39 -110t94 -39q51 0 95.5 26t63.5 77h86q-19 -51 -57 -90.5t-89.5 -61.5t-111.5 -22z" />
    <glyph glyph-name="d" unicode="d" horiz-adv-x="620" 
d="M247 -12q-64 0 -109.5 29.5t-69.5 79.5t-24 110q0 88 37.5 155.5t101.5 106.5t143 39q66 0 108 -26t62 -69l54 307h84l-127 -720h-77l7 82q-29 -36 -75 -65t-115 -29zM271 61q57 0 101.5 31t70 83.5t25.5 115.5q0 65 -37 104.5t-102 39.5q-57 0 -102 -29t-70.5 -78.5
t-25.5 -112.5q0 -66 37.5 -110t102.5 -44z" />
    <glyph glyph-name="e" unicode="e" horiz-adv-x="568" 
d="M246 -12q-92 0 -147.5 57t-55.5 153q0 86 38 156.5t104.5 112t151.5 41.5q65 0 109.5 -25.5t67 -68.5t22.5 -95q0 -20 -4.5 -45.5t-8.5 -44.5h-396q-2 -17 -2 -30q0 -71 40 -105.5t94 -34.5q52 0 91.5 24.5t61.5 64.5h83q-31 -69 -96 -114.5t-153 -45.5zM326 437
q-60 0 -113 -36.5t-73 -106.5h312q1 6 1.5 11.5t0.5 10.5q0 57 -35 89t-93 32z" />
    <glyph glyph-name="f" unicode="f" horiz-adv-x="334" 
d="M52 0l75 425h-74l12 71h74l15 86q13 72 55 105t112 33h49l-13 -72h-36q-38 0 -57 -15.5t-26 -52.5l-15 -84h123l-13 -71h-122l-75 -425h-84z" />
    <glyph glyph-name="g" unicode="g" horiz-adv-x="550" 
d="M244 156q-44 0 -78 12l-49 -38q22 -14 50 -22t82 -12q70 -5 109.5 -25t55.5 -49.5t16 -61.5q0 -55 -32 -98.5t-89 -68.5t-131 -25q-91 0 -148 36.5t-57 104.5q0 47 25.5 85.5t74.5 68.5q-35 16 -57 40l4 24l93 74q-39 38 -39 98q0 59 31 106.5t83.5 75t117.5 27.5
q43 0 76 -12h183l-12 -62l-93 -4q14 -29 14 -65q0 -59 -30.5 -106.5t-82.5 -75t-117 -27.5zM256 225q61 0 99.5 36.5t38.5 94.5q0 39 -27 61t-73 22q-61 0 -99.5 -36.5t-38.5 -94.5q0 -40 26.5 -61.5t73.5 -21.5zM58 -75q0 -41 35 -64.5t97 -23.5q68 0 112 31t44 84
q0 28 -22 49.5t-87 26.5q-54 3 -96 13q-83 -46 -83 -116z" />
    <glyph glyph-name="h" unicode="h" horiz-adv-x="573" 
d="M26 0l126 720h84l-54 -309q32 45 81.5 71t104.5 26q87 0 130.5 -53.5t23.5 -164.5l-51 -290h-84l49 281q27 155 -100 155q-64 0 -115 -46.5t-66 -132.5v0l-45 -257h-84z" />
    <glyph glyph-name="i" unicode="i" horiz-adv-x="241" 
d="M194 606q-25 0 -41.5 16t-16.5 41t16.5 41t41.5 16q24 0 41 -16t17 -41t-17 -41t-41 -16zM35 0l87 496h84l-87 -496h-84z" />
    <glyph glyph-name="j" unicode="j" horiz-adv-x="242" 
d="M192 606q-25 0 -41.5 16t-16.5 41t16.5 41t41.5 16q24 0 40.5 -16t16.5 -41t-16.5 -41t-40.5 -16zM-116 -220l13 72h38q37 0 56.5 15.5t25.5 52.5l102 576h84l-102 -578q-12 -72 -54.5 -105t-111.5 -33h-51z" />
    <glyph glyph-name="k" unicode="k" horiz-adv-x="512" 
d="M25 0l128 720h84l-77 -433l240 209h111l-267 -223l209 -273h-102l-196 261l-46 -261h-84z" />
    <glyph glyph-name="l" unicode="l" horiz-adv-x="223" 
d="M25 0l128 720h84l-128 -720h-84z" />
    <glyph glyph-name="m" unicode="m" horiz-adv-x="885" 
d="M26 0l87 496h75l-7 -81q29 43 72 68t93 25q55 0 95 -25t55 -76q32 47 81.5 74t101.5 27q55 0 94.5 -23.5t57 -72t3.5 -122.5l-51 -290h-84l49 281q14 77 -10.5 116t-78.5 39q-53 0 -99 -41.5t-65 -119.5l-49 -275h-83l49 281q13 77 -11.5 116t-78.5 39
q-55 0 -103.5 -46.5t-63.5 -132.5v0l-45 -257h-84z" />
    <glyph glyph-name="n" unicode="n" horiz-adv-x="573" 
d="M26 0l87 496h76l-10 -90q32 48 82 75t107 27q74 0 117 -41.5t43 -118.5q0 -14 -1.5 -28.5t-4.5 -29.5l-51 -290h-84l49 281q2 13 3.5 25t1.5 23q0 107 -105 107q-63 0 -112.5 -44t-66.5 -126l-47 -266h-84z" />
    <glyph glyph-name="o" unicode="o" horiz-adv-x="593" 
d="M255 -12q-62 0 -110 28t-75 77t-27 111q0 66 23 121t63 96t93 64t115 23t110 -27t75 -75t27 -111q0 -65 -22.5 -121t-63 -97.5t-93.5 -65t-115 -23.5zM266 60q56 0 100.5 30t70.5 82t26 117q0 70 -40.5 108.5t-96.5 38.5q-55 0 -99 -30t-70 -82t-26 -117
q0 -47 18.5 -79.5t49.5 -50t67 -17.5z" />
    <glyph glyph-name="p" unicode="p" horiz-adv-x="620" 
d="M-14 -220l127 716h78l-8 -82q31 39 76.5 66.5t112.5 27.5q64 0 110 -28t70.5 -76t24.5 -109q0 -87 -37.5 -156.5t-102.5 -110t-147 -40.5q-40 0 -73.5 14t-57 36t-34.5 46l-55 -304h-84zM295 61q57 0 101 29t69 79t25 114q0 66 -37.5 109t-101.5 43q-57 0 -102 -30
t-71 -81.5t-26 -114.5q0 -67 39 -107.5t104 -40.5z" />
    <glyph glyph-name="q" unicode="q" horiz-adv-x="621" 
d="M385 -220l52 302q-29 -36 -75 -65t-115 -29q-64 0 -109.5 29.5t-69.5 79.5t-24 110q0 88 37.5 155.5t101.5 106.5t143 39q66 0 108 -26t62 -69l23 83h76l-126 -716h-84zM271 61q57 0 101.5 31t70 83.5t25.5 115.5q0 65 -37 104.5t-102 39.5q-57 0 -102 -29t-70.5 -78.5
t-25.5 -112.5q0 -66 37.5 -110t102.5 -44z" />
    <glyph glyph-name="r" unicode="r" horiz-adv-x="369" 
d="M26 0l87 496h77l-9 -88q32 46 84.5 73t119.5 27l-15 -88h-23q-45 0 -84.5 -14t-67.5 -47.5t-38 -91.5l-47 -267h-84z" />
    <glyph glyph-name="s" unicode="s" horiz-adv-x="514" 
d="M217 -12q-93 0 -145 47.5t-45 128.5h85q-2 -42 25 -73.5t92 -31.5q53 0 85 23.5t32 65.5q0 33 -29.5 48t-78.5 25q-37 8 -72 22.5t-58.5 40.5t-23.5 66q0 45 26 80.5t71.5 56.5t103.5 21q79 0 126.5 -39.5t43.5 -112.5h-84q2 37 -23.5 59t-71.5 22t-75.5 -21.5
t-29.5 -52.5q0 -30 28.5 -45t76.5 -26q41 -9 77 -24t58.5 -41t22.5 -68q0 -52 -28 -90.5t-77 -59.5t-112 -21z" />
    <glyph glyph-name="t" unicode="t" horiz-adv-x="370" 
d="M205 0q-62 0 -96 24.5t-34 83.5q0 10 1 21.5t3 24.5l48 271h-77l13 71h77l32 119h74l-22 -119h147l-13 -71h-146l-49 -271q-2 -16 -2 -28q0 -31 16.5 -42.5t53.5 -11.5h65l-13 -72h-78z" />
    <glyph glyph-name="u" unicode="u" horiz-adv-x="573" 
d="M205 -12q-75 0 -117.5 41.5t-42.5 118.5q0 14 1 28.5t4 29.5l52 290h84l-50 -281q-2 -13 -3.5 -25t-1.5 -23q0 -107 105 -107q63 0 113 44t67 126l47 266h84l-87 -496h-76l10 90q-32 -48 -82 -75t-107 -27z" />
    <glyph glyph-name="v" unicode="v" horiz-adv-x="530" 
d="M171 0l-108 496h87l85 -416l230 416h89l-284 -496h-99z" />
    <glyph glyph-name="w" unicode="w" horiz-adv-x="745" 
d="M122 0l-59 496h85l36 -389l185 389h95l47 -389l174 389h84l-232 -496h-86l-50 409l-194 -409h-85z" />
    <glyph glyph-name="x" unicode="x" horiz-adv-x="499" 
d="M-24 0l218 251l-127 245h87l104 -205l175 205h90l-217 -251l126 -245h-86l-104 205l-175 -205h-91z" />
    <glyph glyph-name="y" unicode="y" horiz-adv-x="555" 
d="M41 -220l169 268h-28l-119 448h89l99 -386l241 386h88l-451 -716h-88z" />
    <glyph glyph-name="z" unicode="z" horiz-adv-x="454" 
d="M-14 0l13 69l348 357h-270l13 70h366l-13 -69l-349 -357h280l-13 -70h-375z" />
    <glyph glyph-name="braceleft" unicode="{" horiz-adv-x="425" 
d="M250 -152q-60 0 -94.5 28.5t-34.5 85.5q0 43 15 85.5t30.5 82.5t15.5 78q0 30 -19.5 53.5t-67.5 34.5l12 68q66 13 98 53.5t32 134.5q0 13 -0.5 23.5t-0.5 21.5q0 105 49 159.5t134 54.5h53l-13 -72h-38q-25 0 -48.5 -9t-39 -37.5t-16.5 -86.5q0 -15 0.5 -30.5
t-1.5 -34.5q0 -68 -19 -111.5t-50.5 -67t-72.5 -31.5v-2q47 -11 68.5 -40t21.5 -68q0 -46 -15 -89t-29.5 -81.5t-14.5 -69.5q0 -36 21 -48.5t51 -12.5h38l-12 -72h-53z" />
    <glyph glyph-name="bar" unicode="|" horiz-adv-x="233" 
d="M13 -100l145 820h84l-145 -820h-84z" />
    <glyph glyph-name="braceright" unicode="}" horiz-adv-x="425" 
d="M-18 -152l13 72h38q25 0 48.5 9.5t39 37.5t15.5 86q1 15 0.5 31t0.5 34q1 69 19.5 112t50.5 66.5t73 32.5v2q-48 11 -69 39.5t-21 68.5q0 45 15 88.5t29.5 81.5t14.5 69q0 36 -21 48.5t-51 12.5h-38l12 72h53q60 0 94.5 -28.5t34.5 -84.5q0 -44 -15.5 -86.5t-30.5 -82.5
t-15 -77q0 -30 19.5 -54t67.5 -35l-12 -68q-66 -13 -98 -53.5t-32 -134.5v-23.5v-21.5q0 -105 -49 -159.5t-133 -54.5h-53z" />
    <glyph glyph-name="asciitilde" unicode="~" horiz-adv-x="512" 
d="M338 249q-29 0 -49 10t-36 23t-33 23t-39 10q-26 0 -47 -18t-32 -47h-63q26 72 67 106.5t94 34.5q29 0 49 -10t36.5 -23t33.5 -23t38 -10q26 0 47.5 18t31.5 48h63q-25 -72 -67 -107t-94 -35z" />
    <glyph glyph-name="uni00A0" unicode="&#xa0;" horiz-adv-x="286" 
 />
    <glyph glyph-name="exclamdown" unicode="&#xa1;" horiz-adv-x="250" 
d="M170 448q-24 0 -40.5 16.5t-16.5 40.5t16.5 41t40.5 17q25 0 41.5 -17t16.5 -41t-16.5 -40.5t-41.5 -16.5zM19 -143l100 506h71l-80 -506h-91z" />
    <glyph glyph-name="cent" unicode="&#xa2;" horiz-adv-x="569" 
d="M193 -101l16 92q-75 13 -120.5 68.5t-45.5 139.5q0 81 34 147t92 107.5t131 51.5l16 95h82l-17 -95q73 -10 114.5 -55t42.5 -116h-86q0 51 -36 76.5t-87 25.5q-55 0 -100 -29.5t-72 -81t-27 -117.5q0 -71 39 -110t94 -39q51 0 95.5 26t63.5 77h86q-25 -68 -83 -114.5
t-135 -56.5l-16 -92h-81z" />
    <glyph glyph-name="sterling" unicode="&#xa3;" horiz-adv-x="594" 
d="M41 0l9 49q54 51 85 104t31 124q0 16 -2 33h-115l11 59h94q-4 21 -7 42t-3 45q0 76 31.5 133.5t87.5 90t130 32.5q95 0 142 -50t47 -123q0 -8 -0.5 -16t-1.5 -16h-77q0 6 0.5 12t0.5 12q0 49 -29.5 80t-87.5 31q-78 0 -121.5 -51.5t-43.5 -128.5q0 -24 3.5 -47t8.5 -46
h193l-10 -59h-173q1 -16 1 -30q0 -64 -30 -116.5t-78 -94.5h365l-12 -69h-449z" />
    <glyph glyph-name="currency" unicode="&#xa4;" horiz-adv-x="532" 
d="M75 92l-31 38l73 62q-20 36 -20 80q0 42 14.5 77t39.5 61l-47 56l44 38l49 -59q49 28 109 28q56 0 95 -32l73 63l32 -38l-73 -61q20 -34 20 -78q0 -41 -14.5 -76.5t-39.5 -62.5l47 -58l-44 -38l-48 59q-51 -30 -110 -30q-29 0 -53 9t-43 24zM255 186q33 0 60 18
t42.5 48.5t15.5 68.5q0 44 -24 66t-55 22q-49 0 -83 -38.5t-34 -97.5q0 -43 23 -65t55 -22z" />
    <glyph glyph-name="yen" unicode="&#xa5;" horiz-adv-x="598" 
d="M43 167l11 61h200l7 38l-18 52l-173 1l10 60h141l-112 321h95l112 -356l238 356h95l-225 -321h140l-10 -60l-173 -1l-36 -52l-7 -38h200l-11 -61h-200l-30 -167h-84l30 167h-200z" />
    <glyph glyph-name="brokenbar" unicode="&#xa6;" horiz-adv-x="233" 
d="M99 387l59 333h84l-59 -333h-84zM13 -100l59 333h84l-59 -333h-84z" />
    <glyph glyph-name="section" unicode="&#xa7;" horiz-adv-x="596" 
d="M221 -232q-67 0 -114.5 25t-70 69t-12.5 100h87q-5 -29 5.5 -57.5t37.5 -46.5t73 -18q44 -1 78 16.5t54 48t20 68.5q0 36 -23.5 55.5t-64 34t-92.5 32.5q-62 23 -103 61.5t-41 105.5q0 49 22 90.5t62 75.5q-14 26 -14 59q0 64 31.5 115t87.5 80.5t129 29.5q66 0 114 -25
t70.5 -69t12.5 -100h-87q5 29 -5.5 57.5t-38 46.5t-72.5 18q-44 1 -78 -16.5t-54.5 -48t-20.5 -68.5q0 -36 24.5 -56t65.5 -34t91 -32q39 -14 72 -36t52.5 -53.5t19.5 -77.5q0 -49 -22 -91.5t-62 -74.5q19 -37 11 -86q-8 -58 -39.5 -102.5t-84 -70t-121.5 -25.5zM403 104
q21 18 33.5 44t12.5 57q0 33 -16 53.5t-43 34.5t-60.5 25t-68.5 24q-21 7 -38.5 16t-31.5 18q-18 -15 -32 -41t-14 -60q0 -41 25 -64t67.5 -38.5t94.5 -34.5q24 -9 39 -16t32 -18z" />
    <glyph glyph-name="dieresis" unicode="&#xa8;" horiz-adv-x="323" 
d="M308 571q-21 0 -35.5 14.5t-14.5 35.5q0 20 14.5 35t35.5 15t35 -15t14 -35q0 -21 -14 -35.5t-35 -14.5zM148 571q-21 0 -35.5 14.5t-14.5 35.5q0 20 14.5 35t35.5 15q20 0 35 -15t15 -35q0 -21 -15 -35.5t-35 -14.5z" />
    <glyph glyph-name="copyright" unicode="&#xa9;" horiz-adv-x="794" 
d="M347 -4q-91 0 -156 37.5t-100.5 103.5t-35.5 150q0 87 31.5 163t88.5 133t132.5 89t163.5 32q90 0 155 -37.5t100.5 -102.5t35.5 -149q0 -87 -31.5 -163.5t-88 -134t-132 -89.5t-163.5 -32zM353 32q82 0 149.5 29t116.5 81t76 121t27 149q0 74 -30 132t-87.5 91.5
t-139.5 33.5q-81 0 -149 -29t-117.5 -81t-76.5 -121t-27 -148q0 -75 30.5 -133.5t88 -91.5t139.5 -33zM367 119q-77 0 -128.5 47.5t-51.5 133.5q0 57 19.5 108t55 90.5t83.5 62t105 22.5q74 0 123 -39.5t54 -113.5h-76q-6 45 -36.5 68.5t-75.5 23.5q-54 0 -94 -31t-61.5 -80
t-21.5 -105q0 -63 32.5 -95t83.5 -32q47 0 85 23.5t60 67.5h76q-31 -70 -94 -110.5t-138 -40.5z" />
    <glyph glyph-name="ordfeminine" unicode="&#xaa;" horiz-adv-x="448" 
d="M211 350q-62 0 -99.5 39.5t-37.5 103.5q0 59 26.5 108.5t71.5 80t102 30.5q51 0 81.5 -23t38.5 -61l20 78h60l-61 -350h-60l7 77q-22 -37 -60 -60t-89 -23zM237 403q42 0 74 22t50 58t18 77q0 47 -27 73t-70 26q-39 0 -70.5 -21.5t-50 -57.5t-18.5 -78q0 -47 27 -73
t67 -26z" />
    <glyph glyph-name="guillemotleft" unicode="&#xab;" horiz-adv-x="453" 
d="M292 120l-66 175l128 175h83l-131 -175l69 -175h-83zM114 120l-66 175l128 175h83l-131 -175l70 -175h-84z" />
    <glyph glyph-name="logicalnot" unicode="&#xac;" horiz-adv-x="672" 
d="M527 223l25 142h-486l12 67h569l-37 -209h-83z" />
    <glyph glyph-name="uni00AD" unicode="&#xad;" horiz-adv-x="600" 
d="M61 255l12 71h396l-12 -71h-396z" />
    <glyph glyph-name="registered" unicode="&#xae;" horiz-adv-x="504" 
d="M257 307q-59 0 -99.5 26t-57.5 72t-7 104t44 104t84 72.5t108 26.5q59 0 99.5 -26.5t58 -72.5t6.5 -104q-10 -58 -44 -104t-83.5 -72t-108.5 -26zM264 343q48 0 88.5 21.5t67 59t35.5 85.5q12 73 -24 119.5t-109 46.5q-49 0 -88.5 -21.5t-66 -59t-35.5 -85.5
q-13 -73 22.5 -119.5t109.5 -46.5zM195 403l38 215h95q33 0 50 -17.5t12 -48.5q-5 -24 -21 -40.5t-40 -22.5l41 -85l-54 -1l-38 84h-21l-14 -84h-48zM264 526h43q13 0 22.5 6t11.5 19q2 12 -5 18t-20 6h-43z" />
    <glyph glyph-name="macron" unicode="&#xaf;" horiz-adv-x="392" 
d="M82 592l12 63h347l-10 -63h-349z" />
    <glyph glyph-name="degree" unicode="&#xb0;" horiz-adv-x="348" 
d="M231 444q-53 0 -92 36t-39 97q0 41 18 71.5t48.5 47t65.5 16.5q54 0 93 -36.5t39 -98.5q0 -40 -18.5 -70t-48.5 -46.5t-66 -16.5zM231 506q25 0 46 18t21 54t-20.5 54t-45.5 18q-24 0 -45.5 -18t-21.5 -54t21 -54t45 -18z" />
    <glyph glyph-name="plusminus" unicode="&#xb1;" horiz-adv-x="603" 
d="M242 125l25 141h-200l13 71h199l25 141h76l-25 -141h200l-13 -71h-200l-25 -141h-75zM20 0l14 73h474l-13 -73h-475z" />
    <glyph glyph-name="uni00B2" unicode="&#xb2;" horiz-adv-x="330" 
d="M47 352l8 48l129 92q33 24 57 49t30 59q5 30 -8 44.5t-36 14.5q-54 0 -71 -59h-67q11 46 49.5 78t100.5 32q57 0 84 -31.5t19 -75.5q-8 -41 -37.5 -72t-82.5 -65l-91 -60h181l-10 -54h-255z" />
    <glyph glyph-name="uni00B3" unicode="&#xb3;" horiz-adv-x="330" 
d="M173 347q-60 0 -90.5 27.5t-25.5 79.5h66q-1 -32 15 -44t42 -12q30 0 50 14.5t24 39.5q5 27 -11.5 41.5t-46.5 14.5h-46l8 41h45q29 0 49.5 14t25.5 41q5 25 -9 39.5t-43 14.5t-47.5 -12.5t-27.5 -34.5h-63q12 42 51.5 70.5t100.5 28.5q55 0 86.5 -29t23.5 -73
q-5 -31 -26 -51t-52 -28l-1 -2q28 -9 43.5 -29.5t9.5 -53.5q-7 -40 -47.5 -68.5t-103.5 -28.5z" />
    <glyph glyph-name="acute" unicode="&#xb4;" horiz-adv-x="255" 
d="M74 537l10 63l233 127l-13 -73z" />
    <glyph glyph-name="uni00B5" unicode="&#xb5;" horiz-adv-x="584" 
d="M-14 -220l127 716h84l-49 -281q-2 -13 -3.5 -25t-1.5 -23q0 -107 105 -107q62 0 112 44t67 126l47 266h84l-87 -496h-76l10 89q-32 -47 -82 -74t-107 -27q-65 0 -103 35l-43 -243h-84z" />
    <glyph glyph-name="paragraph" unicode="&#xb6;" horiz-adv-x="590" 
d="M225 -100l70 395h-10q-71 0 -116.5 26t-67 67.5t-21.5 87.5q0 73 35 123t97 75.5t144 25.5h240l-141 -800h-74l130 734h-83l-129 -734h-74z" />
    <glyph glyph-name="periodcentered" unicode="&#xb7;" horiz-adv-x="196" 
d="M115 285q-25 0 -41.5 16.5t-16.5 40.5q0 25 16.5 41t41.5 16t41 -16t16 -41q0 -24 -16 -40.5t-41 -16.5z" />
    <glyph glyph-name="cedilla" unicode="&#xb8;" horiz-adv-x="272" 
d="M-73 -259l9 53h92q76 0 76 52q0 41 -59 41h-50l21 120h57l-13 -70q51 1 82.5 -19.5t31.5 -64.5q0 -48 -39 -80t-97 -32h-111z" />
    <glyph glyph-name="uni00B9" unicode="&#xb9;" horiz-adv-x="204" 
d="M106 352l51 286l-70 -18l7 42l98 42h43l-62 -352h-67z" />
    <glyph glyph-name="ordmasculine" unicode="&#xba;" horiz-adv-x="433" 
d="M229 348q-70 0 -112.5 40t-42.5 106q0 60 29 109.5t78 79t109 29.5q70 0 113 -39.5t43 -105.5q0 -60 -29 -110t-78.5 -79.5t-109.5 -29.5zM237 401q42 0 73.5 22t49 59t17.5 80q0 49 -27.5 74t-67.5 25q-43 0 -74 -23.5t-48.5 -60.5t-17.5 -77q0 -49 27 -74t68 -25z" />
    <glyph glyph-name="guillemotright" unicode="&#xbb;" horiz-adv-x="452" 
d="M209 120l131 175l-69 175h83l66 -175l-128 -175h-83zM31 120l131 175l-69 175h83l66 -175l-128 -175h-83z" />
    <glyph glyph-name="onequarter" unicode="&#xbc;" horiz-adv-x="628" 
d="M125 352l50 286l-69 -18l7 42l98 42h43l-62 -352h-67zM15 0l493 700h80l-493 -700h-80zM425 0l13 70h-181l6 39l204 245h88l-42 -241h47l-7 -43h-48l-13 -70h-67zM331 114h116l32 178z" />
    <glyph glyph-name="onehalf" unicode="&#xbd;" horiz-adv-x="674" 
d="M125 352l50 286l-69 -18l7 42l98 42h43l-62 -352h-67zM7 0l487 700h81l-488 -700h-80zM386 -1l8 48l129 92q33 24 57.5 49t29.5 59q6 30 -7.5 44.5t-36.5 14.5q-54 0 -70 -59h-68q11 46 49.5 78t100.5 32q57 0 84 -31.5t19 -75.5q-7 -41 -37 -72t-83 -65l-91 -60h181
l-10 -54h-255z" />
    <glyph glyph-name="threequarters" unicode="&#xbe;" horiz-adv-x="685" 
d="M192 347q-61 0 -91 27.5t-26 79.5h67q-1 -32 15 -44t42 -12q30 0 50 14.5t24 39.5q5 27 -11.5 41.5t-46.5 14.5h-46l7 41h46q29 0 49.5 14t25.5 41q5 25 -9 39.5t-43 14.5t-47.5 -12.5t-27.5 -34.5h-63q11 42 50.5 70.5t101.5 28.5q55 0 86 -29t24 -73q-6 -31 -27 -51
t-51 -28l-1 -2q27 -9 42.5 -29.5t9.5 -53.5q-7 -40 -47.5 -68.5t-102.5 -28.5zM85 0l502 700h79l-501 -700h-80zM482 0l13 70h-182l7 39l202 245h89l-42 -241h48l-7 -43h-49l-13 -70h-66zM388 113h116l32 180z" />
    <glyph glyph-name="questiondown" unicode="&#xbf;" horiz-adv-x="516" 
d="M372 439q-25 0 -41 16.5t-16 40.5t16 41t41 17t41.5 -17t16.5 -41t-16.5 -40.5t-41.5 -16.5zM198 -164q-86 0 -137.5 47.5t-51.5 126.5q0 77 36.5 130.5t101 81.5t147.5 28l22 103h72l-24 -162h-30q-71 0 -125.5 -16t-86 -53.5t-31.5 -103.5q0 -49 32 -79.5t87 -30.5
q64 0 107.5 34.5t54.5 94.5h79q-10 -60 -45.5 -105.5t-89 -70.5t-118.5 -25z" />
    <glyph glyph-name="Agrave" unicode="&#xc0;" horiz-adv-x="664" 
d="M-14 0l382 700h89l133 -700h-87l-33 180h-298l-96 -180h-90zM207 246h251l-64 354zM449 741l-189 117l12 73l188 -127z" />
    <glyph glyph-name="Aacute" unicode="&#xc1;" horiz-adv-x="664" 
d="M-14 0l382 700h89l133 -700h-87l-33 180h-298l-96 -180h-90zM207 246h251l-64 354zM376 741l10 63l233 127l-13 -73z" />
    <glyph glyph-name="Acircumflex" unicode="&#xc2;" horiz-adv-x="664" 
d="M-14 0l382 700h89l133 -700h-87l-33 180h-298l-96 -180h-90zM207 246h251l-64 354zM285 758l12 65l152 82l122 -82l-12 -65l-122 84z" />
    <glyph glyph-name="Atilde" unicode="&#xc3;" horiz-adv-x="664" 
d="M-14 0l382 700h89l133 -700h-87l-33 180h-298l-96 -180h-90zM207 246h251l-64 354zM282 759q16 50 45.5 75.5t67.5 25.5q27 0 42 -12t29 -23.5t36 -11.5q16 0 30 11t21 34h49q-15 -49 -45.5 -75t-68.5 -26q-27 0 -43 12t-29.5 23.5t-34.5 11.5q-37 0 -50 -45h-49z" />
    <glyph glyph-name="Adieresis" unicode="&#xc4;" horiz-adv-x="664" 
d="M-14 0l382 700h89l133 -700h-87l-33 180h-298l-96 -180h-90zM207 246h251l-64 354zM515 775q-22 0 -36 14.5t-14 35.5q0 20 14 35t36 15q20 0 34.5 -15t14.5 -35q0 -21 -14.5 -35.5t-34.5 -14.5zM354 775q-21 0 -35.5 14.5t-14.5 35.5q0 20 14.5 35t35.5 15t35.5 -15
t14.5 -35q0 -21 -14.5 -35.5t-35.5 -14.5z" />
    <glyph glyph-name="Aring" unicode="&#xc5;" horiz-adv-x="664" 
d="M-14 0l382 700h89l133 -700h-87l-33 180h-298l-96 -180h-90zM207 246h251l-64 354zM442 761q-43 0 -74 27.5t-31 75.5t31 75.5t74 27.5q44 0 74.5 -27.5t30.5 -75.5t-30.5 -75.5t-74.5 -27.5zM442 804q24 0 40.5 16.5t16.5 43.5t-16.5 43t-40.5 16q-23 0 -40 -16t-17 -43
t17 -43.5t40 -16.5z" />
    <glyph glyph-name="AE" unicode="&#xc6;" horiz-adv-x="917" 
d="M-14 0l523 700h425l-12 -67h-289l-44 -247h259l-11 -66h-259l-44 -253h288l-12 -67h-373l28 159h-268l-119 -159h-92zM549 631l-303 -405h231z" />
    <glyph glyph-name="Ccedilla" unicode="&#xc7;" horiz-adv-x="722" 
d="M339 -12q-89 0 -151.5 35t-95.5 98t-33 147q0 94 30.5 175t85.5 141.5t128.5 94t159.5 33.5q120 0 186 -57.5t69 -160.5h-95q-2 67 -45 105.5t-127 38.5q-65 0 -120.5 -27.5t-96.5 -77t-64 -115.5t-23 -143q0 -101 54 -157t150 -56q84 0 139.5 38t81.5 103h95
q-39 -102 -124 -158.5t-204 -56.5zM223 -260l9 53h92q76 0 76 52q0 41 -59 41h-50l21 120h57l-13 -70q52 1 83 -19.5t31 -64.5q0 -48 -39 -80t-97 -32h-111z" />
    <glyph glyph-name="Egrave" unicode="&#xc8;" horiz-adv-x="542" 
d="M31 0l123 700h405l-13 -67h-320l-43 -247h290l-11 -66h-291l-44 -253h320l-12 -67h-404zM394 741l-189 117l12 73l188 -127z" />
    <glyph glyph-name="Eacute" unicode="&#xc9;" horiz-adv-x="542" 
d="M31 0l123 700h405l-13 -67h-320l-43 -247h290l-11 -66h-291l-44 -253h320l-12 -67h-404zM320 741l10 63l233 127l-13 -73z" />
    <glyph glyph-name="Ecircumflex" unicode="&#xca;" horiz-adv-x="542" 
d="M31 0l123 700h405l-13 -67h-320l-43 -247h290l-11 -66h-291l-44 -253h320l-12 -67h-404zM229 758l12 65l152 82l122 -82l-12 -65l-122 84z" />
    <glyph glyph-name="Edieresis" unicode="&#xcb;" horiz-adv-x="542" 
d="M31 0l123 700h405l-13 -67h-320l-43 -247h290l-11 -66h-291l-44 -253h320l-12 -67h-404zM460 775q-22 0 -36 14.5t-14 35.5q0 20 14 35t36 15q20 0 34.5 -15t14.5 -35q0 -21 -14.5 -35.5t-34.5 -14.5zM299 775q-21 0 -35.5 14.5t-14.5 35.5q0 20 14.5 35t35.5 15
t35.5 -15t14.5 -35q0 -21 -14.5 -35.5t-35.5 -14.5z" />
    <glyph glyph-name="Igrave" unicode="&#xcc;" horiz-adv-x="233" 
d="M31 0l123 700h84l-123 -700h-84zM232 741l-189 117l12 73l188 -127z" />
    <glyph glyph-name="Iacute" unicode="&#xcd;" horiz-adv-x="233" 
d="M31 0l123 700h84l-123 -700h-84zM158 741l10 63l233 127l-13 -73z" />
    <glyph glyph-name="Icircumflex" unicode="&#xce;" horiz-adv-x="233" 
d="M31 0l123 700h84l-123 -700h-84zM67 758l12 65l152 82l122 -82l-12 -65l-122 84z" />
    <glyph glyph-name="Idieresis" unicode="&#xcf;" horiz-adv-x="233" 
d="M31 0l123 700h84l-123 -700h-84zM298 775q-22 0 -36 14.5t-14 35.5q0 20 14 35t36 15q20 0 34.5 -15t14.5 -35q0 -21 -14.5 -35.5t-34.5 -14.5zM137 775q-21 0 -35.5 14.5t-14.5 35.5q0 20 14.5 35t35.5 15t35.5 -15t14.5 -35q0 -21 -14.5 -35.5t-35.5 -14.5z" />
    <glyph glyph-name="Eth" unicode="&#xd0;" horiz-adv-x="716" 
d="M46 0l55 311h-87l13 76h87l55 313h215q158 0 232.5 -73.5t74.5 -209.5q0 -123 -53 -217t-149.5 -147t-227.5 -53h-215zM143 70h129q105 0 179 42t113.5 118.5t39.5 180.5q0 107 -54.5 163t-179.5 56h-129l-43 -243h201l-13 -76h-201z" />
    <glyph glyph-name="Ntilde" unicode="&#xd1;" horiz-adv-x="690" 
d="M31 0l123 700h83l275 -567l99 567h84l-123 -700h-84l-273 567l-100 -567h-84zM294 759q16 50 45.5 75.5t67.5 25.5q27 0 42 -12t29 -23.5t36 -11.5q16 0 30 11t21 34h49q-15 -49 -45.5 -75t-68.5 -26q-27 0 -43 12t-29.5 23.5t-34.5 11.5q-37 0 -50 -45h-49z" />
    <glyph glyph-name="Ograve" unicode="&#xd2;" horiz-adv-x="795" 
d="M353 -12q-87 0 -153 38.5t-102.5 106t-36.5 153.5q0 89 32.5 166t90 135.5t133.5 91.5t161 33q87 0 152.5 -38t102.5 -105t37 -154q0 -89 -32.5 -166.5t-90.5 -136t-133.5 -91.5t-160.5 -33zM365 62q65 0 123 27t101.5 74.5t68.5 111t25 136.5q0 70 -27.5 120.5t-76.5 78
t-113 27.5q-66 0 -123.5 -26.5t-101.5 -74t-68.5 -110t-24.5 -135.5q0 -70 27.5 -121.5t76.5 -79.5t113 -28zM515 741l-189 117l12 73l188 -127z" />
    <glyph glyph-name="Oacute" unicode="&#xd3;" horiz-adv-x="795" 
d="M353 -12q-87 0 -153 38.5t-102.5 106t-36.5 153.5q0 89 32.5 166t90 135.5t133.5 91.5t161 33q87 0 152.5 -38t102.5 -105t37 -154q0 -89 -32.5 -166.5t-90.5 -136t-133.5 -91.5t-160.5 -33zM365 62q65 0 123 27t101.5 74.5t68.5 111t25 136.5q0 70 -27.5 120.5t-76.5 78
t-113 27.5q-66 0 -123.5 -26.5t-101.5 -74t-68.5 -110t-24.5 -135.5q0 -70 27.5 -121.5t76.5 -79.5t113 -28zM441 741l10 63l233 127l-13 -73z" />
    <glyph glyph-name="Ocircumflex" unicode="&#xd4;" horiz-adv-x="795" 
d="M353 -12q-87 0 -153 38.5t-102.5 106t-36.5 153.5q0 89 32.5 166t90 135.5t133.5 91.5t161 33q87 0 152.5 -38t102.5 -105t37 -154q0 -89 -32.5 -166.5t-90.5 -136t-133.5 -91.5t-160.5 -33zM365 62q65 0 123 27t101.5 74.5t68.5 111t25 136.5q0 70 -27.5 120.5t-76.5 78
t-113 27.5q-66 0 -123.5 -26.5t-101.5 -74t-68.5 -110t-24.5 -135.5q0 -70 27.5 -121.5t76.5 -79.5t113 -28zM350 758l12 65l152 82l122 -82l-12 -65l-122 84z" />
    <glyph glyph-name="Otilde" unicode="&#xd5;" horiz-adv-x="795" 
d="M353 -12q-87 0 -153 38.5t-102.5 106t-36.5 153.5q0 89 32.5 166t90 135.5t133.5 91.5t161 33q87 0 152.5 -38t102.5 -105t37 -154q0 -89 -32.5 -166.5t-90.5 -136t-133.5 -91.5t-160.5 -33zM365 62q65 0 123 27t101.5 74.5t68.5 111t25 136.5q0 70 -27.5 120.5t-76.5 78
t-113 27.5q-66 0 -123.5 -26.5t-101.5 -74t-68.5 -110t-24.5 -135.5q0 -70 27.5 -121.5t76.5 -79.5t113 -28zM347 759q16 50 45.5 75.5t67.5 25.5q27 0 42 -12t29 -23.5t36 -11.5q16 0 30 11t21 34h49q-15 -49 -45.5 -75t-68.5 -26q-27 0 -43 12t-29.5 23.5t-34.5 11.5
q-37 0 -50 -45h-49z" />
    <glyph glyph-name="Odieresis" unicode="&#xd6;" horiz-adv-x="795" 
d="M353 -12q-87 0 -153 38.5t-102.5 106t-36.5 153.5q0 89 32.5 166t90 135.5t133.5 91.5t161 33q87 0 152.5 -38t102.5 -105t37 -154q0 -89 -32.5 -166.5t-90.5 -136t-133.5 -91.5t-160.5 -33zM365 62q65 0 123 27t101.5 74.5t68.5 111t25 136.5q0 70 -27.5 120.5t-76.5 78
t-113 27.5q-66 0 -123.5 -26.5t-101.5 -74t-68.5 -110t-24.5 -135.5q0 -70 27.5 -121.5t76.5 -79.5t113 -28zM580 775q-22 0 -36 14.5t-14 35.5q0 20 14 35t36 15q20 0 34.5 -15t14.5 -35q0 -21 -14.5 -35.5t-34.5 -14.5zM419 775q-21 0 -35.5 14.5t-14.5 35.5q0 20 14.5 35
t35.5 15t35.5 -15t14.5 -35q0 -21 -14.5 -35.5t-35.5 -14.5z" />
    <glyph glyph-name="multiply" unicode="&#xd7;" horiz-adv-x="495" 
d="M88 106l-42 50l158 135l-106 129l58 48l107 -129l159 137l41 -50l-160 -137l107 -129l-58 -48l-106 129z" />
    <glyph glyph-name="Oslash" unicode="&#xd8;" horiz-adv-x="787" 
d="M-5 0l114 108q-25 36 -38.5 81.5t-13.5 96.5q0 89 33 166t90.5 135.5t133 91.5t161.5 33q60 0 110.5 -19t88.5 -53l64 60h89l-112 -106q25 -36 38.5 -81.5t13.5 -97.5q0 -89 -33 -166.5t-90.5 -136t-133 -91.5t-161.5 -33q-60 0 -110.5 19t-88.5 54l-65 -61h-90zM144 291
q0 -70 29 -123l440 414q-59 55 -150 55q-66 0 -124 -26.5t-101.5 -74t-68.5 -110t-25 -135.5zM361 62q66 0 123.5 27t101.5 74.5t69 111t25 136.5q0 70 -29 123l-440 -416q59 -56 150 -56z" />
    <glyph glyph-name="Ugrave" unicode="&#xd9;" horiz-adv-x="667" 
d="M281 -12q-63 0 -112 21.5t-77.5 66.5t-28.5 114q0 32 6 68l79 442h84l-79 -442q-6 -30 -6 -55q0 -73 40.5 -106t107.5 -33q78 0 134.5 46t74.5 148l79 442h84l-78 -442q-16 -93 -61.5 -153t-110 -88.5t-136.5 -28.5zM443 741l-189 117l12 73l188 -127z" />
    <glyph glyph-name="Uacute" unicode="&#xda;" horiz-adv-x="667" 
d="M281 -12q-63 0 -112 21.5t-77.5 66.5t-28.5 114q0 32 6 68l79 442h84l-79 -442q-6 -30 -6 -55q0 -73 40.5 -106t107.5 -33q78 0 134.5 46t74.5 148l79 442h84l-78 -442q-16 -93 -61.5 -153t-110 -88.5t-136.5 -28.5zM369 741l10 63l233 127l-13 -73z" />
    <glyph glyph-name="Ucircumflex" unicode="&#xdb;" horiz-adv-x="667" 
d="M281 -12q-63 0 -112 21.5t-77.5 66.5t-28.5 114q0 32 6 68l79 442h84l-79 -442q-6 -30 -6 -55q0 -73 40.5 -106t107.5 -33q78 0 134.5 46t74.5 148l79 442h84l-78 -442q-16 -93 -61.5 -153t-110 -88.5t-136.5 -28.5zM278 758l12 65l152 82l122 -82l-12 -65l-122 84z" />
    <glyph glyph-name="Udieresis" unicode="&#xdc;" horiz-adv-x="667" 
d="M281 -12q-63 0 -112 21.5t-77.5 66.5t-28.5 114q0 32 6 68l79 442h84l-79 -442q-6 -30 -6 -55q0 -73 40.5 -106t107.5 -33q78 0 134.5 46t74.5 148l79 442h84l-78 -442q-16 -93 -61.5 -153t-110 -88.5t-136.5 -28.5zM508 775q-22 0 -36 14.5t-14 35.5q0 20 14 35t36 15
q20 0 34.5 -15t14.5 -35q0 -21 -14.5 -35.5t-34.5 -14.5zM347 775q-21 0 -35.5 14.5t-14.5 35.5q0 20 14.5 35t35.5 15t35.5 -15t14.5 -35q0 -21 -14.5 -35.5t-35.5 -14.5z" />
    <glyph glyph-name="Yacute" unicode="&#xdd;" horiz-adv-x="579" 
d="M198 0l47 266l-152 434h96l112 -354l238 354h94l-304 -434l-47 -266h-84zM326 741l10 63l233 127l-13 -73z" />
    <glyph glyph-name="Thorn" unicode="&#xde;" horiz-adv-x="582" 
d="M31 0l123 700h84l-25 -146h146q107 0 157 -49t50 -122q0 -72 -35 -125t-98 -82t-146 -29h-146l-26 -147h-84zM153 217h145q86 0 133.5 44t47.5 121q0 50 -31.5 76t-102.5 26h-144z" />
    <glyph glyph-name="germandbls" unicode="&#xdf;" horiz-adv-x="669" 
d="M397 -10q-87 0 -134 49t-40 130h84q-5 -51 21.5 -82t78.5 -31t84.5 29t32.5 78q0 28 -20 47.5t-66 35.5q-66 24 -96.5 49t-30.5 65q0 33 18 55.5t45 40t53.5 34t45 38t18.5 53.5q0 36 -30.5 58t-86.5 22q-76 0 -117.5 -40t-54.5 -109l-91 -512h-84l93 520q10 61 44 109
t89.5 75.5t133.5 27.5q94 0 142 -40.5t48 -98.5q0 -41 -18 -68.5t-45 -47t-53.5 -34.5t-44.5 -30.5t-18 -35.5q0 -19 20 -34t81 -36q59 -21 85 -52.5t26 -82.5q0 -53 -27.5 -94t-75.5 -64.5t-110 -23.5z" />
    <glyph glyph-name="agrave" unicode="&#xe0;" horiz-adv-x="539" 
d="M186 -12q-56 0 -91 18.5t-52 49t-17 65.5q0 55 31 95t86.5 61.5t129.5 21.5h133l1 6q3 17 3 34q0 48 -27.5 73t-76.5 25q-48 0 -89 -24.5t-57 -71.5h-87q16 54 52.5 91t86.5 56.5t105 19.5q89 0 133.5 -42t44.5 -114q0 -11 -1 -23t-3 -24l-53 -305h-76l10 88
q-28 -42 -73.5 -71t-112.5 -29zM211 59q48 0 86.5 25t63.5 65t33 84v0v1h-126q-71 0 -111.5 -27.5t-40.5 -75.5q0 -34 24.5 -53t70.5 -19zM351 537l-189 117l12 73l188 -127z" />
    <glyph glyph-name="aacute" unicode="&#xe1;" horiz-adv-x="539" 
d="M186 -12q-56 0 -91 18.5t-52 49t-17 65.5q0 55 31 95t86.5 61.5t129.5 21.5h133l1 6q3 17 3 34q0 48 -27.5 73t-76.5 25q-48 0 -89 -24.5t-57 -71.5h-87q16 54 52.5 91t86.5 56.5t105 19.5q89 0 133.5 -42t44.5 -114q0 -11 -1 -23t-3 -24l-53 -305h-76l10 88
q-28 -42 -73.5 -71t-112.5 -29zM211 59q48 0 86.5 25t63.5 65t33 84v0v1h-126q-71 0 -111.5 -27.5t-40.5 -75.5q0 -34 24.5 -53t70.5 -19zM277 537l10 63l233 127l-13 -73z" />
    <glyph glyph-name="acircumflex" unicode="&#xe2;" horiz-adv-x="539" 
d="M186 -12q-56 0 -91 18.5t-52 49t-17 65.5q0 55 31 95t86.5 61.5t129.5 21.5h133l1 6q3 17 3 34q0 48 -27.5 73t-76.5 25q-48 0 -89 -24.5t-57 -71.5h-87q16 54 52.5 91t86.5 56.5t105 19.5q89 0 133.5 -42t44.5 -114q0 -11 -1 -23t-3 -24l-53 -305h-76l10 88
q-28 -42 -73.5 -71t-112.5 -29zM211 59q48 0 86.5 25t63.5 65t33 84v0v1h-126q-71 0 -111.5 -27.5t-40.5 -75.5q0 -34 24.5 -53t70.5 -19zM186 554l12 65l152 82l122 -82l-12 -65l-122 84z" />
    <glyph glyph-name="atilde" unicode="&#xe3;" horiz-adv-x="539" 
d="M186 -12q-56 0 -91 18.5t-52 49t-17 65.5q0 55 31 95t86.5 61.5t129.5 21.5h133l1 6q3 17 3 34q0 48 -27.5 73t-76.5 25q-48 0 -89 -24.5t-57 -71.5h-87q16 54 52.5 91t86.5 56.5t105 19.5q89 0 133.5 -42t44.5 -114q0 -11 -1 -23t-3 -24l-53 -305h-76l10 88
q-28 -42 -73.5 -71t-112.5 -29zM211 59q48 0 86.5 25t63.5 65t33 84v0v1h-126q-71 0 -111.5 -27.5t-40.5 -75.5q0 -34 24.5 -53t70.5 -19zM174 555q16 50 46 75.5t67 25.5q27 0 42.5 -12t29 -23.5t35.5 -11.5q16 0 30 11t21 34h49q-14 -49 -45 -75t-69 -26q-27 0 -43 12
t-29.5 23.5t-33.5 11.5q-37 0 -51 -45h-49z" />
    <glyph glyph-name="adieresis" unicode="&#xe4;" horiz-adv-x="539" 
d="M186 -12q-56 0 -91 18.5t-52 49t-17 65.5q0 55 31 95t86.5 61.5t129.5 21.5h133l1 6q3 17 3 34q0 48 -27.5 73t-76.5 25q-48 0 -89 -24.5t-57 -71.5h-87q16 54 52.5 91t86.5 56.5t105 19.5q89 0 133.5 -42t44.5 -114q0 -11 -1 -23t-3 -24l-53 -305h-76l10 88
q-28 -42 -73.5 -71t-112.5 -29zM211 59q48 0 86.5 25t63.5 65t33 84v0v1h-126q-71 0 -111.5 -27.5t-40.5 -75.5q0 -34 24.5 -53t70.5 -19zM416 571q-21 0 -35.5 14.5t-14.5 35.5q0 20 14.5 35t35.5 15t35 -15t14 -35q0 -21 -14 -35.5t-35 -14.5zM256 571q-21 0 -35.5 14.5
t-14.5 35.5q0 20 14.5 35t35.5 15q20 0 35 -15t15 -35q0 -21 -15 -35.5t-35 -14.5z" />
    <glyph glyph-name="aring" unicode="&#xe5;" horiz-adv-x="539" 
d="M186 -12q-56 0 -91 18.5t-52 49t-17 65.5q0 55 31 95t86.5 61.5t129.5 21.5h133l1 6q3 17 3 34q0 48 -27.5 73t-76.5 25q-48 0 -89 -24.5t-57 -71.5h-87q16 54 52.5 91t86.5 56.5t105 19.5q89 0 133.5 -42t44.5 -114q0 -11 -1 -23t-3 -24l-53 -305h-76l10 88
q-28 -42 -73.5 -71t-112.5 -29zM211 59q48 0 86.5 25t63.5 65t33 84v0v1h-126q-71 0 -111.5 -27.5t-40.5 -75.5q0 -34 24.5 -53t70.5 -19zM343 557q-42 0 -73.5 27.5t-31.5 75.5t31.5 75.5t73.5 27.5q44 0 74.5 -27.5t30.5 -75.5t-30.5 -75.5t-74.5 -27.5zM343 600
q24 0 41 16.5t17 43.5t-17 43t-41 16q-23 0 -39.5 -16t-16.5 -43t16.5 -43.5t39.5 -16.5z" />
    <glyph glyph-name="ae" unicode="&#xe6;" horiz-adv-x="926" 
d="M189 -12q-83 0 -123 38t-40 92q0 55 30.5 95.5t84 63t123.5 22.5h150q4 22 4 40q0 48 -27.5 73t-75.5 25q-49 0 -89.5 -24.5t-57.5 -71.5h-86q15 54 53 91t88.5 56.5t103.5 19.5q65 0 106 -23.5t57 -66.5q39 42 93 66t116 24q63 0 107 -25.5t66.5 -68.5t22.5 -95
q0 -13 -3 -32.5t-6 -36t-4 -21.5h-395q-3 -15 -3 -30q0 -70 40 -105t94 -35q56 0 98 28t66 76h82q-22 -50 -59 -89.5t-87.5 -62.5t-112.5 -23q-68 0 -117 32.5t-70 88.5q-34 -50 -94 -85.5t-135 -35.5zM499 294h312q1 6 1.5 11.5t0.5 10.5q0 57 -35.5 89t-92.5 32
q-61 0 -113.5 -36.5t-72.5 -106.5zM210 59q45 0 83 21.5t65.5 55.5t38.5 73l4 25h-142q-64 0 -104 -26.5t-40 -76.5q0 -32 25 -52t70 -20z" />
    <glyph glyph-name="ccedilla" unicode="&#xe7;" horiz-adv-x="569" 
d="M250 -12q-61 0 -108 26.5t-73 74t-26 110.5q0 66 23 122.5t64 98.5t95 65t116 23q90 0 143 -47t54 -127h-86q0 51 -36 76.5t-87 25.5q-55 0 -100 -29.5t-72 -81t-27 -117.5q0 -71 39 -110t94 -39q51 0 95.5 26t63.5 77h86q-19 -51 -57 -90.5t-89.5 -61.5t-111.5 -22z
M136 -260l9 53h92q76 0 76 52q0 41 -59 41h-50l21 120h57l-13 -70q51 1 82.5 -19.5t31.5 -64.5q0 -48 -39 -80t-97 -32h-111z" />
    <glyph glyph-name="egrave" unicode="&#xe8;" horiz-adv-x="568" 
d="M246 -12q-92 0 -147.5 57t-55.5 153q0 86 38 156.5t104.5 112t151.5 41.5q65 0 109.5 -25.5t67 -68.5t22.5 -95q0 -20 -4.5 -45.5t-8.5 -44.5h-396q-2 -17 -2 -30q0 -71 40 -105.5t94 -34.5q52 0 91.5 24.5t61.5 64.5h83q-31 -69 -96 -114.5t-153 -45.5zM326 437
q-60 0 -113 -36.5t-73 -106.5h312q1 6 1.5 11.5t0.5 10.5q0 57 -35 89t-93 32zM372 537l-189 117l12 73l188 -127z" />
    <glyph glyph-name="eacute" unicode="&#xe9;" horiz-adv-x="568" 
d="M246 -12q-92 0 -147.5 57t-55.5 153q0 86 38 156.5t104.5 112t151.5 41.5q65 0 109.5 -25.5t67 -68.5t22.5 -95q0 -20 -4.5 -45.5t-8.5 -44.5h-396q-2 -17 -2 -30q0 -71 40 -105.5t94 -34.5q52 0 91.5 24.5t61.5 64.5h83q-31 -69 -96 -114.5t-153 -45.5zM326 437
q-60 0 -113 -36.5t-73 -106.5h312q1 6 1.5 11.5t0.5 10.5q0 57 -35 89t-93 32zM299 537l10 63l233 127l-13 -73z" />
    <glyph glyph-name="ecircumflex" unicode="&#xea;" horiz-adv-x="568" 
d="M246 -12q-92 0 -147.5 57t-55.5 153q0 86 38 156.5t104.5 112t151.5 41.5q65 0 109.5 -25.5t67 -68.5t22.5 -95q0 -20 -4.5 -45.5t-8.5 -44.5h-396q-2 -17 -2 -30q0 -71 40 -105.5t94 -34.5q52 0 91.5 24.5t61.5 64.5h83q-31 -69 -96 -114.5t-153 -45.5zM326 437
q-60 0 -113 -36.5t-73 -106.5h312q1 6 1.5 11.5t0.5 10.5q0 57 -35 89t-93 32zM207 554l12 65l152 82l122 -82l-12 -65l-122 84z" />
    <glyph glyph-name="edieresis" unicode="&#xeb;" horiz-adv-x="568" 
d="M246 -12q-92 0 -147.5 57t-55.5 153q0 86 38 156.5t104.5 112t151.5 41.5q65 0 109.5 -25.5t67 -68.5t22.5 -95q0 -20 -4.5 -45.5t-8.5 -44.5h-396q-2 -17 -2 -30q0 -71 40 -105.5t94 -34.5q52 0 91.5 24.5t61.5 64.5h83q-31 -69 -96 -114.5t-153 -45.5zM326 437
q-60 0 -113 -36.5t-73 -106.5h312q1 6 1.5 11.5t0.5 10.5q0 57 -35 89t-93 32zM438 571q-21 0 -35.5 14.5t-14.5 35.5q0 20 14.5 35t35.5 15t35 -15t14 -35q0 -21 -14 -35.5t-35 -14.5zM278 571q-21 0 -35.5 14.5t-14.5 35.5q0 20 14.5 35t35.5 15q20 0 35 -15t15 -35
q0 -21 -15 -35.5t-35 -14.5z" />
    <glyph glyph-name="igrave" unicode="&#xec;" horiz-adv-x="223" 
d="M26 0l87 496h84l-87 -496h-84zM191 537l-189 117l12 73l188 -127z" />
    <glyph glyph-name="iacute" unicode="&#xed;" horiz-adv-x="223" 
d="M26 0l87 496h84l-87 -496h-84zM117 537l10 63l233 127l-13 -73z" />
    <glyph glyph-name="icircumflex" unicode="&#xee;" horiz-adv-x="223" 
d="M26 0l87 496h84l-87 -496h-84zM26 554l12 65l152 82l122 -82l-12 -65l-122 84z" />
    <glyph glyph-name="idieresis" unicode="&#xef;" horiz-adv-x="223" 
d="M26 0l87 496h84l-87 -496h-84zM256 571q-21 0 -35.5 14.5t-14.5 35.5q0 20 14.5 35t35.5 15t35 -15t14 -35q0 -21 -14 -35.5t-35 -14.5zM96 571q-21 0 -35.5 14.5t-14.5 35.5q0 20 14.5 35t35.5 15q20 0 35 -15t15 -35q0 -21 -15 -35.5t-35 -14.5z" />
    <glyph glyph-name="eth" unicode="&#xf0;" horiz-adv-x="616" 
d="M271 -12q-71 0 -122 31t-78 82.5t-27 111.5q0 63 23.5 116t64.5 93t95 62.5t114 22.5q50 0 95.5 -18.5t69.5 -64.5q-8 46 -24 89t-43 85l-143 -47l11 57l101 33q-25 30 -55 59h84q19 -18 35 -38l140 46l-11 -57l-97 -32q39 -58 58.5 -124t19.5 -136q0 -94 -27 -164
t-72 -116t-100 -68.5t-112 -22.5zM280 59q56 0 103 31.5t75.5 82.5t28.5 110q0 74 -44 113.5t-107 39.5q-56 0 -103 -29.5t-74.5 -78.5t-27.5 -108q0 -72 41 -116.5t108 -44.5z" />
    <glyph glyph-name="ntilde" unicode="&#xf1;" horiz-adv-x="573" 
d="M26 0l87 496h76l-10 -90q32 48 82 75t107 27q74 0 117 -41.5t43 -118.5q0 -14 -1.5 -28.5t-4.5 -29.5l-51 -290h-84l49 281q2 13 3.5 25t1.5 23q0 107 -105 107q-63 0 -112.5 -44t-66.5 -126l-47 -266h-84zM209 555q16 50 46 75.5t67 25.5q27 0 42.5 -12t29 -23.5
t35.5 -11.5q16 0 30 11t21 34h49q-14 -49 -45 -75t-69 -26q-27 0 -43 12t-29.5 23.5t-33.5 11.5q-37 0 -51 -45h-49z" />
    <glyph glyph-name="ograve" unicode="&#xf2;" horiz-adv-x="593" 
d="M255 -12q-62 0 -110 28t-75 77t-27 111q0 66 23 121t63 96t93 64t115 23t110 -27t75 -75t27 -111q0 -65 -22.5 -121t-63 -97.5t-93.5 -65t-115 -23.5zM266 60q56 0 100.5 30t70.5 82t26 117q0 70 -40.5 108.5t-96.5 38.5q-55 0 -99 -30t-70 -82t-26 -117
q0 -47 18.5 -79.5t49.5 -50t67 -17.5zM374 537l-189 117l12 73l188 -127z" />
    <glyph glyph-name="oacute" unicode="&#xf3;" horiz-adv-x="593" 
d="M255 -12q-62 0 -110 28t-75 77t-27 111q0 66 23 121t63 96t93 64t115 23t110 -27t75 -75t27 -111q0 -65 -22.5 -121t-63 -97.5t-93.5 -65t-115 -23.5zM266 60q56 0 100.5 30t70.5 82t26 117q0 70 -40.5 108.5t-96.5 38.5q-55 0 -99 -30t-70 -82t-26 -117
q0 -47 18.5 -79.5t49.5 -50t67 -17.5zM300 537l10 63l233 127l-13 -73z" />
    <glyph glyph-name="ocircumflex" unicode="&#xf4;" horiz-adv-x="593" 
d="M255 -12q-62 0 -110 28t-75 77t-27 111q0 66 23 121t63 96t93 64t115 23t110 -27t75 -75t27 -111q0 -65 -22.5 -121t-63 -97.5t-93.5 -65t-115 -23.5zM266 60q56 0 100.5 30t70.5 82t26 117q0 70 -40.5 108.5t-96.5 38.5q-55 0 -99 -30t-70 -82t-26 -117
q0 -47 18.5 -79.5t49.5 -50t67 -17.5zM209 554l12 65l152 82l122 -82l-12 -65l-122 84z" />
    <glyph glyph-name="otilde" unicode="&#xf5;" horiz-adv-x="593" 
d="M255 -12q-62 0 -110 28t-75 77t-27 111q0 66 23 121t63 96t93 64t115 23t110 -27t75 -75t27 -111q0 -65 -22.5 -121t-63 -97.5t-93.5 -65t-115 -23.5zM266 60q56 0 100.5 30t70.5 82t26 117q0 70 -40.5 108.5t-96.5 38.5q-55 0 -99 -30t-70 -82t-26 -117
q0 -47 18.5 -79.5t49.5 -50t67 -17.5zM197 555q16 50 46 75.5t67 25.5q27 0 42.5 -12t29 -23.5t35.5 -11.5q16 0 30 11t21 34h49q-14 -49 -45 -75t-69 -26q-27 0 -43 12t-29.5 23.5t-33.5 11.5q-37 0 -51 -45h-49z" />
    <glyph glyph-name="odieresis" unicode="&#xf6;" horiz-adv-x="593" 
d="M255 -12q-62 0 -110 28t-75 77t-27 111q0 66 23 121t63 96t93 64t115 23t110 -27t75 -75t27 -111q0 -65 -22.5 -121t-63 -97.5t-93.5 -65t-115 -23.5zM266 60q56 0 100.5 30t70.5 82t26 117q0 70 -40.5 108.5t-96.5 38.5q-55 0 -99 -30t-70 -82t-26 -117
q0 -47 18.5 -79.5t49.5 -50t67 -17.5zM439 571q-21 0 -35.5 14.5t-14.5 35.5q0 20 14.5 35t35.5 15t35 -15t14 -35q0 -21 -14 -35.5t-35 -14.5zM279 571q-21 0 -35.5 14.5t-14.5 35.5q0 20 14.5 35t35.5 15q20 0 35 -15t15 -35q0 -21 -15 -35.5t-35 -14.5z" />
    <glyph glyph-name="divide" unicode="&#xf7;" horiz-adv-x="525" 
d="M296 377q-25 0 -41.5 16.5t-16.5 40.5t16.5 40.5t41.5 16.5q24 0 40.5 -16.5t16.5 -40.5t-16.5 -40.5t-40.5 -16.5zM65 255l12 71h398l-12 -71h-398zM246 90q-25 0 -41.5 17t-16.5 41t16.5 40.5t41.5 16.5t41 -16.5t16 -40.5t-16 -41t-41 -17z" />
    <glyph glyph-name="oslash" unicode="&#xf8;" horiz-adv-x="596" 
d="M-1 0l82 78q-36 55 -36 126q0 66 22.5 121t63 96t93.5 64t114 23q84 0 142 -48l38 36h79l-81 -77q35 -53 35 -124q0 -65 -23 -121t-63 -97.5t-93.5 -65t-114.5 -23.5q-42 0 -77.5 13t-62.5 36l-38 -37h-80zM130 207q0 -38 13 -69l278 266q-38 34 -93 34
q-56 0 -100.5 -30.5t-71 -83t-26.5 -117.5zM268 58q56 0 101 30.5t71 83t26 117.5q0 39 -13 69l-278 -266q38 -34 93 -34z" />
    <glyph glyph-name="ugrave" unicode="&#xf9;" horiz-adv-x="573" 
d="M205 -12q-75 0 -117.5 41.5t-42.5 118.5q0 14 1 28.5t4 29.5l52 290h84l-50 -281q-2 -13 -3.5 -25t-1.5 -23q0 -107 105 -107q63 0 113 44t67 126l47 266h84l-87 -496h-76l10 90q-32 -48 -82 -75t-107 -27zM358 537l-189 117l12 73l188 -127z" />
    <glyph glyph-name="uacute" unicode="&#xfa;" horiz-adv-x="573" 
d="M205 -12q-75 0 -117.5 41.5t-42.5 118.5q0 14 1 28.5t4 29.5l52 290h84l-50 -281q-2 -13 -3.5 -25t-1.5 -23q0 -107 105 -107q63 0 113 44t67 126l47 266h84l-87 -496h-76l10 90q-32 -48 -82 -75t-107 -27zM284 537l10 63l233 127l-13 -73z" />
    <glyph glyph-name="ucircumflex" unicode="&#xfb;" horiz-adv-x="573" 
d="M205 -12q-75 0 -117.5 41.5t-42.5 118.5q0 14 1 28.5t4 29.5l52 290h84l-50 -281q-2 -13 -3.5 -25t-1.5 -23q0 -107 105 -107q63 0 113 44t67 126l47 266h84l-87 -496h-76l10 90q-32 -48 -82 -75t-107 -27zM193 554l12 65l152 82l122 -82l-12 -65l-122 84z" />
    <glyph glyph-name="udieresis" unicode="&#xfc;" horiz-adv-x="573" 
d="M205 -12q-75 0 -117.5 41.5t-42.5 118.5q0 14 1 28.5t4 29.5l52 290h84l-50 -281q-2 -13 -3.5 -25t-1.5 -23q0 -107 105 -107q63 0 113 44t67 126l47 266h84l-87 -496h-76l10 90q-32 -48 -82 -75t-107 -27zM424 571q-22 0 -36 14.5t-14 35.5q0 20 14 35t36 15
q20 0 34.5 -15t14.5 -35q0 -21 -14.5 -35.5t-34.5 -14.5zM263 571q-21 0 -35.5 14.5t-14.5 35.5q0 20 14.5 35t35.5 15t35.5 -15t14.5 -35q0 -21 -14.5 -35.5t-35.5 -14.5z" />
    <glyph glyph-name="yacute" unicode="&#xfd;" horiz-adv-x="555" 
d="M41 -220l169 268h-28l-119 448h89l99 -386l241 386h88l-451 -716h-88zM283 537l10 63l233 127l-13 -73z" />
    <glyph glyph-name="thorn" unicode="&#xfe;" horiz-adv-x="620" 
d="M290 -12q-40 0 -73.5 14t-57 36t-34.5 46l-55 -304h-84l166 940h84l-52 -301q30 35 75.5 62t112.5 27q64 0 110 -28t70.5 -76t24.5 -109q0 -87 -37.5 -156.5t-102.5 -110t-147 -40.5zM295 61q57 0 101 29t69 79t25 114q0 66 -37.5 109t-101.5 43q-57 0 -102 -30
t-71 -81.5t-26 -114.5q0 -67 39 -107.5t104 -40.5z" />
    <glyph glyph-name="ydieresis" unicode="&#xff;" horiz-adv-x="555" 
d="M41 -220l169 268h-28l-119 448h89l99 -386l241 386h88l-451 -716h-88zM423 571q-22 0 -36 14.5t-14 35.5q0 20 14 35t36 15q20 0 34.5 -15t14.5 -35q0 -21 -14.5 -35.5t-34.5 -14.5zM262 571q-21 0 -35.5 14.5t-14.5 35.5q0 20 14.5 35t35.5 15t35.5 -15t14.5 -35
q0 -21 -14.5 -35.5t-35.5 -14.5z" />
    <glyph glyph-name="Amacron" unicode="&#x100;" horiz-adv-x="664" 
d="M-14 0l382 700h89l133 -700h-87l-33 180h-298l-96 -180h-90zM207 246h251l-64 354zM255 796l12 63h347l-10 -63h-349z" />
    <glyph glyph-name="amacron" unicode="&#x101;" horiz-adv-x="539" 
d="M186 -12q-56 0 -91 18.5t-52 49t-17 65.5q0 55 31 95t86.5 61.5t129.5 21.5h133l1 6q3 17 3 34q0 48 -27.5 73t-76.5 25q-48 0 -89 -24.5t-57 -71.5h-87q16 54 52.5 91t86.5 56.5t105 19.5q89 0 133.5 -42t44.5 -114q0 -11 -1 -23t-3 -24l-53 -305h-76l10 88
q-28 -42 -73.5 -71t-112.5 -29zM211 59q48 0 86.5 25t63.5 65t33 84v0v1h-126q-71 0 -111.5 -27.5t-40.5 -75.5q0 -34 24.5 -53t70.5 -19zM156 592l12 63h347l-10 -63h-349z" />
    <glyph glyph-name="Abreve" unicode="&#x102;" horiz-adv-x="664" 
d="M-14 0l382 700h89l133 -700h-87l-33 180h-298l-96 -180h-90zM207 246h251l-64 354zM423 763q-67 0 -96 37.5t-20 92.5l2 14h50q-7 -37 10.5 -57.5t65.5 -20.5t72.5 20.5t31.5 57.5h51l-3 -15q-11 -54 -52.5 -91.5t-111.5 -37.5z" />
    <glyph glyph-name="abreve" unicode="&#x103;" horiz-adv-x="539" 
d="M186 -12q-56 0 -91 18.5t-52 49t-17 65.5q0 55 31 95t86.5 61.5t129.5 21.5h133l1 6q3 17 3 34q0 48 -27.5 73t-76.5 25q-48 0 -89 -24.5t-57 -71.5h-87q16 54 52.5 91t86.5 56.5t105 19.5q89 0 133.5 -42t44.5 -114q0 -11 -1 -23t-3 -24l-53 -305h-76l10 88
q-28 -42 -73.5 -71t-112.5 -29zM211 59q48 0 86.5 25t63.5 65t33 84v0v1h-126q-71 0 -111.5 -27.5t-40.5 -75.5q0 -34 24.5 -53t70.5 -19zM325 559q-67 0 -96 37.5t-20 92.5l2 14h50q-7 -37 10.5 -57.5t65.5 -20.5t72.5 20.5t31.5 57.5h51l-3 -15q-11 -54 -52.5 -91.5
t-111.5 -37.5z" />
    <glyph glyph-name="Aogonek" unicode="&#x104;" horiz-adv-x="664" 
d="M-14 0l382 700h89l133 -700h-6l-62 -28q-40 -17 -56.5 -35t-19.5 -37q-5 -23 9.5 -36t40.5 -13q31 0 69 15l-10 -56q-19 -6 -39 -9.5t-40 -3.5q-30 0 -55 9.5t-38 30.5t-8 55q6 34 34.5 67.5t89.5 60.5l-29 160h-298l-96 -180h-90zM207 246h251l-64 354z" />
    <glyph glyph-name="aogonek" unicode="&#x105;" horiz-adv-x="539" 
d="M186 -12q-56 0 -91 18.5t-52 49t-17 65.5q0 55 31 95t86.5 61.5t129.5 21.5h133l1 6q3 17 3 34q0 48 -27.5 73t-76.5 25q-48 0 -89 -24.5t-57 -71.5h-87q16 54 52.5 91t86.5 56.5t105 19.5q89 0 133.5 -42t44.5 -114q0 -11 -1 -23t-3 -24l-53 -305h-76l10 88
q-28 -42 -73.5 -71t-112.5 -29zM211 59q48 0 86.5 25t63.5 65t33 84v0v1h-126q-71 0 -111.5 -27.5t-40.5 -75.5q0 -34 24.5 -53t70.5 -19zM329 -203q-30 0 -55 9.5t-38 30.5t-7 55q6 35 37.5 67.5t100.5 60.5l56 23l15 -43l-62 -28q-39 -18 -56.5 -35.5t-21.5 -36.5
q-4 -23 10.5 -36t40.5 -13q30 0 69 15l-10 -56q-18 -6 -38.5 -9.5t-40.5 -3.5z" />
    <glyph glyph-name="Cacute" unicode="&#x106;" horiz-adv-x="722" 
d="M339 -12q-89 0 -151.5 35t-95.5 98t-33 147q0 94 30.5 175t85.5 141.5t128.5 94t159.5 33.5q120 0 186 -57.5t69 -160.5h-95q-2 67 -45 105.5t-127 38.5q-65 0 -120.5 -27.5t-96.5 -77t-64 -115.5t-23 -143q0 -101 54 -157t150 -56q84 0 139.5 38t81.5 103h95
q-39 -102 -124 -158.5t-204 -56.5zM427 741l10 63l233 127l-13 -73z" />
    <glyph glyph-name="cacute" unicode="&#x107;" horiz-adv-x="569" 
d="M250 -12q-61 0 -108 26.5t-73 74t-26 110.5q0 66 23 122.5t64 98.5t95 65t116 23q90 0 143 -47t54 -127h-86q0 51 -36 76.5t-87 25.5q-55 0 -100 -29.5t-72 -81t-27 -117.5q0 -71 39 -110t94 -39q51 0 95.5 26t63.5 77h86q-19 -51 -57 -90.5t-89.5 -61.5t-111.5 -22z
M304 538l10 63l233 127l-13 -73z" />
    <glyph glyph-name="Cdotaccent" unicode="&#x10a;" horiz-adv-x="722" 
d="M339 -12q-89 0 -151.5 35t-95.5 98t-33 147q0 94 30.5 175t85.5 141.5t128.5 94t159.5 33.5q120 0 186 -57.5t69 -160.5h-95q-2 67 -45 105.5t-127 38.5q-65 0 -120.5 -27.5t-96.5 -77t-64 -115.5t-23 -143q0 -101 54 -157t150 -56q84 0 139.5 38t81.5 103h95
q-39 -102 -124 -158.5t-204 -56.5zM484 766q-20 0 -34.5 15t-14.5 35q0 21 14.5 35.5t34.5 14.5q21 0 35.5 -14.5t14.5 -35.5q0 -20 -14.5 -35t-35.5 -15z" />
    <glyph glyph-name="cdotaccent" unicode="&#x10b;" horiz-adv-x="569" 
d="M250 -12q-61 0 -108 26.5t-73 74t-26 110.5q0 66 23 122.5t64 98.5t95 65t116 23q90 0 143 -47t54 -127h-86q0 51 -36 76.5t-87 25.5q-55 0 -100 -29.5t-72 -81t-27 -117.5q0 -71 39 -110t94 -39q51 0 95.5 26t63.5 77h86q-19 -51 -57 -90.5t-89.5 -61.5t-111.5 -22z
M362 563q-20 0 -35 15t-15 35q0 21 15 35.5t35 14.5t35 -14.5t15 -35.5q0 -20 -15 -35t-35 -15z" />
    <glyph glyph-name="Ccaron" unicode="&#x10c;" horiz-adv-x="722" 
d="M339 -12q-89 0 -151.5 35t-95.5 98t-33 147q0 94 30.5 175t85.5 141.5t128.5 94t159.5 33.5q120 0 186 -57.5t69 -160.5h-95q-2 67 -45 105.5t-127 38.5q-65 0 -120.5 -27.5t-96.5 -77t-64 -115.5t-23 -143q0 -101 54 -157t150 -56q84 0 139.5 38t81.5 103h95
q-39 -102 -124 -158.5t-204 -56.5zM473 757l-123 82l13 62l120 -82l153 85l-12 -65z" />
    <glyph glyph-name="ccaron" unicode="&#x10d;" horiz-adv-x="569" 
d="M250 -12q-61 0 -108 26.5t-73 74t-26 110.5q0 66 23 122.5t64 98.5t95 65t116 23q90 0 143 -47t54 -127h-86q0 51 -36 76.5t-87 25.5q-55 0 -100 -29.5t-72 -81t-27 -117.5q0 -71 39 -110t94 -39q51 0 95.5 26t63.5 77h86q-19 -51 -57 -90.5t-89.5 -61.5t-111.5 -22z
M350 554l-122 82l12 62l120 -82l153 85l-12 -65z" />
    <glyph glyph-name="Dcaron" unicode="&#x10e;" horiz-adv-x="701" 
d="M31 0l123 700h215q158 0 232.5 -73.5t74.5 -209.5q0 -123 -53 -217t-149.5 -147t-227.5 -53h-215zM127 70h130q104 0 178.5 42t114 118.5t39.5 180.5q0 107 -54.5 163t-179.5 56h-129zM409 757l-123 82l13 62l120 -82l153 85l-12 -65z" />
    <glyph glyph-name="dcaron" unicode="&#x10f;" horiz-adv-x="733" 
d="M671 541l6 40q26 0 39 13.5t18 39.5l5 23h-48l14 83h88q1 -50 -5 -90q-10 -57 -40 -83t-77 -26zM247 -12q-64 0 -109.5 29.5t-69.5 79.5t-24 110q0 88 37.5 155.5t101.5 106.5t143 39q66 0 108 -26t62 -69l54 307h84l-127 -720h-77l7 82q-29 -36 -75 -65t-115 -29z
M271 61q57 0 101.5 31t70 83.5t25.5 115.5q0 65 -37 104.5t-102 39.5q-57 0 -102 -29t-70.5 -78.5t-25.5 -112.5q0 -66 37.5 -110t102.5 -44z" />
    <glyph glyph-name="Dcroat" unicode="&#x110;" horiz-adv-x="716" 
d="M46 0l55 311h-87l13 76h87l55 313h215q158 0 232.5 -73.5t74.5 -209.5q0 -123 -53 -217t-149.5 -147t-227.5 -53h-215zM143 70h129q105 0 179 42t113.5 118.5t39.5 180.5q0 107 -54.5 163t-179.5 56h-129l-43 -243h201l-13 -76h-201z" />
    <glyph glyph-name="dcroat" unicode="&#x111;" horiz-adv-x="666" 
d="M247 -12q-64 0 -109.5 29.5t-69.5 79.5t-24 110q0 88 37.5 155.5t101.5 106.5t143 39q66 0 108 -26t62 -69l28 157h-143l12 65h142l15 85h84l-15 -85h76l-11 -65h-76l-101 -570h-77l7 82q-29 -36 -75 -65t-115 -29zM271 61q57 0 101.5 31t70 83.5t25.5 115.5
q0 65 -37 104.5t-102 39.5q-57 0 -102 -29t-70.5 -78.5t-25.5 -112.5q0 -66 37.5 -110t102.5 -44z" />
    <glyph glyph-name="Emacron" unicode="&#x112;" horiz-adv-x="542" 
d="M31 0l123 700h405l-13 -67h-320l-43 -247h290l-11 -66h-291l-44 -253h320l-12 -67h-404zM200 796l12 63h347l-10 -63h-349z" />
    <glyph glyph-name="emacron" unicode="&#x113;" horiz-adv-x="568" 
d="M246 -12q-92 0 -147.5 57t-55.5 153q0 86 38 156.5t104.5 112t151.5 41.5q65 0 109.5 -25.5t67 -68.5t22.5 -95q0 -20 -4.5 -45.5t-8.5 -44.5h-396q-2 -17 -2 -30q0 -71 40 -105.5t94 -34.5q52 0 91.5 24.5t61.5 64.5h83q-31 -69 -96 -114.5t-153 -45.5zM326 437
q-60 0 -113 -36.5t-73 -106.5h312q1 6 1.5 11.5t0.5 10.5q0 57 -35 89t-93 32zM178 592l12 63h347l-10 -63h-349z" />
    <glyph glyph-name="Ebreve" unicode="&#x114;" horiz-adv-x="542" 
d="M31 0l123 700h405l-13 -67h-320l-43 -247h290l-11 -66h-291l-44 -253h320l-12 -67h-404zM368 763q-67 0 -96 37.5t-20 92.5l2 14h50q-7 -37 10.5 -57.5t65.5 -20.5t72.5 20.5t31.5 57.5h51l-3 -15q-11 -54 -52.5 -91.5t-111.5 -37.5z" />
    <glyph glyph-name="ebreve" unicode="&#x115;" horiz-adv-x="568" 
d="M246 -12q-92 0 -147.5 57t-55.5 153q0 86 38 156.5t104.5 112t151.5 41.5q65 0 109.5 -25.5t67 -68.5t22.5 -95q0 -20 -4.5 -45.5t-8.5 -44.5h-396q-2 -17 -2 -30q0 -71 40 -105.5t94 -34.5q52 0 91.5 24.5t61.5 64.5h83q-31 -69 -96 -114.5t-153 -45.5zM326 437
q-60 0 -113 -36.5t-73 -106.5h312q1 6 1.5 11.5t0.5 10.5q0 57 -35 89t-93 32zM346 559q-67 0 -96 37.5t-20 92.5l2 14h50q-7 -37 10.5 -57.5t65.5 -20.5t72.5 20.5t31.5 57.5h51l-3 -15q-11 -54 -52.5 -91.5t-111.5 -37.5z" />
    <glyph glyph-name="Edotaccent" unicode="&#x116;" horiz-adv-x="542" 
d="M31 0l123 700h405l-13 -67h-320l-43 -247h290l-11 -66h-291l-44 -253h320l-12 -67h-404zM377 766q-20 0 -34.5 15t-14.5 35q0 21 14.5 35.5t34.5 14.5q21 0 35.5 -14.5t14.5 -35.5q0 -20 -14.5 -35t-35.5 -15z" />
    <glyph glyph-name="edotaccent" unicode="&#x117;" horiz-adv-x="568" 
d="M246 -12q-92 0 -147.5 57t-55.5 153q0 86 38 156.5t104.5 112t151.5 41.5q65 0 109.5 -25.5t67 -68.5t22.5 -95q0 -20 -4.5 -45.5t-8.5 -44.5h-396q-2 -17 -2 -30q0 -71 40 -105.5t94 -34.5q52 0 91.5 24.5t61.5 64.5h83q-31 -69 -96 -114.5t-153 -45.5zM326 437
q-60 0 -113 -36.5t-73 -106.5h312q1 6 1.5 11.5t0.5 10.5q0 57 -35 89t-93 32zM356 562q-20 0 -35 15t-15 35q0 21 15 35.5t35 14.5t35 -14.5t15 -35.5q0 -20 -15 -35t-35 -15z" />
    <glyph glyph-name="Eogonek" unicode="&#x118;" horiz-adv-x="542" 
d="M31 0l123 700h405l-13 -67h-320l-43 -247h290l-11 -66h-291l-44 -253h320l-12 -67h-404zM327 -203q-31 0 -56 9.5t-38 30.5t-7 55q6 35 37.5 67.5t100.5 60.5l57 23l14 -43l-62 -28q-39 -18 -56.5 -35.5t-20.5 -36.5q-5 -23 9.5 -36t41.5 -13q30 0 68 15l-10 -56
q-18 -6 -38.5 -9.5t-39.5 -3.5z" />
    <glyph glyph-name="eogonek" unicode="&#x119;" horiz-adv-x="568" 
d="M246 -12q-92 0 -147.5 57t-55.5 153q0 86 38 156.5t104.5 112t151.5 41.5q65 0 109.5 -25.5t67 -68.5t22.5 -95q0 -20 -4.5 -45.5t-8.5 -44.5h-396q-2 -17 -2 -30q0 -71 40 -105.5t94 -34.5q52 0 91.5 24.5t61.5 64.5h83q-31 -69 -96 -114.5t-153 -45.5zM326 437
q-60 0 -113 -36.5t-73 -106.5h312q1 6 1.5 11.5t0.5 10.5q0 57 -35 89t-93 32zM245 -191q-30 0 -55 9.5t-38 30.5t-7 55q6 35 37.5 67.5t100.5 60.5l56 23l15 -43l-62 -28q-39 -18 -56.5 -35.5t-21.5 -36.5q-4 -23 10.5 -36t40.5 -13q30 0 69 15l-10 -56q-18 -6 -38.5 -9.5
t-40.5 -3.5z" />
    <glyph glyph-name="Ecaron" unicode="&#x11a;" horiz-adv-x="542" 
d="M31 0l123 700h405l-13 -67h-320l-43 -247h290l-11 -66h-291l-44 -253h320l-12 -67h-404zM366 757l-123 82l13 62l120 -82l153 85l-12 -65z" />
    <glyph glyph-name="ecaron" unicode="&#x11b;" horiz-adv-x="568" 
d="M246 -12q-92 0 -147.5 57t-55.5 153q0 86 38 156.5t104.5 112t151.5 41.5q65 0 109.5 -25.5t67 -68.5t22.5 -95q0 -20 -4.5 -45.5t-8.5 -44.5h-396q-2 -17 -2 -30q0 -71 40 -105.5t94 -34.5q52 0 91.5 24.5t61.5 64.5h83q-31 -69 -96 -114.5t-153 -45.5zM326 437
q-60 0 -113 -36.5t-73 -106.5h312q1 6 1.5 11.5t0.5 10.5q0 57 -35 89t-93 32zM344 553l-122 82l12 62l120 -82l153 85l-12 -65z" />
    <glyph glyph-name="Gbreve" unicode="&#x11e;" horiz-adv-x="761" 
d="M333 -12q-85 0 -145.5 37.5t-93.5 103.5t-33 150q0 94 30 173.5t84 137.5t128 90t163 32q119 0 190.5 -57t76.5 -157h-97q-3 63 -49 100t-130 37q-92 0 -161.5 -45t-108 -124t-38.5 -182q0 -101 53.5 -161t146.5 -60q112 0 180.5 65.5t96.5 179.5h-202l11 66h289
l-66 -374h-77l13 115q-49 -61 -109 -94t-152 -33zM481 763q-67 0 -96 37.5t-20 92.5l2 14h50q-7 -37 10.5 -57.5t65.5 -20.5t72.5 20.5t31.5 57.5h51l-3 -15q-11 -54 -52.5 -91.5t-111.5 -37.5z" />
    <glyph glyph-name="gbreve" unicode="&#x11f;" horiz-adv-x="550" 
d="M244 156q-44 0 -78 12l-49 -38q22 -14 50 -22t82 -12q70 -5 109.5 -25t55.5 -49.5t16 -61.5q0 -55 -32 -98.5t-89 -68.5t-131 -25q-91 0 -148 36.5t-57 104.5q0 47 25.5 85.5t74.5 68.5q-35 16 -57 40l4 24l93 74q-39 38 -39 98q0 59 31 106.5t83.5 75t117.5 27.5
q43 0 76 -12h183l-12 -62l-93 -4q14 -29 14 -65q0 -59 -30.5 -106.5t-82.5 -75t-117 -27.5zM256 225q61 0 99.5 36.5t38.5 94.5q0 39 -27 61t-73 22q-61 0 -99.5 -36.5t-38.5 -94.5q0 -40 26.5 -61.5t73.5 -21.5zM58 -75q0 -41 35 -64.5t97 -23.5q68 0 112 31t44 84
q0 28 -22 49.5t-87 26.5q-54 3 -96 13q-83 -46 -83 -116zM314 559q-67 0 -96 37.5t-20 92.5l2 14h50q-7 -37 10.5 -57.5t65.5 -20.5t72.5 20.5t31.5 57.5h51l-3 -15q-11 -54 -52.5 -91.5t-111.5 -37.5z" />
    <glyph glyph-name="Gdotaccent" unicode="&#x120;" horiz-adv-x="761" 
d="M333 -12q-85 0 -145.5 37.5t-93.5 103.5t-33 150q0 94 30 173.5t84 137.5t128 90t163 32q119 0 190.5 -57t76.5 -157h-97q-3 63 -49 100t-130 37q-92 0 -161.5 -45t-108 -124t-38.5 -182q0 -101 53.5 -161t146.5 -60q112 0 180.5 65.5t96.5 179.5h-202l11 66h289
l-66 -374h-77l13 115q-49 -61 -109 -94t-152 -33zM490 766q-20 0 -34.5 15t-14.5 35q0 21 14.5 35.5t34.5 14.5q21 0 35.5 -14.5t14.5 -35.5q0 -20 -14.5 -35t-35.5 -15z" />
    <glyph glyph-name="gdotaccent" unicode="&#x121;" horiz-adv-x="550" 
d="M244 156q-44 0 -78 12l-49 -38q22 -14 50 -22t82 -12q70 -5 109.5 -25t55.5 -49.5t16 -61.5q0 -55 -32 -98.5t-89 -68.5t-131 -25q-91 0 -148 36.5t-57 104.5q0 47 25.5 85.5t74.5 68.5q-35 16 -57 40l4 24l93 74q-39 38 -39 98q0 59 31 106.5t83.5 75t117.5 27.5
q43 0 76 -12h183l-12 -62l-93 -4q14 -29 14 -65q0 -59 -30.5 -106.5t-82.5 -75t-117 -27.5zM256 225q61 0 99.5 36.5t38.5 94.5q0 39 -27 61t-73 22q-61 0 -99.5 -36.5t-38.5 -94.5q0 -40 26.5 -61.5t73.5 -21.5zM58 -75q0 -41 35 -64.5t97 -23.5q68 0 112 31t44 84
q0 28 -22 49.5t-87 26.5q-54 3 -96 13q-83 -46 -83 -116zM323 562q-20 0 -34.5 15t-14.5 35q0 21 14.5 35.5t34.5 14.5q21 0 35.5 -14.5t14.5 -35.5q0 -20 -14.5 -35t-35.5 -15z" />
    <glyph glyph-name="uni0122" unicode="&#x122;" horiz-adv-x="761" 
d="M333 -12q-85 0 -145.5 37.5t-93.5 103.5t-33 150q0 94 30 173.5t84 137.5t128 90t163 32q119 0 190.5 -57t76.5 -157h-97q-3 63 -49 100t-130 37q-92 0 -161.5 -45t-108 -124t-38.5 -182q0 -101 53.5 -161t146.5 -60q112 0 180.5 65.5t96.5 179.5h-202l11 66h289
l-66 -374h-77l13 115q-49 -61 -109 -94t-152 -33zM254 -238l8 40q25 0 38.5 14.5t17.5 42.5l2 14h-45l14 77h86q3 -41 -3 -74q-10 -60 -40.5 -87t-77.5 -27z" />
    <glyph glyph-name="uni0123" unicode="&#x123;" horiz-adv-x="550" 
d="M326 595q-1 50 5 90q10 57 40 83.5t77 26.5l-6 -40q-48 0 -57 -53l-4 -23h48l-15 -84h-88zM244 156q-44 0 -78 12l-49 -38q22 -14 50 -22t82 -12q70 -5 109.5 -25t55.5 -49.5t16 -61.5q0 -55 -32 -98.5t-89 -68.5t-131 -25q-91 0 -148 36.5t-57 104.5q0 47 25.5 85.5
t74.5 68.5q-35 16 -57 40l4 24l93 74q-39 38 -39 98q0 59 31 106.5t83.5 75t117.5 27.5q43 0 76 -12h183l-12 -62l-93 -4q14 -29 14 -65q0 -59 -30.5 -106.5t-82.5 -75t-117 -27.5zM256 225q61 0 99.5 36.5t38.5 94.5q0 39 -27 61t-73 22q-61 0 -99.5 -36.5t-38.5 -94.5
q0 -40 26.5 -61.5t73.5 -21.5zM58 -75q0 -41 35 -64.5t97 -23.5q68 0 112 31t44 84q0 28 -22 49.5t-87 26.5q-54 3 -96 13q-83 -46 -83 -116z" />
    <glyph glyph-name="Itilde" unicode="&#x128;" horiz-adv-x="233" 
d="M31 0l123 700h84l-123 -700h-84zM64 759q16 50 45.5 75.5t67.5 25.5q27 0 42 -12t29 -23.5t36 -11.5q16 0 30 11t21 34h49q-15 -49 -45.5 -75t-68.5 -26q-27 0 -43 12t-29.5 23.5t-34.5 11.5q-37 0 -50 -45h-49z" />
    <glyph glyph-name="itilde" unicode="&#x129;" horiz-adv-x="223" 
d="M26 0l87 496h84l-87 -496h-84zM14 555q16 50 46 75.5t67 25.5q27 0 42.5 -12t29 -23.5t35.5 -11.5q16 0 30 11t21 34h49q-14 -49 -45 -75t-69 -26q-27 0 -43 12t-29.5 23.5t-33.5 11.5q-37 0 -51 -45h-49z" />
    <glyph glyph-name="Imacron" unicode="&#x12a;" horiz-adv-x="233" 
d="M31 0l123 700h84l-123 -700h-84zM38 796l12 63h347l-10 -63h-349z" />
    <glyph glyph-name="imacron" unicode="&#x12b;" horiz-adv-x="223" 
d="M26 0l87 496h84l-87 -496h-84zM-3 592l12 63h347l-10 -63h-349z" />
    <glyph glyph-name="Ibreve" unicode="&#x12c;" horiz-adv-x="233" 
d="M31 0l123 700h84l-123 -700h-84zM206 763q-67 0 -96 37.5t-20 92.5l2 14h50q-7 -37 10.5 -57.5t65.5 -20.5t72.5 20.5t31.5 57.5h51l-3 -15q-11 -54 -52.5 -91.5t-111.5 -37.5z" />
    <glyph glyph-name="ibreve" unicode="&#x12d;" horiz-adv-x="223" 
d="M26 0l87 496h84l-87 -496h-84zM165 559q-67 0 -96 37.5t-20 92.5l2 14h50q-7 -37 10.5 -57.5t65.5 -20.5t72.5 20.5t31.5 57.5h51l-3 -15q-11 -54 -52.5 -91.5t-111.5 -37.5z" />
    <glyph glyph-name="Iogonek" unicode="&#x12e;" horiz-adv-x="233" 
d="M31 0l123 700h84l-123 -700h-84zM7 -202q-31 0 -56 9.5t-38 30.5t-7 55q6 35 37.5 67.5t100.5 60.5l57 23l14 -43l-62 -28q-39 -18 -56.5 -35.5t-20.5 -36.5q-5 -23 9.5 -36t41.5 -13q30 0 68 15l-10 -56q-18 -6 -38.5 -9.5t-39.5 -3.5z" />
    <glyph glyph-name="iogonek" unicode="&#x12f;" horiz-adv-x="241" 
d="M194 606q-25 0 -41.5 16t-16.5 41t16.5 41t41.5 16q24 0 41 -16t17 -41t-17 -41t-41 -16zM35 0l87 496h84l-87 -496h-84zM10 -202q-30 0 -55 9.5t-38 30.5t-7 55q6 35 37.5 67.5t100.5 60.5l56 23l15 -43l-62 -28q-39 -18 -56.5 -35.5t-21.5 -36.5q-4 -23 10.5 -36
t40.5 -13q30 0 69 15l-10 -56q-18 -6 -38.5 -9.5t-40.5 -3.5z" />
    <glyph glyph-name="Idotaccent" unicode="&#x130;" horiz-adv-x="233" 
d="M31 0l123 700h84l-123 -700h-84zM215 766q-20 0 -34.5 15t-14.5 35q0 21 14.5 35.5t34.5 14.5q21 0 35.5 -14.5t14.5 -35.5q0 -20 -14.5 -35t-35.5 -15z" />
    <glyph glyph-name="dotlessi" unicode="&#x131;" horiz-adv-x="223" 
d="M26 0l87 496h84l-87 -496h-84z" />
    <glyph glyph-name="uni0136" unicode="&#x136;" horiz-adv-x="589" 
d="M31 0l123 700h84l-55 -317l347 317h106l-309 -279l190 -421h-97l-161 360l-96 -87l-48 -273h-84zM155 -238l8 40q46 0 56 57l2 14h-45l13 77h86q3 -41 -2 -74q-12 -60 -41.5 -87t-76.5 -27z" />
    <glyph glyph-name="uni0137" unicode="&#x137;" horiz-adv-x="512" 
d="M25 0l128 720h84l-77 -433l240 209h111l-267 -223l209 -273h-102l-196 261l-46 -261h-84zM114 -238l7 40q25 0 38.5 14.5t18.5 42.5l2 14h-45l13 77h86q3 -41 -3 -74q-11 -60 -41 -87t-76 -27z" />
    <glyph glyph-name="Lacute" unicode="&#x139;" horiz-adv-x="526" 
d="M31 0l123 700h84l-111 -633h326l-12 -67h-410zM168 741l10 63l233 127l-13 -73z" />
    <glyph glyph-name="lacute" unicode="&#x13a;" horiz-adv-x="223" 
d="M25 0l128 720h84l-128 -720h-84zM158 761l10 63l233 127l-13 -73z" />
    <glyph glyph-name="uni013B" unicode="&#x13b;" horiz-adv-x="526" 
d="M31 0l123 700h84l-111 -633h326l-12 -67h-410zM106 -238l8 40q25 0 38.5 14.5t18.5 42.5l2 14h-46l14 77h86q2 -20 1 -39t-4 -35q-11 -60 -41 -87t-77 -27z" />
    <glyph glyph-name="uni013C" unicode="&#x13c;" horiz-adv-x="238" 
d="M25 0l128 720h84l-128 -720h-84zM-19 -238l7 40q47 0 57 57l2 14h-46l15 77h85q4 -41 -3 -74q-11 -60 -41 -87t-76 -27z" />
    <glyph glyph-name="Lcaron" unicode="&#x13d;" horiz-adv-x="526" 
d="M315 501l8 40q25 0 37.5 13.5t18.5 40.5l5 22h-49l14 83h88q2 -26 0 -48t-5 -42q-9 -56 -39.5 -82.5t-77.5 -26.5zM31 0l123 700h84l-111 -633h326l-12 -67h-410z" />
    <glyph glyph-name="lcaron" unicode="&#x13e;" horiz-adv-x="338" 
d="M276 541l6 40q26 0 39 13.5t18 39.5l4 23h-48l15 83h88q1 -51 -6 -90q-10 -57 -39.5 -83t-76.5 -26zM25 0l128 720h84l-128 -720h-84z" />
    <glyph glyph-name="Ldot" unicode="&#x13f;" horiz-adv-x="526" 
d="M31 0l123 700h84l-111 -633h326l-12 -67h-410zM376 292q-25 0 -41.5 16.5t-16.5 40.5q0 25 16.5 41t41.5 16t41 -16t16 -41q0 -24 -16 -40.5t-41 -16.5z" />
    <glyph glyph-name="ldot" unicode="&#x140;" horiz-adv-x="342" 
d="M27 0l128 720h84l-128 -720h-84zM282 318q-21 0 -35.5 14.5t-14.5 34.5q0 21 14.5 35.5t35.5 14.5q20 0 35 -14.5t15 -35.5q0 -20 -15 -34.5t-35 -14.5z" />
    <glyph glyph-name="Lslash" unicode="&#x141;" horiz-adv-x="552" 
d="M57 0l54 310l-85 -30l14 79l85 30l55 311h84l-49 -279l130 46l-14 -79l-130 -47l-49 -274h326l-11 -67h-410z" />
    <glyph glyph-name="lslash" unicode="&#x142;" horiz-adv-x="253" 
d="M35 0l63 352l-79 -30l13 79l80 30l51 289h84l-45 -255l79 31l-14 -78l-79 -31l-69 -387h-84z" />
    <glyph glyph-name="Nacute" unicode="&#x143;" horiz-adv-x="690" 
d="M31 0l123 700h83l275 -567l99 567h84l-123 -700h-84l-273 567l-100 -567h-84zM387 741l10 63l233 127l-13 -73z" />
    <glyph glyph-name="nacute" unicode="&#x144;" horiz-adv-x="573" 
d="M26 0l87 496h76l-10 -90q32 48 82 75t107 27q74 0 117 -41.5t43 -118.5q0 -14 -1.5 -28.5t-4.5 -29.5l-51 -290h-84l49 281q2 13 3.5 25t1.5 23q0 107 -105 107q-63 0 -112.5 -44t-66.5 -126l-47 -266h-84zM312 537l10 63l233 127l-13 -73z" />
    <glyph glyph-name="uni0145" unicode="&#x145;" horiz-adv-x="690" 
d="M31 0l123 700h83l275 -567l99 567h84l-123 -700h-84l-273 567l-100 -567h-84zM211 -238l8 40q47 0 56 57l2 14h-45l14 77h85q4 -42 -2 -74q-11 -60 -41 -87t-77 -27z" />
    <glyph glyph-name="uni0146" unicode="&#x146;" horiz-adv-x="573" 
d="M26 0l87 496h76l-10 -90q32 48 82 75t107 27q74 0 117 -41.5t43 -118.5q0 -14 -1.5 -28.5t-4.5 -29.5l-51 -290h-84l49 281q2 13 3.5 25t1.5 23q0 107 -105 107q-63 0 -112.5 -44t-66.5 -126l-47 -266h-84zM165 -238l8 40q48 0 56 57l2 14h-45l13 77h87q1 -20 0.5 -39
t-3.5 -35q-12 -60 -41.5 -87t-76.5 -27z" />
    <glyph glyph-name="Ncaron" unicode="&#x147;" horiz-adv-x="690" 
d="M31 0l123 700h83l275 -567l99 567h84l-123 -700h-84l-273 567l-100 -567h-84zM433 757l-123 82l13 62l120 -82l153 85l-12 -65z" />
    <glyph glyph-name="ncaron" unicode="&#x148;" horiz-adv-x="573" 
d="M26 0l87 496h76l-10 -90q32 48 82 75t107 27q74 0 117 -41.5t43 -118.5q0 -14 -1.5 -28.5t-4.5 -29.5l-51 -290h-84l49 281q2 13 3.5 25t1.5 23q0 107 -105 107q-63 0 -112.5 -44t-66.5 -126l-47 -266h-84zM358 553l-122 82l12 62l120 -82l153 85l-12 -65z" />
    <glyph glyph-name="Omacron" unicode="&#x14c;" horiz-adv-x="795" 
d="M353 -12q-87 0 -153 38.5t-102.5 106t-36.5 153.5q0 89 32.5 166t90 135.5t133.5 91.5t161 33q87 0 152.5 -38t102.5 -105t37 -154q0 -89 -32.5 -166.5t-90.5 -136t-133.5 -91.5t-160.5 -33zM365 62q65 0 123 27t101.5 74.5t68.5 111t25 136.5q0 70 -27.5 120.5t-76.5 78
t-113 27.5q-66 0 -123.5 -26.5t-101.5 -74t-68.5 -110t-24.5 -135.5q0 -70 27.5 -121.5t76.5 -79.5t113 -28zM320 796l12 63h347l-10 -63h-349z" />
    <glyph glyph-name="omacron" unicode="&#x14d;" horiz-adv-x="593" 
d="M255 -12q-62 0 -110 28t-75 77t-27 111q0 66 23 121t63 96t93 64t115 23t110 -27t75 -75t27 -111q0 -65 -22.5 -121t-63 -97.5t-93.5 -65t-115 -23.5zM266 60q56 0 100.5 30t70.5 82t26 117q0 70 -40.5 108.5t-96.5 38.5q-55 0 -99 -30t-70 -82t-26 -117
q0 -47 18.5 -79.5t49.5 -50t67 -17.5zM179 592l12 63h347l-10 -63h-349z" />
    <glyph glyph-name="Obreve" unicode="&#x14e;" horiz-adv-x="795" 
d="M353 -12q-87 0 -153 38.5t-102.5 106t-36.5 153.5q0 89 32.5 166t90 135.5t133.5 91.5t161 33q87 0 152.5 -38t102.5 -105t37 -154q0 -89 -32.5 -166.5t-90.5 -136t-133.5 -91.5t-160.5 -33zM365 62q65 0 123 27t101.5 74.5t68.5 111t25 136.5q0 70 -27.5 120.5t-76.5 78
t-113 27.5q-66 0 -123.5 -26.5t-101.5 -74t-68.5 -110t-24.5 -135.5q0 -70 27.5 -121.5t76.5 -79.5t113 -28zM489 763q-67 0 -96 37.5t-20 92.5l2 14h50q-7 -37 10.5 -57.5t65.5 -20.5t72.5 20.5t31.5 57.5h51l-3 -15q-11 -54 -52.5 -91.5t-111.5 -37.5z" />
    <glyph glyph-name="obreve" unicode="&#x14f;" horiz-adv-x="593" 
d="M255 -12q-62 0 -110 28t-75 77t-27 111q0 66 23 121t63 96t93 64t115 23t110 -27t75 -75t27 -111q0 -65 -22.5 -121t-63 -97.5t-93.5 -65t-115 -23.5zM266 60q56 0 100.5 30t70.5 82t26 117q0 70 -40.5 108.5t-96.5 38.5q-55 0 -99 -30t-70 -82t-26 -117
q0 -47 18.5 -79.5t49.5 -50t67 -17.5zM348 559q-67 0 -96 37.5t-20 92.5l2 14h50q-7 -37 10.5 -57.5t65.5 -20.5t72.5 20.5t31.5 57.5h51l-3 -15q-11 -54 -52.5 -91.5t-111.5 -37.5z" />
    <glyph glyph-name="Ohungarumlaut" unicode="&#x150;" horiz-adv-x="795" 
d="M353 -12q-87 0 -153 38.5t-102.5 106t-36.5 153.5q0 89 32.5 166t90 135.5t133.5 91.5t161 33q87 0 152.5 -38t102.5 -105t37 -154q0 -89 -32.5 -166.5t-90.5 -136t-133.5 -91.5t-160.5 -33zM365 62q65 0 123 27t101.5 74.5t68.5 111t25 136.5q0 70 -27.5 120.5t-76.5 78
t-113 27.5q-66 0 -123.5 -26.5t-101.5 -74t-68.5 -110t-24.5 -135.5q0 -70 27.5 -121.5t76.5 -79.5t113 -28zM523 753l105 149h73l-121 -149h-57zM377 753l93 149h73l-110 -149h-56z" />
    <glyph glyph-name="ohungarumlaut" unicode="&#x151;" horiz-adv-x="593" 
d="M255 -12q-62 0 -110 28t-75 77t-27 111q0 66 23 121t63 96t93 64t115 23t110 -27t75 -75t27 -111q0 -65 -22.5 -121t-63 -97.5t-93.5 -65t-115 -23.5zM266 60q56 0 100.5 30t70.5 82t26 117q0 70 -40.5 108.5t-96.5 38.5q-55 0 -99 -30t-70 -82t-26 -117
q0 -47 18.5 -79.5t49.5 -50t67 -17.5zM382 549l105 149h73l-121 -149h-57zM236 549l93 149h73l-109 -149h-57z" />
    <glyph glyph-name="OE" unicode="&#x152;" horiz-adv-x="1115" 
d="M342 -12q-82 0 -145 40t-99 110t-36 160q0 86 32.5 161t88.5 132t128 89t152 32q82 0 146.5 -35.5t97.5 -101.5l22 125h403l-13 -69h-319l-43 -244h289l-12 -68h-289l-44 -250h319l-12 -69h-403l22 124q-56 -66 -130 -101t-155 -35zM358 62q65 0 122 27.5t100 76
t67 112.5t24 137q0 70 -28 120t-77.5 76t-111.5 26q-61 0 -115.5 -26t-97 -72t-67 -106.5t-24.5 -129.5q0 -74 27.5 -128t74.5 -83.5t106 -29.5z" />
    <glyph glyph-name="oe" unicode="&#x153;" horiz-adv-x="983" 
d="M255 -12q-62 0 -110 28t-75 77t-27 111q0 66 23 121t63 96t93 64t115 23q66 0 115.5 -30.5t73.5 -83.5q40 53 100 83.5t130 30.5q64 0 107.5 -25.5t66 -68.5t22.5 -95q0 -13 -2.5 -32.5t-6 -36t-4.5 -21.5h-395q-3 -16 -3 -31q0 -70 40 -104.5t94 -34.5q56 0 98 28t66 76
h82q-21 -50 -58.5 -89.5t-88 -62.5t-111.5 -23q-65 0 -112 29.5t-70 80.5q-40 -50 -98.5 -80t-127.5 -30zM556 294h312q1 6 1.5 12t0.5 11q0 56 -35.5 88t-92.5 32q-60 0 -113 -36.5t-73 -106.5zM266 60q56 0 100.5 30t70.5 82t26 117q0 70 -40.5 108.5t-96.5 38.5
q-55 0 -99 -30t-70 -82t-26 -117q0 -47 18.5 -79.5t49.5 -50t67 -17.5z" />
    <glyph glyph-name="Racute" unicode="&#x154;" horiz-adv-x="594" 
d="M31 0l123 700h225q72 0 117 -24.5t66 -64.5t21 -87q0 -86 -49.5 -144t-132.5 -79l99 -301h-91l-91 289h-14h-138l-51 -289h-84zM178 355h136q83 0 133 41.5t50 119.5q0 47 -32 80t-104 33h-135zM310 741l10 63l233 127l-13 -73z" />
    <glyph glyph-name="racute" unicode="&#x155;" horiz-adv-x="369" 
d="M26 0l87 496h77l-9 -88q32 46 84.5 73t119.5 27l-15 -88h-23q-45 0 -84.5 -14t-67.5 -47.5t-38 -91.5l-47 -267h-84zM226 537l10 63l233 127l-13 -73z" />
    <glyph glyph-name="uni0156" unicode="&#x156;" horiz-adv-x="594" 
d="M31 0l123 700h225q72 0 117 -24.5t66 -64.5t21 -87q0 -86 -49.5 -144t-132.5 -79l99 -301h-91l-91 289h-14h-138l-51 -289h-84zM178 355h136q83 0 133 41.5t50 119.5q0 47 -32 80t-104 33h-135zM159 -238l8 40q24 0 37.5 14.5t18.5 42.5l2 14h-45l13 77h87q1 -20 0 -39
t-4 -35q-11 -60 -41 -87t-76 -27z" />
    <glyph glyph-name="uni0157" unicode="&#x157;" horiz-adv-x="369" 
d="M26 0l87 496h77l-9 -88q32 46 84.5 73t119.5 27l-15 -88h-23q-45 0 -84.5 -14t-67.5 -47.5t-38 -91.5l-47 -267h-84zM-19 -238l6 40q25 0 38.5 14.5t18.5 42.5l2 14h-45l13 77h86q2 -20 1 -39t-3 -35q-11 -60 -41 -87t-76 -27z" />
    <glyph glyph-name="Rcaron" unicode="&#x158;" horiz-adv-x="594" 
d="M31 0l123 700h225q72 0 117 -24.5t66 -64.5t21 -87q0 -86 -49.5 -144t-132.5 -79l99 -301h-91l-91 289h-14h-138l-51 -289h-84zM178 355h136q83 0 133 41.5t50 119.5q0 47 -32 80t-104 33h-135zM356 757l-123 82l13 62l120 -82l153 85l-12 -65z" />
    <glyph glyph-name="rcaron" unicode="&#x159;" horiz-adv-x="369" 
d="M26 0l87 496h77l-9 -88q32 46 84.5 73t119.5 27l-15 -88h-23q-45 0 -84.5 -14t-67.5 -47.5t-38 -91.5l-47 -267h-84zM272 553l-123 82l13 62l120 -82l153 85l-12 -65z" />
    <glyph glyph-name="Sacute" unicode="&#x15a;" horiz-adv-x="591" 
d="M269 -12q-69 0 -120.5 22.5t-80.5 63.5t-29 96q0 9 1 19.5t3 20.5h88q-3 -14 -3 -27q0 -54 40.5 -89t109.5 -35q80 0 122 39t42 103q0 33 -16.5 54.5t-44.5 36t-62.5 26t-69.5 24.5q-66 24 -98.5 65.5t-32.5 94.5q0 63 31 110t87 73.5t130 26.5q59 0 104.5 -20.5
t70.5 -57.5t25 -85q0 -15 -3 -31h-87q0 5 0.5 9.5t0.5 9.5q0 39 -30.5 71t-92.5 32q-66 0 -106.5 -35.5t-40.5 -89.5q0 -38 24.5 -60.5t65.5 -37.5t90 -33q61 -23 103 -64.5t42 -108.5t-33 -117t-92 -78t-138 -28zM332 741l10 63l233 127l-13 -73z" />
    <glyph glyph-name="sacute" unicode="&#x15b;" horiz-adv-x="514" 
d="M217 -12q-93 0 -145 47.5t-45 128.5h85q-2 -42 25 -73.5t92 -31.5q53 0 85 23.5t32 65.5q0 33 -29.5 48t-78.5 25q-37 8 -72 22.5t-58.5 40.5t-23.5 66q0 45 26 80.5t71.5 56.5t103.5 21q79 0 126.5 -39.5t43.5 -112.5h-84q2 37 -23.5 59t-71.5 22t-75.5 -21.5
t-29.5 -52.5q0 -30 28.5 -45t76.5 -26q41 -9 77 -24t58.5 -41t22.5 -68q0 -52 -28 -90.5t-77 -59.5t-112 -21zM254 537l10 63l233 127l-13 -73z" />
    <glyph glyph-name="Scedilla" unicode="&#x15e;" horiz-adv-x="591" 
d="M269 -12q-69 0 -120.5 22.5t-80.5 63.5t-29 96q0 9 1 19.5t3 20.5h88q-3 -14 -3 -27q0 -54 40.5 -89t109.5 -35q80 0 122 39t42 103q0 33 -16.5 54.5t-44.5 36t-62.5 26t-69.5 24.5q-66 24 -98.5 65.5t-32.5 94.5q0 63 31 110t87 73.5t130 26.5q59 0 104.5 -20.5
t70.5 -57.5t25 -85q0 -15 -3 -31h-87q0 5 0.5 9.5t0.5 9.5q0 39 -30.5 71t-92.5 32q-66 0 -106.5 -35.5t-40.5 -89.5q0 -38 24.5 -60.5t65.5 -37.5t90 -33q61 -23 103 -64.5t42 -108.5t-33 -117t-92 -78t-138 -28zM111 -260l9 53h92q76 0 76 52q0 41 -59 41h-50l21 120h57
l-13 -70q52 1 83 -19.5t31 -64.5q0 -48 -39 -80t-97 -32h-111z" />
    <glyph glyph-name="scedilla" unicode="&#x15f;" horiz-adv-x="514" 
d="M217 -12q-93 0 -145 47.5t-45 128.5h85q-2 -42 25 -73.5t92 -31.5q53 0 85 23.5t32 65.5q0 33 -29.5 48t-78.5 25q-37 8 -72 22.5t-58.5 40.5t-23.5 66q0 45 26 80.5t71.5 56.5t103.5 21q79 0 126.5 -39.5t43.5 -112.5h-84q2 37 -23.5 59t-71.5 22t-75.5 -21.5
t-29.5 -52.5q0 -30 28.5 -45t76.5 -26q41 -9 77 -24t58.5 -41t22.5 -68q0 -52 -28 -90.5t-77 -59.5t-112 -21zM103 -260l9 53h92q76 0 76 52q0 41 -59 41h-50l21 120h57l-13 -70q52 1 83 -19.5t31 -64.5q0 -48 -39 -80t-97 -32h-111z" />
    <glyph glyph-name="Scaron" unicode="&#x160;" horiz-adv-x="591" 
d="M269 -12q-69 0 -120.5 22.5t-80.5 63.5t-29 96q0 9 1 19.5t3 20.5h88q-3 -14 -3 -27q0 -54 40.5 -89t109.5 -35q80 0 122 39t42 103q0 33 -16.5 54.5t-44.5 36t-62.5 26t-69.5 24.5q-66 24 -98.5 65.5t-32.5 94.5q0 63 31 110t87 73.5t130 26.5q59 0 104.5 -20.5
t70.5 -57.5t25 -85q0 -15 -3 -31h-87q0 5 0.5 9.5t0.5 9.5q0 39 -30.5 71t-92.5 32q-66 0 -106.5 -35.5t-40.5 -89.5q0 -38 24.5 -60.5t65.5 -37.5t90 -33q61 -23 103 -64.5t42 -108.5t-33 -117t-92 -78t-138 -28zM378 757l-123 82l13 62l120 -82l153 85l-12 -65z" />
    <glyph glyph-name="scaron" unicode="&#x161;" horiz-adv-x="514" 
d="M217 -12q-93 0 -145 47.5t-45 128.5h85q-2 -42 25 -73.5t92 -31.5q53 0 85 23.5t32 65.5q0 33 -29.5 48t-78.5 25q-37 8 -72 22.5t-58.5 40.5t-23.5 66q0 45 26 80.5t71.5 56.5t103.5 21q79 0 126.5 -39.5t43.5 -112.5h-84q2 37 -23.5 59t-71.5 22t-75.5 -21.5
t-29.5 -52.5q0 -30 28.5 -45t76.5 -26q41 -9 77 -24t58.5 -41t22.5 -68q0 -52 -28 -90.5t-77 -59.5t-112 -21zM300 553l-123 82l13 62l120 -82l153 85l-12 -65z" />
    <glyph glyph-name="uni0162" unicode="&#x162;" horiz-adv-x="559" 
d="M194 0l111 633h-208l12 67h501l-12 -67h-209l-111 -633h-84zM122 -260l9 53h92q76 0 76 52q0 41 -59 41h-50l21 120h57l-13 -70q51 1 82.5 -19.5t31.5 -64.5q0 -48 -39 -80t-97 -32h-111z" />
    <glyph glyph-name="uni0163" unicode="&#x163;" horiz-adv-x="370" 
d="M205 0h-5l-12 -63q52 1 83 -18.5t31 -58.5q0 -8 -2 -19q-9 -48 -47 -74.5t-91 -26.5h-107l9 54h92q76 0 76 57q0 35 -59 35h-50l21 121q-33 10 -51 34.5t-18 66.5q0 10 1 21.5t3 24.5l48 271h-77l13 71h77l32 119h74l-22 -119h147l-13 -71h-146l-49 -271q-2 -16 -2 -28
q0 -31 16.5 -42.5t53.5 -11.5h65l-13 -72h-78z" />
    <glyph glyph-name="Tcaron" unicode="&#x164;" horiz-adv-x="559" 
d="M194 0l111 633h-208l12 67h501l-12 -67h-209l-111 -633h-84zM367 757l-122 82l12 62l120 -82l153 85l-12 -65z" />
    <glyph glyph-name="tcaron" unicode="&#x165;" horiz-adv-x="370" 
d="M311 592l7 40q48 0 54 38l4 21h-48l15 83h88q0 -26 -0.5 -45t-3.5 -39q-9 -52 -39 -75t-77 -23zM205 0q-62 0 -96 24.5t-34 83.5q0 10 1 21.5t3 24.5l48 271h-77l13 71h77l32 119h74l-22 -119h147l-13 -71h-146l-49 -271q-2 -16 -2 -28q0 -31 16.5 -42.5t53.5 -11.5h65
l-13 -72h-78z" />
    <glyph glyph-name="Utilde" unicode="&#x168;" horiz-adv-x="667" 
d="M281 -12q-63 0 -112 21.5t-77.5 66.5t-28.5 114q0 32 6 68l79 442h84l-79 -442q-6 -30 -6 -55q0 -73 40.5 -106t107.5 -33q78 0 134.5 46t74.5 148l79 442h84l-78 -442q-16 -93 -61.5 -153t-110 -88.5t-136.5 -28.5zM275 759q16 50 45.5 75.5t67.5 25.5q27 0 42 -12
t29 -23.5t36 -11.5q16 0 30 11t21 34h49q-15 -49 -45.5 -75t-68.5 -26q-27 0 -43 12t-29.5 23.5t-34.5 11.5q-37 0 -50 -45h-49z" />
    <glyph glyph-name="utilde" unicode="&#x169;" horiz-adv-x="573" 
d="M205 -12q-75 0 -117.5 41.5t-42.5 118.5q0 14 1 28.5t4 29.5l52 290h84l-50 -281q-2 -13 -3.5 -25t-1.5 -23q0 -107 105 -107q63 0 113 44t67 126l47 266h84l-87 -496h-76l10 90q-32 -48 -82 -75t-107 -27zM191 555q16 50 45.5 75.5t67.5 25.5q27 0 42 -12t29 -23.5
t36 -11.5q16 0 30 11t21 34h49q-15 -49 -45.5 -75t-68.5 -26q-27 0 -43 12t-29.5 23.5t-34.5 11.5q-37 0 -50 -45h-49z" />
    <glyph glyph-name="Umacron" unicode="&#x16a;" horiz-adv-x="667" 
d="M281 -12q-63 0 -112 21.5t-77.5 66.5t-28.5 114q0 32 6 68l79 442h84l-79 -442q-6 -30 -6 -55q0 -73 40.5 -106t107.5 -33q78 0 134.5 46t74.5 148l79 442h84l-78 -442q-16 -93 -61.5 -153t-110 -88.5t-136.5 -28.5zM248 796l12 63h347l-10 -63h-349z" />
    <glyph glyph-name="umacron" unicode="&#x16b;" horiz-adv-x="573" 
d="M205 -12q-75 0 -117.5 41.5t-42.5 118.5q0 14 1 28.5t4 29.5l52 290h84l-50 -281q-2 -13 -3.5 -25t-1.5 -23q0 -107 105 -107q63 0 113 44t67 126l47 266h84l-87 -496h-76l10 90q-32 -48 -82 -75t-107 -27zM164 592l12 63h347l-10 -63h-349z" />
    <glyph glyph-name="Ubreve" unicode="&#x16c;" horiz-adv-x="667" 
d="M281 -12q-63 0 -112 21.5t-77.5 66.5t-28.5 114q0 32 6 68l79 442h84l-79 -442q-6 -30 -6 -55q0 -73 40.5 -106t107.5 -33q78 0 134.5 46t74.5 148l79 442h84l-78 -442q-16 -93 -61.5 -153t-110 -88.5t-136.5 -28.5zM416 763q-67 0 -96 37.5t-20 92.5l2 14h50
q-7 -37 10.5 -57.5t65.5 -20.5t72.5 20.5t31.5 57.5h51l-3 -15q-11 -54 -52.5 -91.5t-111.5 -37.5z" />
    <glyph glyph-name="ubreve" unicode="&#x16d;" horiz-adv-x="573" 
d="M205 -12q-75 0 -117.5 41.5t-42.5 118.5q0 14 1 28.5t4 29.5l52 290h84l-50 -281q-2 -13 -3.5 -25t-1.5 -23q0 -107 105 -107q63 0 113 44t67 126l47 266h84l-87 -496h-76l10 90q-32 -48 -82 -75t-107 -27zM332 559q-67 0 -96 37.5t-20 92.5l2 14h50q-7 -37 10.5 -57.5
t65.5 -20.5t72.5 20.5t31.5 57.5h51l-3 -15q-11 -54 -52.5 -91.5t-111.5 -37.5z" />
    <glyph glyph-name="Uring" unicode="&#x16e;" horiz-adv-x="667" 
d="M281 -12q-63 0 -112 21.5t-77.5 66.5t-28.5 114q0 32 6 68l79 442h84l-79 -442q-6 -30 -6 -55q0 -73 40.5 -106t107.5 -33q78 0 134.5 46t74.5 148l79 442h84l-78 -442q-16 -93 -61.5 -153t-110 -88.5t-136.5 -28.5zM435 761q-43 0 -74 27.5t-31 75.5t31 75.5t74 27.5
q44 0 74.5 -27.5t30.5 -75.5t-30.5 -75.5t-74.5 -27.5zM435 804q24 0 40.5 16.5t16.5 43.5t-16.5 43t-40.5 16q-23 0 -40 -16t-17 -43t17 -43.5t40 -16.5z" />
    <glyph glyph-name="uring" unicode="&#x16f;" horiz-adv-x="573" 
d="M205 -12q-75 0 -117.5 41.5t-42.5 118.5q0 14 1 28.5t4 29.5l52 290h84l-50 -281q-2 -13 -3.5 -25t-1.5 -23q0 -107 105 -107q63 0 113 44t67 126l47 266h84l-87 -496h-76l10 90q-32 -48 -82 -75t-107 -27zM351 557q-43 0 -74 27.5t-31 75.5t31 75.5t74 27.5
q44 0 74.5 -27.5t30.5 -75.5t-30.5 -75.5t-74.5 -27.5zM351 600q24 0 40.5 16.5t16.5 43.5t-16.5 43t-40.5 16q-23 0 -40 -16t-17 -43t17 -43.5t40 -16.5z" />
    <glyph glyph-name="Uhungarumlaut" unicode="&#x170;" horiz-adv-x="667" 
d="M281 -12q-63 0 -112 21.5t-77.5 66.5t-28.5 114q0 32 6 68l79 442h84l-79 -442q-6 -30 -6 -55q0 -73 40.5 -106t107.5 -33q78 0 134.5 46t74.5 148l79 442h84l-78 -442q-16 -93 -61.5 -153t-110 -88.5t-136.5 -28.5zM451 753l105 149h73l-121 -149h-57zM305 753l93 149
h73l-110 -149h-56z" />
    <glyph glyph-name="uhungarumlaut" unicode="&#x171;" horiz-adv-x="573" 
d="M205 -12q-75 0 -117.5 41.5t-42.5 118.5q0 14 1 28.5t4 29.5l52 290h84l-50 -281q-2 -13 -3.5 -25t-1.5 -23q0 -107 105 -107q63 0 113 44t67 126l47 266h84l-87 -496h-76l10 90q-32 -48 -82 -75t-107 -27zM367 549l105 149h73l-121 -149h-57zM221 549l93 149h73
l-110 -149h-56z" />
    <glyph glyph-name="Uogonek" unicode="&#x172;" horiz-adv-x="667" 
d="M281 -12q-63 0 -112 21.5t-77.5 66.5t-28.5 114q0 32 6 68l79 442h84l-79 -442q-6 -30 -6 -55q0 -73 40.5 -106t107.5 -33q78 0 134.5 46t74.5 148l79 442h84l-78 -442q-16 -93 -61.5 -153t-110 -88.5t-136.5 -28.5zM245 -203q-30 0 -55 9.5t-38 30.5t-7 55
q6 35 37.5 67.5t100.5 60.5l56 23l15 -43l-62 -28q-39 -18 -56.5 -35.5t-21.5 -36.5q-4 -23 10.5 -36t40.5 -13q30 0 69 15l-10 -56q-18 -6 -38.5 -9.5t-40.5 -3.5z" />
    <glyph glyph-name="uogonek" unicode="&#x173;" horiz-adv-x="573" 
d="M205 -12q-75 0 -117.5 41.5t-42.5 118.5q0 14 1 28.5t4 29.5l52 290h84l-50 -281q-2 -13 -3.5 -25t-1.5 -23q0 -107 105 -107q63 0 113 44t67 126l47 266h84l-87 -496h-76l10 90q-32 -48 -82 -75t-107 -27zM352 -203q-31 0 -56 9.5t-38 30.5t-7 55q6 35 37.5 67.5
t100.5 60.5l57 23l14 -43l-62 -28q-39 -18 -56.5 -35.5t-20.5 -36.5q-5 -23 9.5 -36t41.5 -13q30 0 68 15l-10 -56q-18 -6 -38.5 -9.5t-39.5 -3.5z" />
    <glyph glyph-name="Wcircumflex" unicode="&#x174;" horiz-adv-x="968" 
d="M168 -1l-68 701h91l45 -596l277 596h94l60 -597l258 597h91l-320 -700h-96l-65 576l-272 -576zM437 758l12 65l152 82l122 -82l-12 -65l-122 84z" />
    <glyph glyph-name="wcircumflex" unicode="&#x175;" horiz-adv-x="745" 
d="M122 0l-59 496h85l36 -389l185 389h95l47 -389l174 389h84l-232 -496h-86l-50 409l-194 -409h-85zM289 554l12 65l152 82l122 -82l-12 -65l-122 84z" />
    <glyph glyph-name="Ycircumflex" unicode="&#x176;" horiz-adv-x="579" 
d="M198 0l47 266l-152 434h96l112 -354l238 354h94l-304 -434l-47 -266h-84zM235 758l12 65l152 82l122 -82l-12 -65l-122 84z" />
    <glyph glyph-name="ycircumflex" unicode="&#x177;" horiz-adv-x="555" 
d="M41 -220l169 268h-28l-119 448h89l99 -386l241 386h88l-451 -716h-88zM192 554l12 65l152 82l122 -82l-12 -65l-122 84z" />
    <glyph glyph-name="Ydieresis" unicode="&#x178;" horiz-adv-x="579" 
d="M198 0l47 266l-152 434h96l112 -354l238 354h94l-304 -434l-47 -266h-84zM466 775q-22 0 -36 14.5t-14 35.5q0 20 14 35t36 15q20 0 34.5 -15t14.5 -35q0 -21 -14.5 -35.5t-34.5 -14.5zM305 775q-21 0 -35.5 14.5t-14.5 35.5q0 20 14.5 35t35.5 15t35.5 -15t14.5 -35
q0 -21 -14.5 -35.5t-35.5 -14.5z" />
    <glyph glyph-name="Zacute" unicode="&#x179;" horiz-adv-x="535" 
d="M-6 0l12 66l443 561h-340l14 73h437l-11 -66l-445 -561h350l-13 -73h-447zM303 741l10 63l233 127l-13 -73z" />
    <glyph glyph-name="zacute" unicode="&#x17a;" horiz-adv-x="454" 
d="M-14 0l13 69l348 357h-270l13 70h366l-13 -69l-349 -357h280l-13 -70h-375zM237 537l10 63l233 127l-13 -73z" />
    <glyph glyph-name="Zdotaccent" unicode="&#x17b;" horiz-adv-x="535" 
d="M-6 0l12 66l443 561h-340l14 73h437l-11 -66l-445 -561h350l-13 -73h-447zM360 766q-20 0 -34.5 15t-14.5 35q0 21 14.5 35.5t34.5 14.5q21 0 35.5 -14.5t14.5 -35.5q0 -20 -14.5 -35t-35.5 -15z" />
    <glyph glyph-name="zdotaccent" unicode="&#x17c;" horiz-adv-x="454" 
d="M-14 0l13 69l348 357h-270l13 70h366l-13 -69l-349 -357h280l-13 -70h-375zM294 562q-20 0 -34.5 15t-14.5 35q0 21 14.5 35.5t34.5 14.5q21 0 35.5 -14.5t14.5 -35.5q0 -20 -14.5 -35t-35.5 -15z" />
    <glyph glyph-name="Zcaron" unicode="&#x17d;" horiz-adv-x="535" 
d="M-6 0l12 66l443 561h-340l14 73h437l-11 -66l-445 -561h350l-13 -73h-447zM349 757l-123 82l13 62l120 -82l153 85l-12 -65z" />
    <glyph glyph-name="zcaron" unicode="&#x17e;" horiz-adv-x="454" 
d="M-14 0l13 69l348 357h-270l13 70h366l-13 -69l-349 -357h280l-13 -70h-375zM283 553l-123 82l13 62l120 -82l153 85l-12 -65z" />
    <glyph glyph-name="uni018F" unicode="&#x18f;" horiz-adv-x="756" 
d="M325 -12q-80 0 -141.5 31.5t-96 90t-34.5 140.5q0 29 5.5 62.5t13.5 62.5h566l2 19q1 8 1.5 16t0.5 15q0 98 -55.5 154.5t-146.5 56.5q-81 0 -150 -41.5t-103 -115.5h-96q32 71 86 123t124 81t151 29q85 0 148 -35.5t97.5 -98.5t34.5 -144q0 -92 -29 -173t-83.5 -142.5
t-129 -96t-165.5 -34.5zM336 64q72 0 133 31t102.5 85t57.5 124h-485q-5 -29 -5 -56q0 -86 53 -135t144 -49z" />
    <glyph glyph-name="florin" unicode="&#x192;" horiz-adv-x="333" 
d="M-128 -191l20 70h22q29 0 46.5 14t28.5 53l151 532h-73l19 70h73l14 48q26 89 86 129.5t158 40.5l-19 -71q-59 0 -93 -23t-48 -76l-14 -48h121l-19 -70h-121l-150 -532q-21 -73 -63.5 -105t-112.5 -32h-26z" />
    <glyph glyph-name="AEacute" unicode="&#x1fc;" horiz-adv-x="917" 
d="M-14 0l523 700h425l-12 -67h-289l-44 -247h259l-11 -66h-259l-44 -253h288l-12 -67h-373l28 159h-268l-119 -159h-92zM549 631l-303 -405h231zM615 741l10 63l233 127l-13 -73z" />
    <glyph glyph-name="aeacute" unicode="&#x1fd;" horiz-adv-x="926" 
d="M189 -12q-83 0 -123 38t-40 92q0 55 30.5 95.5t84 63t123.5 22.5h150q4 22 4 40q0 48 -27.5 73t-75.5 25q-49 0 -89.5 -24.5t-57.5 -71.5h-86q15 54 53 91t88.5 56.5t103.5 19.5q65 0 106 -23.5t57 -66.5q39 42 93 66t116 24q63 0 107 -25.5t66.5 -68.5t22.5 -95
q0 -13 -3 -32.5t-6 -36t-4 -21.5h-395q-3 -15 -3 -30q0 -70 40 -105t94 -35q56 0 98 28t66 76h82q-22 -50 -59 -89.5t-87.5 -62.5t-112.5 -23q-68 0 -117 32.5t-70 88.5q-34 -50 -94 -85.5t-135 -35.5zM499 294h312q1 6 1.5 11.5t0.5 10.5q0 57 -35.5 89t-92.5 32
q-61 0 -113.5 -36.5t-72.5 -106.5zM210 59q45 0 83 21.5t65.5 55.5t38.5 73l4 25h-142q-64 0 -104 -26.5t-40 -76.5q0 -32 25 -52t70 -20zM476 537l10 63l233 127l-13 -73z" />
    <glyph glyph-name="uni0218" unicode="&#x218;" horiz-adv-x="591" 
d="M269 -12q-69 0 -120.5 22.5t-80.5 63.5t-29 96q0 9 1 19.5t3 20.5h88q-3 -14 -3 -27q0 -54 40.5 -89t109.5 -35q80 0 122 39t42 103q0 33 -16.5 54.5t-44.5 36t-62.5 26t-69.5 24.5q-66 24 -98.5 65.5t-32.5 94.5q0 63 31 110t87 73.5t130 26.5q59 0 104.5 -20.5
t70.5 -57.5t25 -85q0 -15 -3 -31h-87q0 5 0.5 9.5t0.5 9.5q0 39 -30.5 71t-92.5 32q-66 0 -106.5 -35.5t-40.5 -89.5q0 -38 24.5 -60.5t65.5 -37.5t90 -33q61 -23 103 -64.5t42 -108.5t-33 -117t-92 -78t-138 -28zM164 -238l6 40q48 0 58 57l2 14h-45l13 77h85q4 -41 -2 -74
q-11 -60 -41 -87t-76 -27z" />
    <glyph glyph-name="uni0219" unicode="&#x219;" horiz-adv-x="514" 
d="M217 -12q-93 0 -145 47.5t-45 128.5h85q-2 -42 25 -73.5t92 -31.5q53 0 85 23.5t32 65.5q0 33 -29.5 48t-78.5 25q-37 8 -72 22.5t-58.5 40.5t-23.5 66q0 45 26 80.5t71.5 56.5t103.5 21q79 0 126.5 -39.5t43.5 -112.5h-84q2 37 -23.5 59t-71.5 22t-75.5 -21.5
t-29.5 -52.5q0 -30 28.5 -45t76.5 -26q41 -9 77 -24t58.5 -41t22.5 -68q0 -52 -28 -90.5t-77 -59.5t-112 -21zM129 -238l8 40q24 0 37.5 14.5t18.5 42.5l3 14h-46l13 77h86q3 -41 -2 -74q-11 -60 -41.5 -87t-76.5 -27z" />
    <glyph glyph-name="uni021A" unicode="&#x21a;" horiz-adv-x="559" 
d="M194 0l111 633h-208l12 67h501l-12 -67h-209l-111 -633h-84zM143 -238l7 40q48 0 57 57l2 14h-45l13 77h86q2 -20 0.5 -39t-3.5 -35q-10 -60 -40.5 -87t-76.5 -27z" />
    <glyph glyph-name="uni021B" unicode="&#x21b;" horiz-adv-x="370" 
d="M205 0q-62 0 -96 24.5t-34 83.5q0 10 1 21.5t3 24.5l48 271h-77l13 71h77l32 119h74l-22 -119h147l-13 -71h-146l-49 -271q-2 -16 -2 -28q0 -31 16.5 -42.5t53.5 -11.5h65l-13 -72h-78zM89 -238l8 40q48 0 56 57l2 14h-45l14 77h86q3 -41 -3 -74q-9 -60 -40 -87t-78 -27z
" />
    <glyph glyph-name="uni0259" unicode="&#x259;" horiz-adv-x="568" 
d="M230 -12q-64 0 -108.5 25.5t-67 68.5t-22.5 95q0 20 4 45.5t9 44.5h395q3 17 3 30q0 71 -40 105.5t-94 34.5q-52 0 -91.5 -24.5t-61.5 -64.5h-83q31 69 96 114.5t152 45.5q93 0 148.5 -57t55.5 -153q0 -86 -38 -156.5t-104.5 -112t-152.5 -41.5zM242 59q60 0 112.5 36.5
t73.5 106.5h-312q-1 -6 -1.5 -11.5t-0.5 -10.5q0 -57 35 -89t93 -32z" />
    <glyph glyph-name="circumflex" unicode="&#x2c6;" horiz-adv-x="319" 
d="M76 554l12 65l152 82l122 -82l-12 -65l-122 84z" />
    <glyph glyph-name="caron" unicode="&#x2c7;" horiz-adv-x="318" 
d="M213 553l-122 82l12 62l120 -82l153 85l-12 -65z" />
    <glyph glyph-name="breve" unicode="&#x2d8;" horiz-adv-x="325" 
d="M216 559q-67 0 -96 37.5t-20 92.5l2 14h50q-7 -37 10.5 -57.5t65.5 -20.5t72.5 20.5t31.5 57.5h51l-3 -15q-11 -54 -52.5 -91.5t-111.5 -37.5z" />
    <glyph glyph-name="dotaccent" unicode="&#x2d9;" horiz-adv-x="152" 
d="M140 562q-20 0 -35 15t-15 35q0 21 15 35.5t35 14.5t35 -14.5t15 -35.5q0 -20 -15 -35t-35 -15z" />
    <glyph glyph-name="ring" unicode="&#x2da;" horiz-adv-x="254" 
d="M199 557q-42 0 -73.5 27.5t-31.5 75.5t31.5 75.5t73.5 27.5q44 0 74.5 -27.5t30.5 -75.5t-30.5 -75.5t-74.5 -27.5zM199 600q24 0 41 16.5t17 43.5t-17 43t-41 16q-23 0 -39.5 -16t-16.5 -43t16.5 -43.5t39.5 -16.5z" />
    <glyph glyph-name="ogonek" unicode="&#x2db;" horiz-adv-x="251" 
d="M58 -203q-30 0 -55 9.5t-38 30.5t-7 55q6 35 37.5 67.5t100.5 60.5l56 23l15 -43l-62 -28q-39 -18 -56.5 -35.5t-21.5 -36.5q-4 -23 10.5 -36t40.5 -13q30 0 69 15l-10 -56q-18 -6 -38.5 -9.5t-40.5 -3.5z" />
    <glyph glyph-name="tilde" unicode="&#x2dc;" horiz-adv-x="345" 
d="M75 555q16 50 46 75.5t67 25.5q27 0 42.5 -12t29 -23.5t35.5 -11.5q16 0 30 11t21 34h49q-14 -49 -45 -75t-69 -26q-27 0 -43 12t-29.5 23.5t-33.5 11.5q-37 0 -51 -45h-49z" />
    <glyph glyph-name="hungarumlaut" unicode="&#x2dd;" horiz-adv-x="341" 
d="M224 549l105 149h73l-121 -149h-57zM78 549l93 149h73l-109 -149h-57z" />
    <glyph glyph-name="gravecomb" unicode="&#x300;" 
d="M261 537l-189 117l12 73l188 -127z" />
    <glyph glyph-name="acutecomb" unicode="&#x301;" 
d="M52 537l10 63l233 127l-13 -73z" />
    <glyph glyph-name="uni0302" unicode="&#x302;" 
d="M54 554l12 65l152 82l122 -82l-12 -65l-122 84z" />
    <glyph glyph-name="tildecomb" unicode="&#x303;" 
d="M54 555q16 50 45.5 75.5t67.5 25.5q27 0 42 -12t29 -23.5t36 -11.5q16 0 30 11t21 34h49q-15 -49 -45.5 -75t-68.5 -26q-27 0 -43 12t-29.5 23.5t-34.5 11.5q-37 0 -50 -45h-49z" />
    <glyph glyph-name="uni0304" unicode="&#x304;" 
d="M60 592l12 63h347l-10 -63h-349z" />
    <glyph glyph-name="uni0306" unicode="&#x306;" 
d="M194 559q-67 0 -96 37.5t-20 92.5l2 14h50q-7 -37 10.5 -57.5t65.5 -20.5t72.5 20.5t31.5 57.5h51l-3 -15q-11 -54 -52.5 -91.5t-111.5 -37.5z" />
    <glyph glyph-name="uni0307" unicode="&#x307;" 
d="M114 562q-20 0 -34.5 15t-14.5 35q0 21 14.5 35.5t34.5 14.5q21 0 35.5 -14.5t14.5 -35.5q0 -20 -14.5 -35t-35.5 -15z" />
    <glyph glyph-name="uni0308" unicode="&#x308;" 
d="M277 571q-22 0 -36 14.5t-14 35.5q0 20 14 35t36 15q20 0 34.5 -15t14.5 -35q0 -21 -14.5 -35.5t-34.5 -14.5zM116 571q-21 0 -35.5 14.5t-14.5 35.5q0 20 14.5 35t35.5 15t35.5 -15t14.5 -35q0 -21 -14.5 -35.5t-35.5 -14.5z" />
    <glyph glyph-name="uni030A" unicode="&#x30a;" 
d="M179 557q-43 0 -74 27.5t-31 75.5t31 75.5t74 27.5q44 0 74.5 -27.5t30.5 -75.5t-30.5 -75.5t-74.5 -27.5zM179 600q24 0 40.5 16.5t16.5 43.5t-16.5 43t-40.5 16q-23 0 -40 -16t-17 -43t17 -43.5t40 -16.5z" />
    <glyph glyph-name="uni030B" unicode="&#x30b;" 
d="M199 549l105 149h73l-121 -149h-57zM53 549l93 149h73l-110 -149h-56z" />
    <glyph glyph-name="uni030C" unicode="&#x30c;" 
d="M191 553l-123 82l13 62l120 -82l153 85l-12 -65z" />
    <glyph glyph-name="uni0327" unicode="&#x327;" 
d="M-89 -259l9 53h92q76 0 76 52q0 41 -59 41h-50l21 120h57l-13 -70q52 1 83 -19.5t31 -64.5q0 -48 -39 -80t-97 -32h-111z" />
    <glyph glyph-name="uni0328" unicode="&#x328;" 
d="M38 -203q-31 0 -56 9.5t-38 30.5t-7 55q6 35 37.5 67.5t100.5 60.5l57 23l14 -43l-62 -28q-39 -18 -56.5 -35.5t-20.5 -36.5q-5 -23 9.5 -36t41.5 -13q30 0 68 15l-10 -56q-18 -6 -38.5 -9.5t-39.5 -3.5z" />
    <glyph glyph-name="pi" unicode="&#x3c0;" horiz-adv-x="646" 
d="M81 0l77 430h-80l12 66h554l-12 -66h-79l-76 -430h-84l76 430h-227l-77 -430h-84z" />
    <glyph glyph-name="Wgrave" unicode="&#x1e80;" horiz-adv-x="968" 
d="M168 -1l-68 701h91l45 -596l277 596h94l60 -597l258 597h91l-320 -700h-96l-65 576l-272 -576zM602 741l-189 117l12 73l188 -127z" />
    <glyph glyph-name="wgrave" unicode="&#x1e81;" horiz-adv-x="745" 
d="M122 0l-59 496h85l36 -389l185 389h95l47 -389l174 389h84l-232 -496h-86l-50 409l-194 -409h-85zM454 537l-189 117l12 73l188 -127z" />
    <glyph glyph-name="Wacute" unicode="&#x1e82;" horiz-adv-x="968" 
d="M168 -1l-68 701h91l45 -596l277 596h94l60 -597l258 597h91l-320 -700h-96l-65 576l-272 -576zM528 741l10 63l233 127l-13 -73z" />
    <glyph glyph-name="wacute" unicode="&#x1e83;" horiz-adv-x="745" 
d="M122 0l-59 496h85l36 -389l185 389h95l47 -389l174 389h84l-232 -496h-86l-50 409l-194 -409h-85zM380 537l10 63l233 127l-13 -73z" />
    <glyph glyph-name="Wdieresis" unicode="&#x1e84;" horiz-adv-x="968" 
d="M168 -1l-68 701h91l45 -596l277 596h94l60 -597l258 597h91l-320 -700h-96l-65 576l-272 -576zM668 775q-22 0 -36 14.5t-14 35.5q0 20 14 35t36 15q20 0 34.5 -15t14.5 -35q0 -21 -14.5 -35.5t-34.5 -14.5zM507 775q-21 0 -35.5 14.5t-14.5 35.5q0 20 14.5 35t35.5 15
t35.5 -15t14.5 -35q0 -21 -14.5 -35.5t-35.5 -14.5z" />
    <glyph glyph-name="wdieresis" unicode="&#x1e85;" horiz-adv-x="745" 
d="M122 0l-59 496h85l36 -389l185 389h95l47 -389l174 389h84l-232 -496h-86l-50 409l-194 -409h-85zM519 571q-22 0 -36 14.5t-14 35.5q0 20 14 35t36 15q20 0 34.5 -15t14.5 -35q0 -21 -14.5 -35.5t-34.5 -14.5zM358 571q-21 0 -35.5 14.5t-14.5 35.5q0 20 14.5 35
t35.5 15t35.5 -15t14.5 -35q0 -21 -14.5 -35.5t-35.5 -14.5z" />
    <glyph glyph-name="uni1EBC" unicode="&#x1ebc;" horiz-adv-x="542" 
d="M31 0l123 700h405l-13 -67h-320l-43 -247h290l-11 -66h-291l-44 -253h320l-12 -67h-404zM227 759q16 50 45.5 75.5t67.5 25.5q27 0 42 -12t29 -23.5t36 -11.5q16 0 30 11t21 34h49q-15 -49 -45.5 -75t-68.5 -26q-27 0 -43 12t-29.5 23.5t-34.5 11.5q-37 0 -50 -45h-49z
" />
    <glyph glyph-name="uni1EBD" unicode="&#x1ebd;" horiz-adv-x="568" 
d="M246 -12q-92 0 -147.5 57t-55.5 153q0 86 38 156.5t104.5 112t151.5 41.5q65 0 109.5 -25.5t67 -68.5t22.5 -95q0 -20 -4.5 -45.5t-8.5 -44.5h-396q-2 -17 -2 -30q0 -71 40 -105.5t94 -34.5q52 0 91.5 24.5t61.5 64.5h83q-31 -69 -96 -114.5t-153 -45.5zM326 437
q-60 0 -113 -36.5t-73 -106.5h312q1 6 1.5 11.5t0.5 10.5q0 57 -35 89t-93 32zM196 555q16 50 46 75.5t67 25.5q27 0 42.5 -12t29 -23.5t35.5 -11.5q16 0 30 11t21 34h49q-14 -49 -45 -75t-69 -26q-27 0 -43 12t-29.5 23.5t-33.5 11.5q-37 0 -51 -45h-49z" />
    <glyph glyph-name="Ygrave" unicode="&#x1ef2;" horiz-adv-x="579" 
d="M198 0l47 266l-152 434h96l112 -354l238 354h94l-304 -434l-47 -266h-84zM400 741l-189 117l12 73l188 -127z" />
    <glyph glyph-name="ygrave" unicode="&#x1ef3;" horiz-adv-x="555" 
d="M41 -220l169 268h-28l-119 448h89l99 -386l241 386h88l-451 -716h-88zM357 537l-189 117l12 73l188 -127z" />
    <glyph glyph-name="uni1EF8" unicode="&#x1ef8;" horiz-adv-x="579" 
d="M198 0l47 266l-152 434h96l112 -354l238 354h94l-304 -434l-47 -266h-84zM232 759q16 50 45.5 75.5t67.5 25.5q27 0 42 -12t29 -23.5t36 -11.5q16 0 30 11t21 34h49q-15 -49 -45.5 -75t-68.5 -26q-27 0 -43 12t-29.5 23.5t-34.5 11.5q-37 0 -50 -45h-49z" />
    <glyph glyph-name="uni1EF9" unicode="&#x1ef9;" horiz-adv-x="555" 
d="M41 -220l169 268h-28l-119 448h89l99 -386l241 386h88l-451 -716h-88zM189 555q16 50 45.5 75.5t67.5 25.5q27 0 42 -12t29 -23.5t36 -11.5q16 0 30 11t21 34h49q-15 -49 -45.5 -75t-68.5 -26q-27 0 -43 12t-29.5 23.5t-34.5 11.5q-37 0 -50 -45h-49z" />
    <glyph glyph-name="endash" unicode="&#x2013;" horiz-adv-x="642" 
d="M61 255l12 71h524l-13 -71h-523z" />
    <glyph glyph-name="emdash" unicode="&#x2014;" horiz-adv-x="847" 
d="M61 255l12 71h728l-12 -71h-728z" />
    <glyph glyph-name="quoteleft" unicode="&#x2018;" horiz-adv-x="213" 
d="M65 477l131 223h60l-97 -223h-94z" />
    <glyph glyph-name="quoteright" unicode="&#x2019;" horiz-adv-x="213" 
d="M78 477l96 223h94l-130 -223h-60z" />
    <glyph glyph-name="quotesinglbase" unicode="&#x201a;" horiz-adv-x="184" 
d="M-65 -122l97 224h94l-131 -224h-60z" />
    <glyph glyph-name="quotedblleft" unicode="&#x201c;" horiz-adv-x="372" 
d="M224 477l131 223h60l-96 -223h-95zM65 477l131 223h60l-97 -223h-94z" />
    <glyph glyph-name="quotedblright" unicode="&#x201d;" horiz-adv-x="371" 
d="M236 476l97 223h94l-131 -223h-60zM77 476l97 223h94l-131 -223h-60z" />
    <glyph glyph-name="quotedblbase" unicode="&#x201e;" horiz-adv-x="353" 
d="M105 -122l96 224h94l-130 -224h-60zM-65 -122l97 224h94l-131 -224h-60z" />
    <glyph glyph-name="dagger" unicode="&#x2020;" horiz-adv-x="531" 
d="M128 -259l141 747l-192 -7l12 67l189 -8l34 240h83l-50 -240l192 8l-12 -67l-190 7l-123 -747h-84z" />
    <glyph glyph-name="daggerdbl" unicode="&#x2021;" horiz-adv-x="532" 
d="M128 -259l52 240l-193 -7l13 67l188 -8l81 455l-192 -7l12 67l189 -8l34 240h83l-50 -240l192 8l-12 -67l-189 7l-81 -455l193 8l-12 -67l-190 7l-35 -240h-83z" />
    <glyph glyph-name="bullet" unicode="&#x2022;" horiz-adv-x="347" 
d="M188 213q-33 0 -60 16t-43.5 43.5t-16.5 60.5q0 34 16.5 61.5t43.5 43.5t60 16q34 0 61.5 -16t43.5 -43.5t16 -61.5q0 -33 -16 -60.5t-43.5 -43.5t-61.5 -16z" />
    <glyph glyph-name="ellipsis" unicode="&#x2026;" horiz-adv-x="565" 
d="M248 -5q-25 0 -41.5 16.5t-16.5 40.5t16.5 40.5t41.5 16.5t41 -16.5t16 -40.5t-16 -40.5t-41 -16.5zM432 -5q-25 0 -41.5 16.5t-16.5 40.5t16.5 40.5t41.5 16.5t41 -16.5t16 -40.5t-16 -40.5t-41 -16.5zM64 -5q-25 0 -41.5 16.5t-16.5 40.5t16.5 40.5t41.5 16.5t41 -16.5
t16 -40.5t-16 -40.5t-41 -16.5z" />
    <glyph glyph-name="perthousand" unicode="&#x2030;" horiz-adv-x="1135" 
d="M228 375q-60 0 -99 37.5t-39 101.5q0 54 25.5 98.5t68.5 71.5t96 27q60 0 98.5 -37t38.5 -102q0 -54 -25.5 -98.5t-68.5 -71.5t-95 -27zM96 0l530 700h84l-530 -700h-84zM236 438q30 0 55 17.5t40 46.5t15 64q0 42 -21.5 62.5t-52.5 20.5q-30 0 -55.5 -17.5t-40.5 -46.5
t-15 -64q0 -42 22 -62.5t53 -20.5zM533 -12q-60 0 -98.5 37t-38.5 102q0 54 25.5 98.5t68.5 71.5t96 27q60 0 98 -36.5t38 -101.5q0 -54 -25.5 -99t-68 -72t-95.5 -27zM892 -12q-60 0 -98.5 37t-38.5 102q0 54 25.5 98.5t68.5 71.5t96 27q60 0 98 -36.5t38 -101.5
q0 -54 -25.5 -99t-68 -72t-95.5 -27zM542 51q30 0 55 17.5t40 46.5t15 64q0 42 -21.5 62.5t-52.5 20.5t-56 -17.5t-40 -46.5t-15 -64q0 -42 21.5 -62.5t53.5 -20.5zM900 51q31 0 56 17.5t40 46.5t15 64q0 42 -21.5 62.5t-52.5 20.5t-56 -17.5t-40 -46.5t-15 -64
q0 -42 21.5 -62.5t52.5 -20.5z" />
    <glyph glyph-name="guilsinglleft" unicode="&#x2039;" horiz-adv-x="275" 
d="M114 120l-66 175l128 175h83l-131 -175l70 -175h-84z" />
    <glyph glyph-name="guilsinglright" unicode="&#x203a;" horiz-adv-x="274" 
d="M31 120l131 175l-69 175h83l66 -175l-128 -175h-83z" />
    <glyph glyph-name="fraction" unicode="&#x2044;" horiz-adv-x="431" 
d="M-74 0l531 700h84l-531 -700h-84z" />
    <glyph glyph-name="uni2074" unicode="&#x2074;" horiz-adv-x="322" 
d="M212 352l12 66h-172l9 50l205 232h73l-40 -228h46l-10 -54h-45l-12 -66h-66zM130 472h108l27 156z" />
    <glyph glyph-name="uni20A8" unicode="&#x20a8;" horiz-adv-x="1090" 
d="M27 0l124 699h221q82 0 130.5 -27t65.5 -73.5t7 -104.5q-13 -76 -67.5 -131.5t-152.5 -68.5l142 -294h-101l-135 290h-98l-52 -290h-84zM174 356h136q83 0 126 38t53 99q12 63 -18 101t-112 38h-137zM773 -8q-93 0 -144 45.5t-45 128.5h86q-5 -47 24.5 -77.5t89.5 -30.5
q55 0 88 26t40 64q6 32 -8.5 50.5t-42 29t-61.5 18t-67.5 17t-60 25t-39.5 42t-5 69.5q7 44 37 79.5t78.5 56.5t109.5 21q90 0 136.5 -47t39.5 -127h-85q3 46 -22.5 77t-83.5 31q-54 0 -88 -25.5t-41 -64.5q-6 -31 9 -49t42.5 -28t61.5 -17.5t67.5 -17t60 -25.5t39 -44
t5.5 -72q-9 -46 -39.5 -81t-77.5 -54.5t-104 -19.5z" />
    <glyph glyph-name="Euro" unicode="&#x20ac;" horiz-adv-x="771" 
d="M14 239l11 62h84q3 47 14 91h-81l11 63h90q31 77 86 135t127 90t156 32q120 0 186 -57.5t69 -160.5h-95q-2 67 -45 105.5t-127 38.5q-88 0 -158.5 -50t-108.5 -133h252l-11 -63h-263q-12 -44 -15 -91h261l-11 -62h-249q10 -84 62.5 -130.5t139.5 -46.5q84 0 140 38
t82 103h95q-40 -102 -124.5 -158.5t-203.5 -56.5q-125 0 -197.5 68.5t-81.5 182.5h-95z" />
    <glyph glyph-name="uni20BD" unicode="&#x20bd;" horiz-adv-x="618" 
d="M77 0l22 126h-86l12 68h86l18 100h-86l11 69h87l60 337h220q107 0 157 -48t50 -128q0 -69 -36 -120.5t-99 -80.5t-144 -29h-137l-17 -100h223l-12 -68h-223l-22 -126h-84zM407 634h-135l-48 -271h136q87 0 134 42.5t47 114.5q0 55 -32 84.5t-102 29.5z" />
    <glyph glyph-name="uni2113" unicode="&#x2113;" horiz-adv-x="234" 
d="M13 -100l146 820h84l-146 -820h-84z" />
    <glyph glyph-name="trademark" unicode="&#x2122;" horiz-adv-x="772" 
d="M338 348l62 352h85l65 -275l166 275h80l-62 -352h-62l45 260l-159 -260h-48l-65 264l-47 -264h-60zM128 348l54 299h-90l9 53h245l-9 -53h-90l-53 -299h-66z" />
    <glyph glyph-name="uni2126" unicode="&#x2126;" horiz-adv-x="789" 
d="M5 0l12 66h145q-36 24 -61.5 62.5t-39 84.5t-13.5 93q0 86 33 160t91.5 129t134.5 86t162 31t153 -36t105 -100.5t38 -150.5q0 -75 -26 -144.5t-74 -125.5t-114 -89h144l-13 -66h-275l13 69q78 18 136 70t90.5 123.5t32.5 149.5q0 69 -28.5 119t-78.5 77.5t-116 27.5
q-70 0 -129 -25.5t-102.5 -70.5t-67.5 -105t-24 -128q0 -58 20 -107.5t56 -83.5t84 -47l-12 -69h-276z" />
    <glyph glyph-name="estimated" unicode="&#x212e;" horiz-adv-x="762" 
d="M339 -7q-86 0 -151.5 30.5t-102 89t-36.5 143.5q0 17 1.5 35.5t5.5 38.5q14 77 47.5 144t85 117.5t118.5 79t147 28.5q94 0 157 -36t94 -96.5t31 -131.5q0 -28 -5 -60l-11 -61h-536l-31 -166q32 -48 78 -73t118 -25q77 0 142.5 34t136.5 95l32 -42q-73 -67 -154 -105.5
t-167 -38.5zM194 376h397l31 177q-24 43 -69.5 66t-108.5 23t-119.5 -24t-101.5 -76z" />
    <glyph glyph-name="partialdiff" unicode="&#x2202;" horiz-adv-x="567" 
d="M182 -10q-53 0 -93 25t-57.5 76t-3.5 130q12 66 41.5 126.5t73.5 107.5t97.5 74.5t113.5 27.5q48 0 81 -24t37 -89q11 70 5 125t-35.5 87.5t-88.5 32.5q-19 0 -39 -3.5t-43 -9.5l9 50q50 14 97 14q110 0 156 -84t17 -243q-23 -130 -78 -225t-130.5 -146.5t-159.5 -51.5z
M204 62q56 0 104.5 37t83 97t46.5 130q15 82 -11 121t-81 39t-103 -35t-82 -95.5t-48 -134.5q-14 -83 13.5 -121t77.5 -38z" />
    <glyph glyph-name="uni2206" unicode="&#x2206;" horiz-adv-x="695" 
d="M-14 0l12 65l393 635h70l172 -635l-12 -65h-635zM83 65h465l-140 539z" />
    <glyph glyph-name="product" unicode="&#x220f;" horiz-adv-x="726" 
d="M74 0l111 634h-80l13 66h651l-12 -66h-80l-111 -634h-84l112 634h-325l-111 -634h-84z" />
    <glyph glyph-name="summation" unicode="&#x2211;" horiz-adv-x="564" 
d="M32 -49l17 96l311 279l-213 278l17 96h390l-12 -65h-320l219 -275l-11 -65l-315 -279h318l-12 -65h-389z" />
    <glyph glyph-name="minus" unicode="&#x2212;" horiz-adv-x="523" 
d="M65 255l12 71h396l-12 -71h-396z" />
    <glyph glyph-name="uni2215" unicode="&#x2215;" horiz-adv-x="391" 
d="M-32 -95l402 859h83l-403 -859h-82z" />
    <glyph glyph-name="radical" unicode="&#x221a;" horiz-adv-x="705" 
d="M173 -44l-85 215l-69 -36l-19 44l150 79l77 -199l574 806h60l-648 -909h-40z" />
    <glyph glyph-name="infinity" unicode="&#x221e;" horiz-adv-x="707" 
d="M169 141q-55 0 -90.5 32.5t-35.5 91.5q0 49 23.5 87t63 60t87.5 22q40 0 68 -14.5t48 -38.5t36 -51q31 43 77 73.5t103 30.5t93 -32.5t36 -90.5q0 -48 -24.5 -86.5t-65 -61t-89.5 -22.5q-59 0 -93 30t-59 68q-31 -40 -76.5 -69t-101.5 -29zM114 275q0 -36 22 -54.5
t54 -18.5q36 0 69.5 22.5t61.5 59.5q-21 36 -45.5 63t-64.5 27q-41 0 -69 -29.5t-28 -69.5zM534 373q-37 0 -73.5 -24.5t-64.5 -63.5q21 -34 45.5 -59t65.5 -25q42 0 71 27.5t29 70.5q0 34 -19 54t-54 20z" />
    <glyph glyph-name="integral" unicode="&#x222b;" horiz-adv-x="258" 
d="M-121 -191l19 70h21q28 0 42 14.5t25 52.5l240 836q20 72 62.5 102.5t105.5 30.5h23l-20 -71h-18q-25 0 -42 -13t-27 -49l-240 -836q-21 -73 -61.5 -105t-106.5 -32h-23z" />
    <glyph glyph-name="approxequal" unicode="&#x2248;" horiz-adv-x="512" 
d="M314 112q-29 0 -49 10t-36 23t-33 23t-39 10q-26 0 -47 -18t-32 -47h-63q26 72 67 106.5t94 34.5q29 0 49 -10t36.5 -23t33.5 -23t38 -10q26 0 47.5 18t31.5 48h63q-25 -72 -67 -107t-94 -35zM350 319q-29 0 -49 10t-36 23t-33 23t-39 10q-26 0 -47 -18t-32 -47h-63
q26 72 67 106.5t94 34.5q29 0 49 -10t36.5 -23t33.5 -23t38 -10q26 0 47.5 18t31.5 48h63q-25 -72 -67 -107t-94 -35z" />
    <glyph glyph-name="notequal" unicode="&#x2260;" horiz-adv-x="526" 
d="M87 85l47 66h-87l12 72h125l96 136h-196l12 72h235l48 67h75l-47 -67h87l-12 -72h-126l-96 -136h198l-13 -72h-236l-47 -66h-75z" />
    <glyph glyph-name="lessequal" unicode="&#x2264;" horiz-adv-x="482" 
d="M308 213l-212 192l280 193h109l-278 -193l211 -192h-110zM47 89l10 64h350l-12 -64h-348z" />
    <glyph glyph-name="greaterequal" unicode="&#x2265;" horiz-adv-x="481" 
d="M52 213l276 193l-209 192h109l212 -193l-280 -192h-108zM31 89l11 64h350l-12 -64h-349z" />
    <glyph glyph-name="lozenge" unicode="&#x25ca;" horiz-adv-x="553" 
d="M245 110l-196 240l283 239l196 -239zM260 195l182 155l-125 153l-182 -154z" />
    <glyph glyph-name="a.ss02" horiz-adv-x="620" 
d="M247 -12q-64 0 -109.5 29.5t-69.5 79.5t-24 110q0 88 37.5 155.5t101.5 106.5t143 39q66 0 108 -26t62 -69l21 83h78l-88 -496h-78l8 82q-29 -36 -75 -65t-115 -29zM271 61q57 0 101.5 31t70 83.5t25.5 115.5q0 65 -37 104.5t-102 39.5q-57 0 -102 -29t-70.5 -78.5
t-25.5 -112.5q0 -66 37.5 -110t102.5 -44z" />
    <glyph glyph-name="aacute.ss02" horiz-adv-x="620" 
d="M247 -12q-64 0 -109.5 29.5t-69.5 79.5t-24 110q0 88 37.5 155.5t101.5 106.5t143 39q66 0 108 -26t62 -69l21 83h78l-88 -496h-78l8 82q-29 -36 -75 -65t-115 -29zM271 61q57 0 101.5 31t70 83.5t25.5 115.5q0 65 -37 104.5t-102 39.5q-57 0 -102 -29t-70.5 -78.5
t-25.5 -112.5q0 -66 37.5 -110t102.5 -44zM312 537l10 63l233 127l-13 -73z" />
    <glyph glyph-name="abreve.ss02" horiz-adv-x="620" 
d="M247 -12q-64 0 -109.5 29.5t-69.5 79.5t-24 110q0 88 37.5 155.5t101.5 106.5t143 39q66 0 108 -26t62 -69l21 83h78l-88 -496h-78l8 82q-29 -36 -75 -65t-115 -29zM271 61q57 0 101.5 31t70 83.5t25.5 115.5q0 65 -37 104.5t-102 39.5q-57 0 -102 -29t-70.5 -78.5
t-25.5 -112.5q0 -66 37.5 -110t102.5 -44zM359 559q-67 0 -96 37.5t-20 92.5l2 14h50q-7 -37 10.5 -57.5t65.5 -20.5t72.5 20.5t31.5 57.5h51l-3 -15q-11 -54 -52.5 -91.5t-111.5 -37.5z" />
    <glyph glyph-name="acircumflex.ss02" horiz-adv-x="620" 
d="M247 -12q-64 0 -109.5 29.5t-69.5 79.5t-24 110q0 88 37.5 155.5t101.5 106.5t143 39q66 0 108 -26t62 -69l21 83h78l-88 -496h-78l8 82q-29 -36 -75 -65t-115 -29zM271 61q57 0 101.5 31t70 83.5t25.5 115.5q0 65 -37 104.5t-102 39.5q-57 0 -102 -29t-70.5 -78.5
t-25.5 -112.5q0 -66 37.5 -110t102.5 -44zM221 554l12 65l152 82l122 -82l-12 -65l-122 84z" />
    <glyph glyph-name="adieresis.ss02" horiz-adv-x="620" 
d="M247 -12q-64 0 -109.5 29.5t-69.5 79.5t-24 110q0 88 37.5 155.5t101.5 106.5t143 39q66 0 108 -26t62 -69l21 83h78l-88 -496h-78l8 82q-29 -36 -75 -65t-115 -29zM271 61q57 0 101.5 31t70 83.5t25.5 115.5q0 65 -37 104.5t-102 39.5q-57 0 -102 -29t-70.5 -78.5
t-25.5 -112.5q0 -66 37.5 -110t102.5 -44zM451 571q-22 0 -36 14.5t-14 35.5q0 20 14 35t36 15q20 0 34.5 -15t14.5 -35q0 -21 -14.5 -35.5t-34.5 -14.5zM290 571q-21 0 -35.5 14.5t-14.5 35.5q0 20 14.5 35t35.5 15t35.5 -15t14.5 -35q0 -21 -14.5 -35.5t-35.5 -14.5z" />
    <glyph glyph-name="agrave.ss02" horiz-adv-x="620" 
d="M247 -12q-64 0 -109.5 29.5t-69.5 79.5t-24 110q0 88 37.5 155.5t101.5 106.5t143 39q66 0 108 -26t62 -69l21 83h78l-88 -496h-78l8 82q-29 -36 -75 -65t-115 -29zM271 61q57 0 101.5 31t70 83.5t25.5 115.5q0 65 -37 104.5t-102 39.5q-57 0 -102 -29t-70.5 -78.5
t-25.5 -112.5q0 -66 37.5 -110t102.5 -44zM385 537l-189 117l12 73l188 -127z" />
    <glyph glyph-name="amacron.ss02" horiz-adv-x="620" 
d="M247 -12q-64 0 -109.5 29.5t-69.5 79.5t-24 110q0 88 37.5 155.5t101.5 106.5t143 39q66 0 108 -26t62 -69l21 83h78l-88 -496h-78l8 82q-29 -36 -75 -65t-115 -29zM271 61q57 0 101.5 31t70 83.5t25.5 115.5q0 65 -37 104.5t-102 39.5q-57 0 -102 -29t-70.5 -78.5
t-25.5 -112.5q0 -66 37.5 -110t102.5 -44zM191 592l12 63h347l-10 -63h-349z" />
    <glyph glyph-name="aogonek.ss02" horiz-adv-x="620" 
d="M247 -12q-64 0 -109.5 29.5t-69.5 79.5t-24 110q0 88 37.5 155.5t101.5 106.5t143 39q66 0 108 -26t62 -69l21 83h78l-88 -496h-78l8 82q-29 -36 -75 -65t-115 -29zM271 61q57 0 101.5 31t70 83.5t25.5 115.5q0 65 -37 104.5t-102 39.5q-57 0 -102 -29t-70.5 -78.5
t-25.5 -112.5q0 -66 37.5 -110t102.5 -44zM399 -203q-31 0 -56 9.5t-38 30.5t-7 55q6 35 37.5 67.5t100.5 60.5l57 23l14 -43l-62 -28q-39 -18 -56.5 -35.5t-20.5 -36.5q-5 -23 9.5 -36t41.5 -13q30 0 68 15l-10 -56q-18 -6 -38.5 -9.5t-39.5 -3.5z" />
    <glyph glyph-name="aring.ss02" horiz-adv-x="620" 
d="M247 -12q-64 0 -109.5 29.5t-69.5 79.5t-24 110q0 88 37.5 155.5t101.5 106.5t143 39q66 0 108 -26t62 -69l21 83h78l-88 -496h-78l8 82q-29 -36 -75 -65t-115 -29zM271 61q57 0 101.5 31t70 83.5t25.5 115.5q0 65 -37 104.5t-102 39.5q-57 0 -102 -29t-70.5 -78.5
t-25.5 -112.5q0 -66 37.5 -110t102.5 -44zM378 557q-43 0 -74 27.5t-31 75.5t31 75.5t74 27.5q44 0 74.5 -27.5t30.5 -75.5t-30.5 -75.5t-74.5 -27.5zM378 600q24 0 40.5 16.5t16.5 43.5t-16.5 43t-40.5 16q-23 0 -40 -16t-17 -43t17 -43.5t40 -16.5z" />
    <glyph glyph-name="atilde.ss02" horiz-adv-x="620" 
d="M247 -12q-64 0 -109.5 29.5t-69.5 79.5t-24 110q0 88 37.5 155.5t101.5 106.5t143 39q66 0 108 -26t62 -69l21 83h78l-88 -496h-78l8 82q-29 -36 -75 -65t-115 -29zM271 61q57 0 101.5 31t70 83.5t25.5 115.5q0 65 -37 104.5t-102 39.5q-57 0 -102 -29t-70.5 -78.5
t-25.5 -112.5q0 -66 37.5 -110t102.5 -44zM218 555q16 50 45.5 75.5t67.5 25.5q27 0 42 -12t29 -23.5t36 -11.5q16 0 30 11t21 34h49q-15 -49 -45.5 -75t-68.5 -26q-27 0 -43 12t-29.5 23.5t-34.5 11.5q-37 0 -50 -45h-49z" />
    <glyph glyph-name="ae.ss02" horiz-adv-x="987" 
d="M247 -12q-64 0 -109.5 29.5t-69.5 79.5t-24 110q0 88 37.5 155.5t101.5 106.5t143 39q63 0 103.5 -23.5t61.5 -61.5l19 73h70l-10 -55q37 32 84.5 49.5t101.5 17.5q65 0 109.5 -25.5t67 -68.5t22.5 -95q0 -20 -4.5 -45.5t-8.5 -44.5h-396q-2 -17 -2 -30q0 -71 40 -105.5
t94 -34.5q52 0 91.5 24.5t61.5 64.5h83q-31 -69 -96 -114.5t-153 -45.5q-53 0 -94.5 19.5t-67.5 54.5l-11 -62h-70l10 77q-29 -35 -73.5 -62t-111.5 -27zM745 437q-60 0 -113 -36.5t-73 -106.5h312q1 6 1.5 11.5t0.5 10.5q0 57 -35 89t-93 32zM271 61q57 0 101.5 31t70 83.5
t25.5 115.5q0 65 -37 104.5t-102 39.5q-57 0 -102 -29t-70.5 -78.5t-25.5 -112.5q0 -66 37.5 -110t102.5 -44z" />
    <glyph glyph-name="aeacute.ss02" horiz-adv-x="987" 
d="M247 -12q-64 0 -109.5 29.5t-69.5 79.5t-24 110q0 88 37.5 155.5t101.5 106.5t143 39q63 0 103.5 -23.5t61.5 -61.5l19 73h70l-10 -55q37 32 84.5 49.5t101.5 17.5q65 0 109.5 -25.5t67 -68.5t22.5 -95q0 -20 -4.5 -45.5t-8.5 -44.5h-396q-2 -17 -2 -30q0 -71 40 -105.5
t94 -34.5q52 0 91.5 24.5t61.5 64.5h83q-31 -69 -96 -114.5t-153 -45.5q-53 0 -94.5 19.5t-67.5 54.5l-11 -62h-70l10 77q-29 -35 -73.5 -62t-111.5 -27zM745 437q-60 0 -113 -36.5t-73 -106.5h312q1 6 1.5 11.5t0.5 10.5q0 57 -35 89t-93 32zM271 61q57 0 101.5 31t70 83.5
t25.5 115.5q0 65 -37 104.5t-102 39.5q-57 0 -102 -29t-70.5 -78.5t-25.5 -112.5q0 -66 37.5 -110t102.5 -44zM512 537l10 63l233 127l-13 -73z" />
    <glyph glyph-name="g.ss03" horiz-adv-x="644" 
d="M236 -232q-65 0 -115.5 22.5t-79.5 64.5t-28 102h83q5 -53 45.5 -84.5t104.5 -31.5q49 0 91.5 21t73 62.5t41.5 103.5l12 72q-31 -42 -84.5 -76t-127.5 -34q-61 0 -108.5 28.5t-74 77.5t-26.5 110q0 62 22.5 116.5t62.5 96.5t93.5 65.5t116.5 23.5q65 0 113.5 -29.5
t67.5 -71.5l30 89h70l-84 -475q-14 -78 -55.5 -134.5t-104 -87.5t-139.5 -31zM278 63q58 0 106.5 31t77.5 82.5t29 112.5q0 66 -43.5 106t-109.5 40q-62 0 -108.5 -30.5t-72.5 -81t-26 -110.5q0 -67 40.5 -108.5t106.5 -41.5z" />
    <glyph glyph-name="gbreve.ss03" horiz-adv-x="644" 
d="M236 -232q-65 0 -115.5 22.5t-79.5 64.5t-28 102h83q5 -53 45.5 -84.5t104.5 -31.5q49 0 91.5 21t73 62.5t41.5 103.5l12 72q-31 -42 -84.5 -76t-127.5 -34q-61 0 -108.5 28.5t-74 77.5t-26.5 110q0 62 22.5 116.5t62.5 96.5t93.5 65.5t116.5 23.5q65 0 113.5 -29.5
t67.5 -71.5l30 89h70l-84 -475q-14 -78 -55.5 -134.5t-104 -87.5t-139.5 -31zM278 63q58 0 106.5 31t77.5 82.5t29 112.5q0 66 -43.5 106t-109.5 40q-62 0 -108.5 -30.5t-72.5 -81t-26 -110.5q0 -67 40.5 -108.5t106.5 -41.5zM359 559q-67 0 -96 37.5t-20 92.5l2 14h50
q-7 -37 10.5 -57.5t65.5 -20.5t72.5 20.5t31.5 57.5h51l-3 -15q-11 -54 -52.5 -91.5t-111.5 -37.5z" />
    <glyph glyph-name="uni0123.ss03" horiz-adv-x="644" 
d="M316 595q-1 50 5 90q10 57 40 83.5t77 26.5l-6 -40q-48 0 -57 -53l-4 -23h48l-15 -84h-88zM236 -232q-65 0 -115.5 22.5t-79.5 64.5t-28 102h83q5 -53 45.5 -84.5t104.5 -31.5q49 0 91.5 21t73 62.5t41.5 103.5l12 72q-31 -42 -84.5 -76t-127.5 -34q-61 0 -108.5 28.5
t-74 77.5t-26.5 110q0 62 22.5 116.5t62.5 96.5t93.5 65.5t116.5 23.5q65 0 113.5 -29.5t67.5 -71.5l30 89h70l-84 -475q-14 -78 -55.5 -134.5t-104 -87.5t-139.5 -31zM278 63q58 0 106.5 31t77.5 82.5t29 112.5q0 66 -43.5 106t-109.5 40q-62 0 -108.5 -30.5t-72.5 -81
t-26 -110.5q0 -67 40.5 -108.5t106.5 -41.5z" />
    <glyph glyph-name="gdotaccent.ss03" horiz-adv-x="644" 
d="M236 -232q-65 0 -115.5 22.5t-79.5 64.5t-28 102h83q5 -53 45.5 -84.5t104.5 -31.5q49 0 91.5 21t73 62.5t41.5 103.5l12 72q-31 -42 -84.5 -76t-127.5 -34q-61 0 -108.5 28.5t-74 77.5t-26.5 110q0 62 22.5 116.5t62.5 96.5t93.5 65.5t116.5 23.5q65 0 113.5 -29.5
t67.5 -71.5l30 89h70l-84 -475q-14 -78 -55.5 -134.5t-104 -87.5t-139.5 -31zM278 63q58 0 106.5 31t77.5 82.5t29 112.5q0 66 -43.5 106t-109.5 40q-62 0 -108.5 -30.5t-72.5 -81t-26 -110.5q0 -67 40.5 -108.5t106.5 -41.5zM368 562q-20 0 -34.5 15t-14.5 35
q0 21 14.5 35.5t34.5 14.5q21 0 35.5 -14.5t14.5 -35.5q0 -20 -14.5 -35t-35.5 -15z" />
    <glyph glyph-name="three.ss04" horiz-adv-x="588" 
d="M248 -5q-95 0 -150 46.5t-55 135.5q0 8 0.5 15.5t1.5 15.5h79q-2 -16 -2 -28q0 -51 36.5 -83t101.5 -32q56 0 97.5 24.5t65 67t23.5 96.5q0 57 -34 87.5t-98 30.5h-105l10 58l240 198h-302l13 73h411l-12 -62l-247 -206h7q93 0 144.5 -46.5t51.5 -127.5q0 -78 -35.5 -137
t-98 -92.5t-143.5 -33.5z" />
    <glyph glyph-name="six.ss04" horiz-adv-x="590" 
d="M255 -2q-67 0 -115 25.5t-73.5 70t-25.5 100.5q0 60 21 110.5t48 88t45 58.5l221 259h99l-214 -247q38 14 83 14q62 0 106.5 -26.5t69 -71.5t24.5 -102q0 -81 -38.5 -144t-104 -99t-146.5 -36zM267 75q56 0 99.5 24.5t68.5 68t25 101.5q0 59 -36 99t-101 40
q-56 0 -100.5 -27t-70.5 -73t-26 -103q0 -60 38 -95t103 -35z" />
    <glyph glyph-name="nine.ss04" horiz-adv-x="590" 
d="M153 0l214 247q-39 -14 -84 -14q-61 0 -106 26.5t-69 72t-24 101.5q0 81 38.5 144t104 99t146.5 36q67 0 115 -26.5t73.5 -71.5t25.5 -102q0 -59 -21 -108.5t-48 -86.5t-45 -58l-221 -259h-99zM305 302q56 0 100.5 27t70 73t25.5 104q0 59 -38 94t-103 35
q-55 0 -98.5 -24t-68.5 -68t-25 -102t36 -98.5t101 -40.5z" />
    <glyph glyph-name="comma.ss01" horiz-adv-x="173" 
d="M-23 -97l6 39q49 0 57 54l4 23h-48l15 83h88q1 -26 -0.5 -48.5t-4.5 -41.5q-10 -57 -40 -83t-77 -26z" />
    <glyph glyph-name="quotesinglbase.ss01" horiz-adv-x="173" 
d="M-23 -97l6 39q49 0 57 54l4 23h-48l15 83h88q1 -26 -0.5 -48.5t-4.5 -41.5q-10 -57 -40 -83t-77 -26z" />
    <glyph glyph-name="quotedblbase.ss01" horiz-adv-x="303" 
d="M-23 -97l6 39q49 0 57 54l4 23h-48l15 83h88q1 -26 -0.5 -48.5t-4.5 -41.5q-10 -57 -40 -83t-77 -26zM107 -97l7 39q49 0 57 54l4 23h-49l16 83h88q1 -26 -1 -48.5t-5 -41.5q-9 -57 -39 -83t-78 -26z" />
    <glyph glyph-name="quotedblleft.ss01" horiz-adv-x="293" 
d="M226 582q-2 26 -0.5 48t4.5 42q10 57 40 83t78 26l-7 -40q-26 0 -39.5 -13.5t-17.5 -39.5l-4 -23h48l-14 -83h-88zM95 582q-1 26 0.5 48t4.5 42q10 57 40 83t78 26l-8 -40q-46 0 -56 -53l-5 -23h49l-15 -83h-88z" />
    <glyph glyph-name="quotedblright.ss01" horiz-adv-x="292" 
d="M85 582l7 39q26 0 39.5 14t17.5 40l4 24h-48l15 82h88q1 -25 -0.5 -48t-4.5 -42q-11 -57 -40.5 -83t-77.5 -26zM216 582l7 39q25 0 38.5 14t18.5 40l4 24h-49l15 82h88q2 -52 -5 -90q-10 -57 -40 -83t-77 -26z" />
    <glyph glyph-name="quoteleft.ss01" horiz-adv-x="162" 
d="M95 582q-1 26 0 48t5 42q11 57 40.5 83t77.5 26l-8 -40q-46 0 -56 -53l-5 -23h49l-15 -83h-88z" />
    <glyph glyph-name="quoteright.ss01" horiz-adv-x="161" 
d="M85 582l7 39q26 0 39.5 14t17.5 40l4 24h-48l15 82h88q1 -25 -0.5 -48t-4.5 -42q-11 -57 -40.5 -83t-77.5 -26z" />
    <glyph glyph-name="uni0308.cap" 
d="M313 775q-22 0 -36 14.5t-14 35.5q0 20 14 35t36 15q20 0 34.5 -15t14.5 -35q0 -21 -14.5 -35.5t-34.5 -14.5zM152 775q-21 0 -35.5 14.5t-14.5 35.5q0 20 14.5 35t35.5 15t35.5 -15t14.5 -35q0 -21 -14.5 -35.5t-35.5 -14.5z" />
    <glyph glyph-name="uni0307.cap" 
d="M150 766q-20 0 -34.5 15t-14.5 35q0 21 14.5 35.5t34.5 14.5q21 0 35.5 -14.5t14.5 -35.5q0 -20 -14.5 -35t-35.5 -15z" />
    <glyph glyph-name="gravecomb.cap" 
d="M297 741l-189 117l12 73l188 -127z" />
    <glyph glyph-name="acutecomb.cap" 
d="M88 741l10 63l233 127l-13 -73z" />
    <glyph glyph-name="uni030B.cap" 
d="M235 753l105 149h73l-121 -149h-57zM89 753l93 149h73l-110 -149h-56z" />
    <glyph glyph-name="uni0302.cap" 
d="M90 758l12 65l152 82l122 -82l-12 -65l-122 84z" />
    <glyph glyph-name="uni030C.cap" 
d="M227 757l-123 82l13 62l120 -82l153 85l-12 -65z" />
    <glyph glyph-name="uni0306.cap" 
d="M230 763q-67 0 -96 37.5t-20 92.5l2 14h50q-7 -37 10.5 -57.5t65.5 -20.5t72.5 20.5t31.5 57.5h51l-3 -15q-11 -54 -52.5 -91.5t-111.5 -37.5z" />
    <glyph glyph-name="uni030A.cap" 
d="M215 761q-43 0 -74 27.5t-31 75.5t31 75.5t74 27.5q44 0 74.5 -27.5t30.5 -75.5t-30.5 -75.5t-74.5 -27.5zM215 804q24 0 40.5 16.5t16.5 43.5t-16.5 43t-40.5 16q-23 0 -40 -16t-17 -43t17 -43.5t40 -16.5z" />
    <glyph glyph-name="tildecomb.cap" 
d="M90 759q16 50 45.5 75.5t67.5 25.5q27 0 42 -12t29 -23.5t36 -11.5q16 0 30 11t21 34h49q-15 -49 -45.5 -75t-68.5 -26q-27 0 -43 12t-29.5 23.5t-34.5 11.5q-37 0 -50 -45h-49z" />
    <glyph glyph-name="uni0304.cap" 
d="M96 796l12 63h347l-10 -63h-349z" />
    <glyph glyph-name="uni0327.cap" 
d="M-89 -259l9 53h92q76 0 76 52q0 41 -59 41h-50l21 120h57l-13 -70q52 1 83 -19.5t31 -64.5q0 -48 -39 -80t-97 -32h-111z" />
    <glyph glyph-name="uni0328.cap" 
d="M38 -203q-31 0 -56 9.5t-38 30.5t-7 55q6 35 37.5 67.5t100.5 60.5l57 23l14 -43l-62 -28q-39 -18 -56.5 -35.5t-20.5 -36.5q-5 -23 9.5 -36t41.5 -13q30 0 68 15l-10 -56q-18 -6 -38.5 -9.5t-39.5 -3.5z" />
    </font>
</defs>
</svg>
