<?xml version="1.0" standalone="no"?>
<!DOCTYPE svg PUBLIC "-//W3C//DTD SVG 1.1//EN" "http://www.w3.org/Graphics/SVG/1.1/DTD/svg11.dtd" >
<svg xmlns="http://www.w3.org/2000/svg" xmlns:xlink="http://www.w3.org/1999/xlink" version="1.1">
<metadata>
Created by FontForge 20170731 at Tue Oct 15 18:58:10 2019
 By Aleksey,,,
Copyright 2014-2017 Indian Type Foundry (info@indiantypefoundry.com) with Reserved Font Name 'Poppins'. Copyright 2019 Google LLC.
</metadata>
<defs>
<font id="DMSans-MediumItalic" horiz-adv-x="0" >
  <font-face 
    font-family="DM Sans Medium"
    font-weight="500"
    font-style="italic"
    font-stretch="normal"
    units-per-em="1000"
    panose-1="0 0 0 0 0 0 0 0 0 0"
    ascent="800"
    descent="-200"
    x-height="496"
    cap-height="700"
    bbox="-137 -263 1142 971"
    underline-thickness="50"
    underline-position="-175"
    slope="-10"
    unicode-range="U+000D-FB02"
  />
<missing-glyph horiz-adv-x="543" 
d="M27 0l124 700h401l-124 -700h-401zM107 57h261l104 586h-261z" />
    <glyph glyph-name="fi" unicode="fi" horiz-adv-x="588" 
d="M532 588q-30 0 -49.5 19.5t-19.5 47.5t19.5 47t49.5 19t49.5 -19t19.5 -47t-19.5 -47.5t-49.5 -19.5zM48 0l72 407h-71l16 89h71l12 72q15 81 62 116.5t121 35.5h52l-16 -90h-36q-35 0 -53 -14.5t-24 -48.5l-12 -71h315l-88 -496h-106l72 407h-209l-72 -407h-106z" />
    <glyph glyph-name="fl" unicode="fl" horiz-adv-x="589" 
d="M48 0l72 407h-71l16 89h71l12 72q15 81 62 116.5t121 35.5h52l-16 -90h-36q-35 0 -53 -14.5t-24 -48.5l-12 -71h114l-16 -89h-114l-72 -407h-106zM370 0l128 720h106l-128 -720h-106z" />
    <glyph glyph-name=".notdef" horiz-adv-x="543" 
d="M27 0l124 700h401l-124 -700h-401zM107 57h261l104 586h-261z" />
    <glyph glyph-name=".null" 
 />
    <glyph glyph-name="nonmarkingreturn" horiz-adv-x="333" 
 />
    <glyph glyph-name="CR" unicode="&#xd;" horiz-adv-x="600" 
 />
    <glyph glyph-name="space" unicode=" " horiz-adv-x="272" 
 />
    <glyph glyph-name="exclam" unicode="!" horiz-adv-x="274" 
d="M76 207l75 493h114l-100 -493h-89zM104 -6q-30 0 -49.5 19.5t-19.5 46.5q0 28 19.5 47.5t49.5 19.5t49.5 -19.5t19.5 -47.5q0 -27 -19.5 -46.5t-49.5 -19.5z" />
    <glyph glyph-name="quotedbl" unicode="&#x22;" horiz-adv-x="318" 
d="M249 552l24 203h96l-47 -203h-73zM104 552l24 203h95l-46 -203h-73z" />
    <glyph glyph-name="numbersign" unicode="#" horiz-adv-x="837" 
d="M96 0l73 186h-143l17 95h163l60 154h-148l16 95h169l72 184h100l-72 -184h202l72 184h100l-72 -184h135l-16 -95h-156l-60 -154h140l-17 -95h-160l-72 -186h-101l73 186h-202l-73 -186h-100zM306 281h202l60 154h-202z" />
    <glyph glyph-name="dollar" unicode="$" horiz-adv-x="598" 
d="M201 -87l14 79q-81 12 -129.5 59t-48.5 120q0 10 1 19.5t2 20.5h113q-3 -13 -3 -24q0 -38 21.5 -65t59.5 -38l43 239q-8 2 -15 4.5t-14 5.5q-66 23 -100 65t-34 97q0 61 29.5 108t81 75t120.5 33l14 80h68l-15 -81q76 -10 121.5 -54t45.5 -111q0 -14 -3 -31h-112
q1 11 1 18q0 28 -17 52t-52 33l-38 -213q9 -3 17.5 -6t17.5 -6q62 -22 106 -64.5t44 -112.5q0 -67 -32.5 -117t-90.5 -79t-135 -31l-13 -75h-68zM225 513q0 -31 18.5 -50.5t48.5 -33.5l34 191q-47 -7 -74 -36.5t-27 -70.5zM426 201q0 39 -25.5 61t-63.5 38l-39 -223
q62 4 95 38t33 86z" />
    <glyph glyph-name="percent" unicode="%" horiz-adv-x="823" 
d="M232 366q-63 0 -103.5 38t-40.5 104q0 56 26 102t70.5 73.5t99.5 27.5q62 0 102.5 -37.5t40.5 -104.5q0 -56 -26 -102t-70.5 -73.5t-98.5 -27.5zM113 0l524 700h104l-524 -700h-104zM240 441q28 0 50.5 16.5t36.5 43.5t14 61q0 37 -19 56t-48 19q-27 0 -50 -16.5
t-36.5 -44t-13.5 -60.5q0 -37 19 -56t47 -19zM575 -12q-61 0 -102 38t-41 104q0 56 26.5 102.5t71 74t99.5 27.5q61 0 101.5 -38t40.5 -104q0 -56 -26 -102.5t-70.5 -74t-99.5 -27.5zM585 63q28 0 50.5 16.5t36 44t13.5 60.5q0 38 -19 56.5t-47 18.5t-50.5 -16t-36 -44
t-13.5 -61q0 -37 19 -56t47 -19z" />
    <glyph glyph-name="ampersand" unicode="&#x26;" horiz-adv-x="756" 
d="M245 -12q-100 0 -158.5 48.5t-58.5 130.5q0 85 55.5 148.5t144.5 97.5q-40 56 -40 108q0 57 28.5 100t78 67t113.5 24q76 0 118.5 -37t42.5 -94q0 -13 -3 -27h-102q1 4 1 7.5v7.5q0 30 -20.5 46t-51.5 16q-43 0 -72 -27t-29 -67q0 -24 12.5 -49.5t35.5 -54.5l172 -209
q23 29 48 64l55 75h109l-70 -98q-43 -64 -84 -111l126 -154h-129l-68 83q-59 -49 -121 -72t-133 -23zM136 185q0 -47 34 -77.5t93 -30.5q97 0 180 74l-165 200q-64 -25 -103 -67t-39 -99z" />
    <glyph glyph-name="quotesingle" unicode="'" horiz-adv-x="173" 
d="M104 552l24 203h95l-46 -203h-73z" />
    <glyph glyph-name="parenleft" unicode="(" horiz-adv-x="386" 
d="M174 -145q-54 64 -88.5 156.5t-34.5 204.5q0 110 35.5 219t101.5 205.5t155 170.5h106l-1 -10q-92 -80 -157 -173.5t-99.5 -195t-34.5 -203.5q0 -103 34 -196.5t93 -167.5l-3 -10h-107z" />
    <glyph glyph-name="parenright" unicode=")" horiz-adv-x="386" 
d="M-33 -145l1 10q92 80 157.5 173.5t100 195t34.5 203.5q0 103 -34 196.5t-93 167.5l2 10h107q54 -64 89 -156.5t35 -204.5q0 -110 -36 -219t-101.5 -205.5t-154.5 -170.5h-107z" />
    <glyph glyph-name="asterisk" unicode="*" horiz-adv-x="492" 
d="M222 360l41 147l-133 -87l-29 72l145 57l-124 55l50 70l106 -87l10 148h80l-43 -148l134 86l26 -68l-144 -57l125 -57l-52 -70l-104 86l-9 -147h-79z" />
    <glyph glyph-name="plus" unicode="+" horiz-adv-x="591" 
d="M217 68l32 178h-189l15 88h190l31 178h92l-31 -178h189l-15 -88h-190l-31 -178h-93z" />
    <glyph glyph-name="comma" unicode="," horiz-adv-x="205" 
d="M-58 -118l99 236h105l-133 -236h-71z" />
    <glyph glyph-name="hyphen" unicode="-" horiz-adv-x="521" 
d="M57 246l15 89h407l-15 -89h-407z" />
    <glyph glyph-name="period" unicode="." horiz-adv-x="219" 
d="M77 -6q-30 0 -49.5 19.5t-19.5 46.5q0 28 19.5 47.5t49.5 19.5t49 -19.5t19 -47.5q0 -27 -19 -46.5t-49 -19.5z" />
    <glyph glyph-name="slash" unicode="/" horiz-adv-x="406" 
d="M-36 -103l404 874h104l-405 -874h-103z" />
    <glyph glyph-name="zero" unicode="0" horiz-adv-x="705" 
d="M309 -12q-80 0 -136.5 34t-86 95t-29.5 143q0 95 28.5 177.5t79.5 144t119 96t148 34.5t136.5 -34t86 -95t29.5 -143q0 -96 -28.5 -178t-79.5 -143.5t-119 -96t-148 -34.5zM323 83q52 0 97 26.5t80 74t54.5 110t19.5 133.5q0 89 -42.5 139.5t-113.5 50.5q-52 0 -97.5 -27
t-80 -74t-54 -109.5t-19.5 -133.5q0 -90 42.5 -140t113.5 -50z" />
    <glyph glyph-name="one" unicode="1" horiz-adv-x="324" 
d="M100 0l102 580l-119 -31l14 83l168 68h68l-124 -700h-109z" />
    <glyph glyph-name="two" unicode="2" horiz-adv-x="576" 
d="M17 0l13 76q200 140 303 247t103 200q0 38 -22 68.5t-77 30.5q-61 0 -98 -40t-47 -96h-102q13 72 50.5 122.5t91.5 77t117 26.5q90 0 143 -48t53 -128q0 -76 -43 -147.5t-123.5 -145.5t-194.5 -155h320l-15 -88h-472z" />
    <glyph glyph-name="three" unicode="3" horiz-adv-x="591" 
d="M251 -12q-61 0 -109 20t-76 60.5t-28 101.5q0 21 3 42h106q-1 -6 -1.5 -12.5t-0.5 -15.5q0 -45 30.5 -75t89.5 -30q66 0 109.5 39.5t43.5 101.5q0 53 -37.5 81t-96.5 28h-52l15 88h53q67 0 109 33.5t42 90.5q0 34 -24 57t-70 23q-54 0 -90.5 -31.5t-48.5 -78.5h-105
q14 61 49.5 106t88.5 70t118 25q93 0 141.5 -43.5t48.5 -110.5q0 -40 -17.5 -77t-49.5 -65t-76 -39q49 -11 78.5 -49.5t29.5 -96.5q0 -70 -35.5 -125t-97.5 -86.5t-140 -31.5z" />
    <glyph glyph-name="four" unicode="4" horiz-adv-x="623" 
d="M346 0l25 140h-351l15 84l418 476h122l-83 -468h98l-16 -92h-98l-25 -140h-105zM152 232h241l62 351z" />
    <glyph glyph-name="five" unicode="5" horiz-adv-x="617" 
d="M272 -12q-69 0 -118.5 25t-75.5 69t-25 100v5v6h104q1 -52 37 -83.5t91 -31.5q50 0 90 24.5t63 67t23 95.5q0 55 -32 92t-87 37q-51 0 -91.5 -24.5t-63.5 -61.5h-101l129 392h377l-16 -93h-298l-69 -187q28 26 69 43.5t92 17.5q62 0 105.5 -27t66.5 -72.5t23 -99.5
q0 -85 -39 -151.5t-105.5 -104.5t-148.5 -38z" />
    <glyph glyph-name="six" unicode="6" horiz-adv-x="629" 
d="M289 -12q-82 0 -131.5 34t-72 89.5t-22.5 120.5q0 98 25 184.5t71 153t109 104.5t139 38q67 0 110 -27t62.5 -72t16.5 -98h-99q0 51 -27 79.5t-76 28.5q-72 0 -130.5 -66.5t-87.5 -205.5q33 44 82.5 71.5t112.5 27.5q57 0 101.5 -25.5t69.5 -69.5t25 -100
q0 -74 -37.5 -134.5t-100.5 -96.5t-140 -36zM297 80q48 0 85 20.5t58 56.5t21 82q0 51 -32.5 85.5t-88.5 34.5q-48 0 -85 -21.5t-59 -57.5t-22 -79q0 -51 33.5 -86t89.5 -35z" />
    <glyph glyph-name="seven" unicode="7" horiz-adv-x="534" 
d="M73 0l379 609h-361l16 91h473l-14 -77l-379 -623h-114z" />
    <glyph glyph-name="eight" unicode="8" horiz-adv-x="614" 
d="M267 -12q-64 0 -113 21.5t-77 61.5t-28 98q0 72 47 128t121 77q-43 18 -67 52.5t-24 76.5q0 61 35 108t94.5 74t132.5 27q95 0 146 -45t51 -117q0 -45 -20 -79.5t-52.5 -58.5t-68.5 -38q52 -17 77 -57t25 -93q0 -71 -38 -124t-101.5 -82.5t-139.5 -29.5zM341 408
q33 0 64.5 14.5t51.5 42t20 68.5q0 51 -31.5 71t-73.5 20q-59 0 -100 -34t-41 -89q0 -46 31.5 -69.5t78.5 -23.5zM281 78q46 0 82 18.5t57 50.5t21 75q0 51 -33.5 77.5t-87.5 26.5q-45 0 -82 -18t-59.5 -50t-22.5 -75q0 -48 33 -76.5t92 -28.5z" />
    <glyph glyph-name="nine" unicode="9" horiz-adv-x="629" 
d="M258 -12q-67 0 -110 27t-62.5 72t-15.5 98h98q0 -51 27 -79.5t76 -28.5q72 0 131 66.5t87 205.5q-33 -44 -82.5 -71.5t-112.5 -27.5q-57 0 -101.5 25.5t-69.5 69.5t-25 100q0 74 37.5 134.5t100.5 96.5t140 36q82 0 131.5 -34t72 -89.5t22.5 -120.5q0 -98 -25 -184.5
t-71 -153t-109 -104.5t-139 -38zM325 341q48 0 85 21.5t59 57.5t22 79q0 51 -33.5 86t-89.5 35q-48 0 -85 -20.5t-58 -56.5t-21 -82q0 -51 32.5 -85.5t88.5 -34.5z" />
    <glyph glyph-name="colon" unicode=":" horiz-adv-x="220" 
d="M77 -6q-30 0 -49.5 19.5t-19.5 46.5q0 28 19.5 47.5t49.5 19.5t49 -19.5t19 -47.5q0 -27 -19 -46.5t-49 -19.5zM144 375q-30 0 -49.5 19.5t-19.5 46.5q0 28 19.5 47.5t49.5 19.5t49 -19.5t19 -47.5q0 -27 -19 -46.5t-49 -19.5z" />
    <glyph glyph-name="semicolon" unicode=";" horiz-adv-x="245" 
d="M169 375q-30 0 -49.5 19.5t-19.5 46.5q0 28 19.5 47.5t49.5 19.5t49 -19.5t19 -47.5q0 -27 -19 -46.5t-49 -19.5zM-44 -118l99 236h105l-133 -236h-71z" />
    <glyph glyph-name="less" unicode="&#x3c;" horiz-adv-x="510" 
d="M291 135l-195 228l275 228h133l-275 -228l195 -228h-133z" />
    <glyph glyph-name="equal" unicode="=" horiz-adv-x="535" 
d="M80 352l16 92h411l-16 -92h-411zM42 137l16 92h412l-16 -92h-412z" />
    <glyph glyph-name="greater" unicode="&#x3e;" horiz-adv-x="509" 
d="M47 135l275 228l-195 228h133l194 -228l-274 -228h-133z" />
    <glyph glyph-name="question" unicode="?" horiz-adv-x="521" 
d="M133 207l25 163h37q65 0 116 14t80.5 48t29.5 94q0 44 -28 70.5t-77 26.5q-57 0 -95 -31t-48 -84h-100q10 60 45.5 106t90.5 72t124 26q87 0 139.5 -47t52.5 -127q0 -77 -36 -130t-99 -81t-145 -28l-20 -92h-92zM159 -6q-31 0 -50.5 19.5t-19.5 46.5q0 28 19.5 47.5
t50.5 19.5q29 0 48.5 -19.5t19.5 -47.5q0 -27 -19.5 -46.5t-48.5 -19.5z" />
    <glyph glyph-name="at" unicode="@" horiz-adv-x="1024" 
d="M431 -206q-110 0 -191.5 42t-127 118.5t-45.5 180.5q0 109 38 202t107 163t162 108.5t204 38.5q114 0 197 -43t128 -120t45 -177q0 -59 -14.5 -115t-43 -100.5t-70.5 -71t-96 -26.5q-51 0 -79.5 25t-33.5 66q-30 -43 -76.5 -67t-99.5 -24q-76 0 -118 45.5t-42 123.5
q0 55 17 105.5t49 90t75.5 62.5t97.5 23q96 0 126 -76l12 65h89l-49 -276q-7 -41 3 -66.5t45 -25.5q31 0 54.5 22t39 57t23 76.5t7.5 81.5q0 127 -79 199.5t-218 72.5q-90 0 -166 -33.5t-132 -92t-87 -136.5t-31 -168q-1 -132 78 -204t217 -72q44 0 87.5 9t81.5 26l16 -70
q-45 -20 -96 -29.5t-104 -9.5zM468 73q39 0 72 21.5t54 59t25 85.5q4 52 -20.5 89t-78.5 37q-46 0 -80 -27t-52 -69t-18 -89q0 -48 25 -77.5t73 -29.5z" />
    <glyph glyph-name="A" unicode="A" horiz-adv-x="683" 
d="M-18 0l381 700h117l132 -700h-110l-31 171h-286l-90 -171h-113zM229 253h228l-57 325z" />
    <glyph glyph-name="B" unicode="B" horiz-adv-x="624" 
d="M28 0l123 700h265q96 0 143.5 -42t47.5 -108q0 -71 -42.5 -121t-110.5 -68q50 -10 80.5 -48t30.5 -91q0 -67 -36 -116.5t-96 -77.5t-133 -28h-272zM204 399h145q66 0 106.5 35.5t40.5 95.5q0 40 -27.5 63t-83.5 23h-143zM149 85h152q72 0 115 39t43 102q0 43 -31.5 67.5
t-88.5 24.5h-149z" />
    <glyph glyph-name="C" unicode="C" horiz-adv-x="731" 
d="M340 -12q-90 0 -153 35t-96 98.5t-33 146.5q0 95 31 175.5t86 141t129 94t161 33.5q123 0 191 -60t70 -168h-119q-2 62 -41.5 97.5t-116.5 35.5q-80 0 -143.5 -44.5t-100.5 -121t-37 -172.5q0 -93 49.5 -144.5t138.5 -51.5q77 0 128 34t75 93h119q-40 -105 -128 -163.5
t-210 -58.5z" />
    <glyph glyph-name="D" unicode="D" horiz-adv-x="708" 
d="M28 0l123 700h227q158 0 232 -75t74 -209q0 -123 -53 -216.5t-149.5 -146.5t-226.5 -53h-227zM150 90h117q97 0 166 39t105.5 110.5t36.5 168.5q0 100 -51.5 151.5t-164.5 51.5h-117z" />
    <glyph glyph-name="E" unicode="E" horiz-adv-x="551" 
d="M28 0l123 700h419l-16 -84h-312l-38 -221h282l-14 -82h-283l-40 -229h312l-15 -84h-418z" />
    <glyph glyph-name="F" unicode="F" horiz-adv-x="536" 
d="M28 0l123 700h426l-15 -84h-320l-39 -224h263l-15 -82h-263l-54 -310h-106z" />
    <glyph glyph-name="G" unicode="G" horiz-adv-x="769" 
d="M333 -12q-85 0 -146 38t-94 104t-33 150q0 95 30.5 174t85.5 137t130.5 89.5t165.5 31.5q120 0 192.5 -58t77.5 -160h-120q-5 56 -47 88t-117 32q-86 0 -151 -41.5t-101 -115t-36 -169.5q0 -95 50 -150.5t137 -55.5q104 0 166.5 59t89.5 157h-190l15 82h296l-66 -380h-97
l8 103q-45 -55 -102.5 -85t-143.5 -30z" />
    <glyph glyph-name="H" unicode="H" horiz-adv-x="693" 
d="M28 0l123 700h106l-53 -301h339l53 301h106l-124 -700h-106l56 315h-339l-55 -315h-106z" />
    <glyph glyph-name="I" unicode="I" horiz-adv-x="249" 
d="M28 0l123 700h106l-123 -700h-106z" />
    <glyph glyph-name="J" unicode="J" horiz-adv-x="504" 
d="M188 -12q-93 0 -140 55t-29 154h106q-9 -50 8.5 -82.5t69.5 -32.5q50 0 78 30t35 72l90 516h106l-90 -516q-16 -91 -79.5 -143.5t-154.5 -52.5z" />
    <glyph glyph-name="K" unicode="K" horiz-adv-x="618" 
d="M28 0l123 700h106l-52 -300l328 300h131l-308 -279l191 -421h-125l-153 343l-89 -81l-46 -262h-106z" />
    <glyph glyph-name="L" unicode="L" horiz-adv-x="539" 
d="M28 0l123 700h106l-108 -616h317l-14 -84h-424z" />
    <glyph glyph-name="M" unicode="M" horiz-adv-x="866" 
d="M28 0l123 700h125l156 -466l317 466h125l-123 -700h-106l91 517l-287 -417h-82l-142 416l-91 -516h-106z" />
    <glyph glyph-name="N" unicode="N" horiz-adv-x="706" 
d="M28 0l123 700h106l257 -533l94 533h106l-123 -700h-106l-257 533l-94 -533h-106z" />
    <glyph glyph-name="O" unicode="O" horiz-adv-x="799" 
d="M357 -12q-88 0 -155 39t-104.5 106.5t-37.5 154.5q0 89 32.5 165.5t90 135t133.5 91t163 32.5t154 -38.5t105 -106t38 -154.5q0 -89 -33 -166t-90.5 -135t-133.5 -91t-162 -33zM371 83q60 0 113.5 24.5t94.5 68.5t64 103t23 126q0 98 -54.5 155t-146.5 57
q-61 0 -114.5 -24.5t-94 -68.5t-63.5 -102.5t-23 -125.5q0 -65 25 -113t70 -74t106 -26z" />
    <glyph glyph-name="P" unicode="P" horiz-adv-x="597" 
d="M28 0l123 700h245q72 0 119 -25t69.5 -66t22.5 -89q0 -75 -36 -128.5t-100.5 -81.5t-148.5 -28h-138l-50 -282h-106zM199 369h134q78 0 121 36t43 107q0 44 -28.5 72.5t-92.5 28.5h-134z" />
    <glyph glyph-name="Q" unicode="Q" horiz-adv-x="789" 
d="M357 -12q-88 0 -155 39t-104.5 106.5t-37.5 154.5q0 89 32.5 165.5t90 135t133.5 91t163 32.5t154 -38.5t105 -106t38 -154.5q0 -82 -29 -155t-80 -130t-118 -93l135 -166h-134l-100 130q-46 -11 -93 -11zM371 83q60 0 113.5 24.5t94.5 68.5t64 103t23 126
q0 98 -54.5 155t-146.5 57q-61 0 -114.5 -24.5t-94 -68.5t-63.5 -102.5t-23 -125.5q0 -65 25 -113t70 -74t106 -26z" />
    <glyph glyph-name="R" unicode="R" horiz-adv-x="609" 
d="M28 0l123 700h239q73 0 119.5 -25t69 -66t22.5 -89q0 -85 -48.5 -143t-130.5 -81l96 -296h-116l-86 282v0h-132l-50 -282h-106zM198 362h129q74 0 119 38.5t45 108.5q0 44 -28.5 73t-92.5 29h-128z" />
    <glyph glyph-name="S" unicode="S" horiz-adv-x="598" 
d="M270 -12q-69 0 -121.5 22t-82 63t-29.5 98q0 10 1 19.5t2 20.5h113q-3 -13 -3 -24q0 -49 35.5 -79.5t96.5 -30.5q69 0 106.5 34.5t37.5 89.5q0 40 -26.5 63t-68.5 37.5t-86 31.5q-66 23 -100 65t-34 97q0 65 33 114t91.5 76t134.5 27q92 0 149 -45.5t57 -121.5
q0 -14 -3 -31h-112q1 11 1 18q0 35 -27 62.5t-81 27.5q-59 0 -94 -31t-35 -78q0 -34 22 -54.5t59.5 -35t83.5 -31.5q62 -22 106 -64.5t44 -112.5q0 -68 -34.5 -119.5t-95 -79.5t-140.5 -28z" />
    <glyph glyph-name="T" unicode="T" horiz-adv-x="575" 
d="M191 0l108 616h-206l15 84h519l-14 -84h-208l-108 -616h-106z" />
    <glyph glyph-name="U" unicode="U" horiz-adv-x="677" 
d="M285 -12q-65 0 -115.5 22.5t-79.5 68.5t-29 117q0 31 6 67l77 437h106l-78 -437q-5 -29 -5 -50q0 -66 36.5 -97t100.5 -31q73 0 124.5 43t68.5 135l78 437h106l-77 -437q-17 -94 -64 -155t-113.5 -90.5t-141.5 -29.5z" />
    <glyph glyph-name="V" unicode="V" horiz-adv-x="684" 
d="M234 0l-135 700h113l106 -588l314 588h113l-383 -700h-128z" />
    <glyph glyph-name="W" unicode="W" horiz-adv-x="990" 
d="M164 -1l-64 701h113l37 -574l261 574h119l52 -574l240 574h116l-317 -700h-124l-56 547l-254 -547z" />
    <glyph glyph-name="X" unicode="X" horiz-adv-x="625" 
d="M-20 0l278 353l-157 347h122l118 -261l199 261h121l-279 -351l158 -349h-122l-119 263l-200 -263h-119z" />
    <glyph glyph-name="Y" unicode="Y" horiz-adv-x="602" 
d="M198 0l46 258l-154 442h121l105 -338l224 338h119l-309 -442l-46 -258h-106z" />
    <glyph glyph-name="Z" unicode="Z" horiz-adv-x="550" 
d="M-5 0l15 82l426 528h-330l17 90h452l-14 -82l-428 -528h337l-16 -90h-459z" />
    <glyph glyph-name="bracketleft" unicode="[" horiz-adv-x="334" 
d="M-1 -161l172 972h206l-16 -87h-106l-141 -798h107l-16 -87h-206z" />
    <glyph glyph-name="backslash" unicode="\" horiz-adv-x="406" 
d="M215 -103l-97 874h104l96 -874h-103z" />
    <glyph glyph-name="bracketright" unicode="]" horiz-adv-x="334" 
d="M-15 -161l16 87h106l141 797h-107l15 88h206l-171 -972h-206z" />
    <glyph glyph-name="asciicircum" unicode="^" horiz-adv-x="643" 
d="M15 174l330 526h99l144 -526h-108l-107 399l-251 -399h-107z" />
    <glyph glyph-name="underscore" unicode="_" horiz-adv-x="661" 
d="M-11 -137l17 100h548l-17 -100h-548z" />
    <glyph glyph-name="grave" unicode="`" horiz-adv-x="256" 
d="M287 537l-197 112l15 88l196 -124z" />
    <glyph glyph-name="a" unicode="a" horiz-adv-x="557" 
d="M187 -12q-84 0 -122.5 39t-38.5 93q0 82 67.5 129t178.5 47h130l1 9q3 14 3 29q0 43 -26 65t-68 22q-44 0 -81 -21.5t-52 -63.5h-105q15 54 52 92.5t89 59t111 20.5q91 0 139 -41.5t48 -115.5q0 -11 -0.5 -22.5t-3.5 -23.5l-53 -305h-95l8 83q-29 -41 -73.5 -68
t-108.5 -27zM223 74q42 0 75.5 20.5t56.5 54.5t33 75h-118q-60 0 -95 -24t-35 -65q0 -30 22 -45.5t61 -15.5z" />
    <glyph glyph-name="b" unicode="b" horiz-adv-x="632" 
d="M302 -12q-58 0 -100 27t-59 61l-25 -76h-95l127 720h106l-52 -294q30 33 74 57.5t107 24.5t108.5 -28t70 -76.5t24.5 -108.5q0 -65 -21.5 -120.5t-60.5 -97.5t-91 -65.5t-113 -23.5zM301 80q51 0 91.5 26t63.5 70.5t23 100.5q0 60 -35 99.5t-94 39.5q-52 0 -93 -27
t-64 -72.5t-23 -102.5q0 -59 35.5 -96.5t95.5 -37.5z" />
    <glyph glyph-name="c" unicode="c" horiz-adv-x="584" 
d="M256 -12q-64 0 -112 26.5t-74.5 74.5t-26.5 111q0 65 23.5 121t64.5 98t96 65.5t119 23.5q94 0 149 -49t55 -134h-110q0 45 -31.5 68.5t-77.5 23.5q-49 0 -89.5 -26.5t-64.5 -73.5t-24 -106q0 -62 34 -97.5t85 -35.5q46 0 85 24t57 69h110q-20 -55 -59.5 -96t-93 -64
t-115.5 -23z" />
    <glyph glyph-name="d" unicode="d" horiz-adv-x="632" 
d="M245 -12q-63 0 -108 29.5t-69 79t-24 110.5q0 87 37.5 155t101.5 107t143 39q63 0 103 -24.5t60 -63.5l53 300h106l-128 -720h-95l3 77q-29 -35 -73 -62t-110 -27zM281 80q52 0 93 28t64.5 74.5t23.5 102.5q0 59 -34.5 95t-93.5 36q-52 0 -92.5 -26t-64 -70.5
t-23.5 -100.5q0 -59 34 -99t93 -40z" />
    <glyph glyph-name="e" unicode="e" horiz-adv-x="582" 
d="M253 -12q-96 0 -153 57t-57 153q0 64 22 120.5t62.5 99t95.5 66.5t121 24q65 0 111 -25.5t70 -69t24 -98.5q0 -22 -4.5 -47.5t-9.5 -44.5h-386q-2 -13 -2 -24q0 -60 35 -91.5t86 -31.5q46 0 80.5 21t54.5 55h107q-22 -47 -60 -84t-88 -58.5t-109 -21.5zM330 421
q-53 0 -100 -32t-67 -94h280q1 5 1 9v8q1 50 -30.5 79.5t-83.5 29.5z" />
    <glyph glyph-name="f" unicode="f" horiz-adv-x="347" 
d="M48 0l72 407h-71l16 89h71l12 72q15 81 62 116.5t121 35.5h52l-16 -90h-36q-35 0 -53 -14.5t-24 -48.5l-12 -71h114l-16 -89h-114l-72 -407h-106z" />
    <glyph glyph-name="g" unicode="g" horiz-adv-x="557" 
d="M250 152q-40 0 -72 10l-44 -35q21 -12 48.5 -19.5t79.5 -11.5q99 -8 138 -45.5t39 -89.5q0 -56 -32.5 -99.5t-90 -68.5t-131.5 -25q-94 0 -151.5 36t-57.5 104q0 45 25 82t70 66q-34 16 -54 39l4 23l95 81q-38 39 -38 98t31.5 107t84.5 76t119 28q42 0 76 -12h185
l-13 -70l-89 -5q11 -27 11 -58q0 -59 -31 -107t-84 -76t-118 -28zM265 235q53 0 87.5 32.5t34.5 82.5q0 36 -24 55t-65 19q-55 0 -89.5 -32t-34.5 -83q0 -36 24.5 -55t66.5 -19zM79 -71q0 -38 32 -58t87 -20q60 0 99.5 26.5t39.5 72.5q0 25 -19.5 44.5t-77.5 23.5
q-47 3 -86 11q-38 -20 -56.5 -45.5t-18.5 -54.5z" />
    <glyph glyph-name="h" unicode="h" horiz-adv-x="591" 
d="M24 0l126 720h106l-53 -305q31 43 79 68t104 25q89 0 131.5 -56t22.5 -167l-51 -285h-105l48 274q25 144 -92 144q-59 0 -105 -42t-60 -120v1l-45 -257h-106z" />
    <glyph glyph-name="i" unicode="i" horiz-adv-x="256" 
d="M199 588q-30 0 -49.5 19t-19.5 47t19.5 47t49.5 19t49.5 -19t19.5 -47t-19.5 -47t-49.5 -19zM31 0l87 496h106l-87 -496h-106z" />
    <glyph glyph-name="j" unicode="j" horiz-adv-x="255" 
d="M196 588q-30 0 -49.5 19t-19.5 47t19.5 47t49.5 19q29 0 48.5 -19t19.5 -47t-19.5 -47t-48.5 -19zM-117 -220l16 90h39q35 0 52.5 14.5t23.5 48.5l99 563h106l-99 -564q-14 -81 -61 -116.5t-121 -35.5h-55z" />
    <glyph glyph-name="k" unicode="k" horiz-adv-x="544" 
d="M23 0l128 720h106l-76 -428l228 204h134l-260 -222l204 -274h-128l-184 260l-46 -260h-106z" />
    <glyph glyph-name="l" unicode="l" horiz-adv-x="241" 
d="M23 0l128 720h106l-128 -720h-106z" />
    <glyph glyph-name="m" unicode="m" horiz-adv-x="906" 
d="M24 0l87 496h94l-4 -75q29 40 70.5 63.5t92.5 23.5q55 0 94 -24t56 -72q33 45 81 70.5t101 25.5q87 0 133 -56t27 -167l-51 -285h-106l49 274q12 71 -11 107.5t-74 36.5q-49 0 -89.5 -37.5t-57.5 -107.5l-48 -273h-106l48 274q13 71 -9.5 107.5t-74.5 36.5q-51 0 -94 -42
t-57 -120v0l-45 -256h-106z" />
    <glyph glyph-name="n" unicode="n" horiz-adv-x="591" 
d="M24 0l87 496h94l-6 -86q31 45 79.5 71.5t106.5 26.5q76 0 118.5 -42t42.5 -121q0 -29 -6 -60l-51 -285h-105l48 274q2 13 3.5 24t1.5 22q0 98 -97 98q-58 0 -103 -40t-60 -114l-47 -264h-106z" />
    <glyph glyph-name="o" unicode="o" horiz-adv-x="600" 
d="M259 -12q-63 0 -111.5 28.5t-76 78t-27.5 112.5q0 64 22.5 119t63 96t94 63.5t115.5 22.5q64 0 112.5 -27.5t76.5 -76t28 -112.5t-23 -119.5t-63.5 -97t-94 -64.5t-116.5 -23zM273 79q49 0 88.5 27.5t62.5 74t23 105.5q0 62 -35.5 96.5t-84.5 34.5t-88.5 -27.5t-62.5 -74
t-23 -105.5q0 -62 35.5 -96.5t84.5 -34.5z" />
    <glyph glyph-name="p" unicode="p" horiz-adv-x="632" 
d="M-15 -220l126 716h96l-3 -77q30 38 74 63.5t108 25.5q62 0 107.5 -28t70.5 -76.5t25 -108.5q0 -65 -21.5 -120.5t-60.5 -97.5t-91.5 -65.5t-113.5 -23.5q-57 0 -99 27t-60 61l-52 -296h-106zM301 80q52 0 92 26t63.5 70.5t23.5 100.5q0 60 -35 99.5t-95 39.5
q-51 0 -92 -27t-64.5 -72.5t-23.5 -102.5q0 -59 36 -96.5t95 -37.5z" />
    <glyph glyph-name="q" unicode="q" horiz-adv-x="633" 
d="M377 -220l51 297q-29 -35 -73 -62t-110 -27q-63 0 -108 29.5t-69 79t-24 110.5q0 87 37.5 155t101.5 107t143 39q63 0 103 -24.5t60 -63.5l24 76h95l-125 -716h-106zM281 80q52 0 93 28t64.5 74.5t23.5 102.5q0 59 -34.5 95t-93.5 36q-52 0 -92.5 -26t-64 -70.5
t-23.5 -100.5q0 -59 34 -99t93 -40z" />
    <glyph glyph-name="r" unicode="r" horiz-adv-x="386" 
d="M24 0l87 496h96l-7 -89q34 46 86 73.5t117 27.5l-20 -111h-29q-44 0 -81 -13.5t-63 -45.5t-35 -87l-45 -251h-106z" />
    <glyph glyph-name="s" unicode="s" horiz-adv-x="525" 
d="M223 -12q-97 0 -150.5 49t-47.5 128h107q-2 -39 23.5 -66t82.5 -27q47 0 75 21t28 56q0 29 -27.5 42.5t-71.5 22.5q-39 9 -76 24.5t-61.5 41t-24.5 66.5q0 46 27.5 83t75 58t108.5 21q84 0 133 -40.5t46 -113.5h-103q1 32 -22.5 51t-64.5 19t-67 -19t-26 -45
q0 -27 27.5 -40t73.5 -24q43 -10 80 -25t59.5 -41t22.5 -67q0 -54 -29.5 -93t-81 -60.5t-116.5 -21.5z" />
    <glyph glyph-name="t" unicode="t" horiz-adv-x="391" 
d="M220 0q-65 0 -102.5 26.5t-37.5 90.5q0 22 5 47l43 243h-79l16 89h79l35 126h93l-22 -126h140l-16 -89h-140l-43 -243q-3 -14 -3 -25q0 -27 15 -38t50 -11h66l-16 -90h-83z" />
    <glyph glyph-name="u" unicode="u" horiz-adv-x="591" 
d="M206 -12q-76 0 -118.5 42t-42.5 121q0 29 6 60l50 285h106l-48 -274q-2 -13 -3.5 -24t-1.5 -22q0 -98 97 -98q57 0 102.5 40t60.5 114l46 264h106l-87 -496h-94l7 86q-31 -45 -80 -71.5t-106 -26.5z" />
    <glyph glyph-name="v" unicode="v" horiz-adv-x="546" 
d="M165 0l-102 496h110l74 -396l212 396h113l-279 -496h-128z" />
    <glyph glyph-name="w" unicode="w" horiz-adv-x="774" 
d="M121 0l-58 496h105l30 -374l174 374h118l43 -374l161 374h106l-232 -496h-110l-45 390l-183 -390h-109z" />
    <glyph glyph-name="x" unicode="x" horiz-adv-x="531" 
d="M-24 0l221 250l-132 246h111l100 -190l165 190h114l-220 -250l131 -246h-112l-98 190l-167 -190h-113z" />
    <glyph glyph-name="y" unicode="y" horiz-adv-x="574" 
d="M42 -220l164 261h-29l-115 455h113l89 -367l224 367h112l-446 -716h-112z" />
    <glyph glyph-name="z" unicode="z" horiz-adv-x="467" 
d="M-14 0l16 86l330 322h-259l16 88h380l-16 -86l-331 -322h270l-16 -88h-390z" />
    <glyph glyph-name="braceleft" unicode="{" horiz-adv-x="444" 
d="M257 -162q-63 0 -100 30t-37 90q0 43 14.5 85t29.5 81.5t15 76.5q0 29 -19 51t-66 30l15 85q65 11 95 48.5t30 129.5v21.5v20.5q0 114 54.5 169t139.5 55h58l-16 -89h-38q-24 0 -45 -8.5t-35 -32.5t-15 -72q-2 -21 -1.5 -43t-2.5 -49q-3 -90 -41 -134.5t-99 -57.5v-2
q47 -10 68 -38.5t21 -67.5q0 -44 -14 -85.5t-28.5 -78.5t-14.5 -68q0 -35 19 -46.5t48 -11.5h38l-15 -89h-58z" />
    <glyph glyph-name="bar" unicode="|" horiz-adv-x="249" 
d="M10 -100l145 820h106l-145 -820h-106z" />
    <glyph glyph-name="braceright" unicode="}" horiz-adv-x="444" 
d="M-15 -162l16 89h38q24 0 45 8t35 32.5t15 72.5q2 21 1.5 43t2.5 48q3 90 41 135t98 57v2q-47 11 -67.5 39.5t-20.5 67.5q0 44 14 85.5t28.5 78.5t14.5 68q0 34 -19 46t-48 12h-38l15 89h58q63 0 100 -30t37 -90q0 -43 -15 -85t-30 -82t-15 -76q0 -29 19.5 -51t66.5 -31
l-15 -85q-65 -10 -95.5 -48t-30.5 -129q0 -12 0.5 -22t0.5 -20q0 -115 -54.5 -169.5t-140.5 -54.5h-57z" />
    <glyph glyph-name="asciitilde" unicode="~" horiz-adv-x="544" 
d="M354 239q-29 0 -50 10t-38.5 23t-35 23t-39.5 10q-25 0 -46 -17.5t-31 -47.5h-79q29 82 75.5 121t104.5 39q30 0 51 -10t38.5 -23t34.5 -23t39 -10q26 0 46.5 17t30.5 48h80q-28 -82 -75.5 -121t-105.5 -39z" />
    <glyph glyph-name="uni00A0" unicode="&#xa0;" horiz-adv-x="272" 
 />
    <glyph glyph-name="exclamdown" unicode="&#xa1;" horiz-adv-x="275" 
d="M181 432q-30 0 -49 19t-19 48q0 27 19 46.5t49 19.5t49.5 -19.5t19.5 -46.5q0 -29 -19.5 -48t-49.5 -19zM20 -141l100 492h89l-75 -492h-114z" />
    <glyph glyph-name="cent" unicode="&#xa2;" horiz-adv-x="584" 
d="M189 -97l16 90q-74 15 -118 70t-44 137q0 78 33 142.5t89.5 107t129.5 54.5l17 95h99l-16 -95q72 -12 113.5 -59t41.5 -120h-110q0 45 -31.5 68.5t-77.5 23.5q-49 0 -89.5 -26.5t-64.5 -73.5t-24 -106q0 -62 34 -97.5t85 -35.5q46 0 85 24t57 69h110q-26 -71 -84.5 -119
t-134.5 -60l-16 -89h-100z" />
    <glyph glyph-name="sterling" unicode="&#xa3;" horiz-adv-x="605" 
d="M35 0l11 59q54 50 84.5 104t30.5 122q0 10 -1 19h-114l13 74h90q-3 17 -5.5 36t-2.5 39q0 77 32.5 135t90.5 91t133 33q98 0 147.5 -50.5t49.5 -126.5q0 -8 -0.5 -16.5t-1.5 -17.5h-98q2 13 2 23q0 44 -27.5 72t-80.5 28q-71 0 -109.5 -46.5t-38.5 -114.5q0 -22 3.5 -43
t7.5 -42h191l-13 -74h-168q1 -7 1 -14q0 -62 -29 -114t-77 -90h361l-15 -86h-467z" />
    <glyph glyph-name="currency" unicode="&#xa4;" horiz-adv-x="544" 
d="M80 87l-36 45l71 61q-20 35 -20 79q0 41 14.5 75.5t39.5 61.5l-46 56l52 45l50 -60q49 24 107 24q55 0 95 -27l74 63l37 -45l-71 -60q21 -34 21 -78q0 -41 -14.5 -76t-40.5 -63l46 -56l-53 -45l-48 59q-50 -26 -109 -26q-56 0 -95 29zM262 193q47 0 79 36.5t32 91.5
q0 40 -22.5 60.5t-51.5 20.5q-47 0 -78.5 -36.5t-31.5 -92.5q0 -39 21.5 -59.5t51.5 -20.5z" />
    <glyph glyph-name="yen" unicode="&#xa5;" horiz-adv-x="623" 
d="M43 158l13 75h201l4 25l-20 58h-170l13 75h130l-108 309h121l104 -345l225 345h120l-216 -309h130l-13 -75h-170l-40 -58l-4 -25h199l-13 -75h-200l-29 -158h-106l29 158h-200z" />
    <glyph glyph-name="brokenbar" unicode="&#xa6;" horiz-adv-x="249" 
d="M97 390l58 330h106l-58 -330h-106zM10 -100l58 330h106l-58 -330h-106z" />
    <glyph glyph-name="section" unicode="&#xa7;" horiz-adv-x="606" 
d="M225 -232q-68 0 -117.5 25t-73.5 69.5t-14 103.5h112q-4 -27 5.5 -51.5t33.5 -40.5t63 -16q58 -1 95.5 32.5t37.5 83.5q0 32 -21.5 50t-59 31t-84.5 29q-63 23 -106.5 63.5t-43.5 108.5q0 49 22 91t62 75q-14 27 -14 60q0 65 32.5 117.5t90 82.5t133.5 30q68 0 117.5 -25
t73.5 -69.5t14 -103.5h-112q4 27 -5.5 51.5t-33.5 40.5t-63 16q-57 1 -95 -32t-38 -84q0 -32 22 -50t59.5 -31t83.5 -29q41 -15 75 -37.5t54.5 -55.5t20.5 -79q0 -49 -22 -91.5t-61 -74.5q17 -35 11 -80q-6 -61 -38.5 -108.5t-87.5 -74.5t-128 -27zM397 119q18 16 29 38.5
t11 48.5q0 37 -24 58.5t-62.5 36t-82.5 31.5q-37 13 -62 29q-16 -14 -28 -36.5t-12 -50.5q0 -36 22 -56.5t60 -36t86 -33.5q21 -7 35 -13.5t28 -15.5z" />
    <glyph glyph-name="dieresis" unicode="&#xa8;" horiz-adv-x="335" 
d="M319 568q-23 0 -39 16t-16 39q0 24 16 40t39 16t39.5 -16t16.5 -40q0 -23 -16.5 -39t-39.5 -16zM149 568q-24 0 -40 16t-16 39q0 24 16 40t40 16q23 0 39.5 -16t16.5 -40q0 -23 -16.5 -39t-39.5 -16z" />
    <glyph glyph-name="copyright" unicode="&#xa9;" horiz-adv-x="790" 
d="M344 -5q-90 0 -155.5 38t-101 104t-35.5 150q0 88 31.5 164t88.5 133.5t133 89.5t165 32q90 0 155.5 -37.5t101 -103t35.5 -149.5q0 -88 -32 -164.5t-88.5 -134t-132.5 -90t-165 -32.5zM352 36q81 0 147.5 28.5t115 80t75 120t26.5 147.5q0 74 -29.5 131.5t-86 90
t-137.5 32.5t-148 -28.5t-116 -79.5t-75 -119.5t-26 -148.5q0 -73 29.5 -130.5t86.5 -90.5t138 -33zM366 121q-79 0 -130.5 48.5t-51.5 133.5q0 76 34.5 139.5t94 101.5t135.5 38q75 0 124 -41t54 -115h-94q-5 39 -31.5 60t-67.5 21q-49 0 -84.5 -28.5t-54.5 -74t-19 -95.5
q0 -56 29 -85t74 -29q43 0 75.5 21.5t51.5 59.5h94q-30 -71 -93.5 -113t-139.5 -42z" />
    <glyph glyph-name="ordfeminine" unicode="&#xaa;" horiz-adv-x="454" 
d="M209 350q-62 0 -99.5 38.5t-37.5 103.5q0 59 26 109t71.5 80.5t102.5 30.5q49 0 78.5 -21.5t38.5 -56.5l20 72h75l-61 -351h-76l6 72q-22 -34 -58.5 -55.5t-85.5 -21.5zM244 415q36 0 65.5 19t46.5 51.5t17 71.5q0 42 -25 65.5t-63 23.5q-36 0 -64.5 -19t-46 -51
t-17.5 -72q0 -43 25 -66t62 -23z" />
    <glyph glyph-name="guillemotleft" unicode="&#xab;" horiz-adv-x="479" 
d="M300 120l-62 175l124 175h102l-127 -175l66 -175h-103zM111 120l-63 175l125 175h102l-128 -175l66 -175h-102z" />
    <glyph glyph-name="logicalnot" unicode="&#xac;" horiz-adv-x="686" 
d="M515 212l24 139h-475l14 83h581l-39 -222h-105z" />
    <glyph glyph-name="uni00AD" unicode="&#xad;" horiz-adv-x="600" 
d="M57 246l15 89h407l-15 -89h-407z" />
    <glyph glyph-name="registered" unicode="&#xae;" horiz-adv-x="506" 
d="M257 300q-60 0 -101 26.5t-59 73t-8 106.5q10 59 44.5 106t86 73.5t110.5 26.5q60 0 101.5 -26.5t59.5 -73.5t7 -106q-11 -60 -45 -106.5t-85 -73t-111 -26.5zM264 341q49 0 88.5 21t66 58.5t35.5 85.5q13 72 -23 118t-108 46q-73 0 -125 -46t-64 -118q-13 -73 22.5 -119
t107.5 -46zM193 401l38 214h99q33 0 50.5 -18t11.5 -49q-4 -23 -19.5 -39.5t-38.5 -23.5l40 -84h-62l-35 81h-16l-14 -81h-54zM268 524h38q12 0 20 5t10 17q3 21 -21 21h-39z" />
    <glyph glyph-name="macron" unicode="&#xaf;" horiz-adv-x="399" 
d="M78 585l14 77h361l-13 -77h-362z" />
    <glyph glyph-name="degree" unicode="&#xb0;" horiz-adv-x="357" 
d="M235 435q-37 0 -68 17t-49.5 48t-18.5 73t18.5 73.5t50 48.5t68.5 17t68 -17t50 -48.5t19 -73.5t-19 -73t-50.5 -48t-68.5 -17zM235 507q23 0 42.5 16.5t19.5 50.5q0 33 -19 49.5t-42 16.5t-42.5 -16.5t-19.5 -49.5q0 -34 19 -50.5t42 -16.5z" />
    <glyph glyph-name="plusminus" unicode="&#xb1;" horiz-adv-x="610" 
d="M239 140l24 134h-195l16 89h195l24 134h92l-23 -134h195l-16 -89h-195l-24 -134h-93zM20 0l16 92h484l-17 -92h-483z" />
    <glyph glyph-name="uni00B2" unicode="&#xb2;" horiz-adv-x="344" 
d="M47 352l11 60l131 87q32 23 54.5 46t27.5 54q5 25 -6.5 38t-31.5 13q-47 0 -62 -54h-83q12 49 53.5 82t107.5 33q62 0 90 -32.5t20 -75.5q-7 -40 -38 -70t-87 -63l-87 -52h181l-11 -66h-270z" />
    <glyph glyph-name="uni00B3" unicode="&#xb3;" horiz-adv-x="341" 
d="M180 347q-68 0 -99.5 29t-26.5 82h84q-1 -28 12.5 -39t36.5 -11q26 0 43.5 13t21.5 36q5 24 -10 37t-42 13h-43l8 45h41q26 0 44.5 12.5t23.5 37.5q4 21 -8 34t-37 13q-26 0 -42 -11.5t-24 -31.5h-78q11 44 52.5 74.5t108.5 30.5q59 0 91.5 -29.5t25.5 -73.5
q-6 -31 -27 -51t-52 -27l-1 -3q29 -8 44.5 -28.5t9.5 -53.5q-7 -41 -49.5 -69.5t-107.5 -28.5z" />
    <glyph glyph-name="acute" unicode="&#xb4;" horiz-adv-x="257" 
d="M70 537l14 76l240 124l-16 -88z" />
    <glyph glyph-name="uni00B5" unicode="&#xb5;" horiz-adv-x="601" 
d="M-16 -220l128 716h106l-49 -274q-2 -13 -3 -24t-1 -22q0 -98 96 -98q58 0 103 40t61 115l46 263h106l-87 -496h-94l6 85q-32 -45 -80 -71t-106 -26q-52 0 -84 26l-42 -234h-106z" />
    <glyph glyph-name="paragraph" unicode="&#xb6;" horiz-adv-x="617" 
d="M226 -100l69 389h-13q-72 0 -117 26.5t-66.5 68.5t-21.5 88q0 73 35 124t97.5 77.5t144.5 26.5h272l-141 -800h-91l127 718h-78l-126 -718h-91z" />
    <glyph glyph-name="periodcentered" unicode="&#xb7;" horiz-adv-x="219" 
d="M125 269q-30 0 -49.5 19.5t-19.5 46.5q0 28 19.5 47.5t49.5 19.5t49.5 -19.5t19.5 -47.5q0 -27 -19.5 -46.5t-49.5 -19.5z" />
    <glyph glyph-name="cedilla" unicode="&#xb8;" horiz-adv-x="282" 
d="M-77 -261l11 64h102q68 0 68 46q0 35 -52 35h-57l22 123h69l-12 -63q49 1 81 -20t32 -67q0 -35 -19 -61.5t-51.5 -41.5t-71.5 -15h-122z" />
    <glyph glyph-name="uni00B9" unicode="&#xb9;" horiz-adv-x="219" 
d="M106 352l48 273l-71 -17l9 51l109 45h49l-62 -352h-82z" />
    <glyph glyph-name="ordmasculine" unicode="&#xba;" horiz-adv-x="439" 
d="M232 349q-73 0 -117 40t-44 106q0 61 30 110t80 78t112 29q73 0 117 -39.5t44 -105.5q0 -61 -30 -110.5t-80.5 -78.5t-111.5 -29zM242 413q39 0 67.5 20.5t44 54t15.5 71.5q0 45 -25 67.5t-62 22.5q-38 0 -66.5 -21.5t-44 -55t-15.5 -69.5q0 -45 24.5 -67.5t61.5 -22.5z
" />
    <glyph glyph-name="guillemotright" unicode="&#xbb;" horiz-adv-x="478" 
d="M220 120l127 175l-65 175h102l62 -175l-124 -175h-102zM30 120l128 175l-66 175h102l63 -175l-125 -175h-102z" />
    <glyph glyph-name="onequarter" unicode="&#xbc;" horiz-adv-x="668" 
d="M124 352l48 273l-70 -17l8 51l109 45h50l-62 -352h-83zM20 0l497 700h101l-496 -700h-102zM453 0l13 68h-185l8 47l199 238h111l-42 -234h46l-8 -51h-47l-12 -68h-83zM371 120h107l29 166z" />
    <glyph glyph-name="onehalf" unicode="&#xbd;" horiz-adv-x="711" 
d="M124 352l48 273l-70 -17l8 51l109 45h50l-62 -352h-83zM14 0l493 700h102l-493 -700h-102zM404 -1l11 60l131 87q32 23 54.5 46t27.5 54q5 25 -6.5 38t-31.5 13q-47 0 -62 -54h-83q11 49 53 82t108 33q62 0 89.5 -32.5t20.5 -75.5q-8 -40 -38.5 -70t-87.5 -63l-86 -52
h181l-12 -66h-269z" />
    <glyph glyph-name="threequarters" unicode="&#xbe;" horiz-adv-x="739" 
d="M203 347q-68 0 -99.5 29t-26.5 82h83q-1 -28 13 -39t37 -11q26 0 43.5 13t21.5 36q4 24 -10.5 37t-41.5 13h-43l8 45h41q26 0 44.5 12.5t22.5 37.5q4 21 -8 34t-37 13t-41 -11.5t-24 -31.5h-79q12 44 53 74.5t109 30.5q59 0 91.5 -29.5t24.5 -73.5q-5 -31 -26 -51
t-52 -27l-1 -3q29 -8 44.5 -28.5t9.5 -53.5q-7 -41 -49.5 -69.5t-107.5 -28.5zM102 0l503 700h101l-503 -700h-101zM525 0l13 68h-186l8 47l196 238h114l-42 -234h47l-9 -51h-46l-13 -68h-82zM442 119h106l32 170z" />
    <glyph glyph-name="questiondown" unicode="&#xbf;" horiz-adv-x="521" 
d="M373 426q-30 0 -49 19t-19 47t19 47t49 19t49.5 -19t19.5 -47t-19.5 -47t-49.5 -19zM198 -160q-87 0 -139 47.5t-52 127.5q0 76 36 129.5t99 81.5t144 28l20 92h92l-24 -164h-38q-64 0 -115 -14t-80.5 -48t-29.5 -94q0 -44 27.5 -70.5t76.5 -26.5q57 0 95.5 31.5
t48.5 84.5h99q-10 -60 -45.5 -106.5t-90.5 -72.5t-124 -26z" />
    <glyph glyph-name="Agrave" unicode="&#xc0;" horiz-adv-x="683" 
d="M-18 0l381 700h117l132 -700h-110l-31 171h-286l-90 -171h-113zM229 253h228l-57 325zM460 741l-197 112l15 88l196 -124z" />
    <glyph glyph-name="Aacute" unicode="&#xc1;" horiz-adv-x="683" 
d="M-18 0l381 700h117l132 -700h-110l-31 171h-286l-90 -171h-113zM229 253h228l-57 325zM381 741l14 76l240 124l-16 -88z" />
    <glyph glyph-name="Acircumflex" unicode="&#xc2;" horiz-adv-x="683" 
d="M-18 0l381 700h117l132 -700h-110l-31 171h-286l-90 -171h-113zM229 253h228l-57 325zM288 752l14 79l157 83l126 -83l-14 -79l-126 85z" />
    <glyph glyph-name="Atilde" unicode="&#xc3;" horiz-adv-x="683" 
d="M-18 0l381 700h117l132 -700h-110l-31 171h-286l-90 -171h-113zM229 253h228l-57 325zM275 757q18 58 51 85.5t75 27.5q27 0 43.5 -11.5t31 -23.5t35.5 -12q17 0 31 11.5t20 33.5h59q-17 -56 -51 -84t-75 -28q-28 0 -45 11.5t-31.5 23t-34.5 11.5q-37 0 -51 -45h-58z" />
    <glyph glyph-name="Adieresis" unicode="&#xc4;" horiz-adv-x="683" 
d="M-18 0l381 700h117l132 -700h-110l-31 171h-286l-90 -171h-113zM229 253h228l-57 325zM529 772q-23 0 -39.5 16t-16.5 39q0 24 16.5 40t39.5 16t39 -16t16 -40q0 -23 -16 -39t-39 -16zM359 772q-24 0 -40 16t-16 39q0 24 16 40t40 16q23 0 39.5 -16t16.5 -40
q0 -23 -16.5 -39t-39.5 -16z" />
    <glyph glyph-name="Aring" unicode="&#xc5;" horiz-adv-x="683" 
d="M-18 0l381 700h117l132 -700h-110l-31 171h-286l-90 -171h-113zM229 253h228l-57 325zM450 756q-44 0 -76.5 28.5t-32.5 78.5t32.5 79t76.5 29q46 0 78 -29t32 -79t-32 -78.5t-78 -28.5zM450 807q24 0 40 15.5t16 40.5q0 27 -16 42t-40 15q-22 0 -38 -15t-16 -42
q0 -25 16 -40.5t38 -15.5z" />
    <glyph glyph-name="AE" unicode="&#xc6;" horiz-adv-x="931" 
d="M-18 0l514 700h454l-15 -84h-280l-40 -221h251l-14 -82h-251l-40 -229h280l-15 -84h-386l26 149h-259l-109 -149h-116zM549 616l-282 -385h214z" />
    <glyph glyph-name="Ccedilla" unicode="&#xc7;" horiz-adv-x="731" 
d="M340 -12q-90 0 -153 35t-96 98.5t-33 146.5q0 95 31 175.5t86 141t129 94t161 33.5q123 0 191 -60t70 -168h-119q-2 62 -41.5 97.5t-116.5 35.5q-80 0 -143.5 -44.5t-100.5 -121t-37 -172.5q0 -93 49.5 -144.5t138.5 -51.5q77 0 128 34t75 93h119q-40 -105 -128 -163.5
t-210 -58.5zM214 -262l11 64h102q69 0 69 46q0 35 -53 35h-56l21 123h69l-11 -63q48 1 80 -20t32 -67q0 -35 -19 -61.5t-51 -41.5t-72 -15h-122z" />
    <glyph glyph-name="Egrave" unicode="&#xc8;" horiz-adv-x="551" 
d="M28 0l123 700h419l-16 -84h-312l-38 -221h282l-14 -82h-283l-40 -229h312l-15 -84h-418zM403 741l-197 112l15 88l196 -124z" />
    <glyph glyph-name="Eacute" unicode="&#xc9;" horiz-adv-x="551" 
d="M28 0l123 700h419l-16 -84h-312l-38 -221h282l-14 -82h-283l-40 -229h312l-15 -84h-418zM323 741l14 76l240 124l-16 -88z" />
    <glyph glyph-name="Ecircumflex" unicode="&#xca;" horiz-adv-x="551" 
d="M28 0l123 700h419l-16 -84h-312l-38 -221h282l-14 -82h-283l-40 -229h312l-15 -84h-418zM231 752l14 79l157 83l126 -83l-14 -79l-126 85z" />
    <glyph glyph-name="Edieresis" unicode="&#xcb;" horiz-adv-x="551" 
d="M28 0l123 700h419l-16 -84h-312l-38 -221h282l-14 -82h-283l-40 -229h312l-15 -84h-418zM472 772q-23 0 -39.5 16t-16.5 39q0 24 16.5 40t39.5 16t39 -16t16 -40q0 -23 -16 -39t-39 -16zM302 772q-24 0 -40 16t-16 39q0 24 16 40t40 16q23 0 39.5 -16t16.5 -40
q0 -23 -16.5 -39t-39.5 -16z" />
    <glyph glyph-name="Igrave" unicode="&#xcc;" horiz-adv-x="249" 
d="M28 0l123 700h106l-123 -700h-106zM242 741l-197 112l15 88l196 -124z" />
    <glyph glyph-name="Iacute" unicode="&#xcd;" horiz-adv-x="249" 
d="M28 0l123 700h106l-123 -700h-106zM162 741l14 76l240 124l-16 -88z" />
    <glyph glyph-name="Icircumflex" unicode="&#xce;" horiz-adv-x="249" 
d="M28 0l123 700h106l-123 -700h-106zM69 752l14 79l157 83l126 -83l-14 -79l-126 85z" />
    <glyph glyph-name="Idieresis" unicode="&#xcf;" horiz-adv-x="249" 
d="M28 0l123 700h106l-123 -700h-106zM310 772q-23 0 -39.5 16t-16.5 39q0 24 16.5 40t39.5 16t39 -16t16 -40q0 -23 -16 -39t-39 -16zM140 772q-24 0 -40 16t-16 39q0 24 16 40t40 16q23 0 39.5 -16t16.5 -40q0 -23 -16.5 -39t-39.5 -16z" />
    <glyph glyph-name="Eth" unicode="&#xd0;" horiz-adv-x="719" 
d="M39 0l53 303h-81l17 93h80l54 304h227q158 0 232 -75t74 -209q0 -123 -53 -216.5t-149.5 -146.5t-226.5 -53h-227zM161 90h117q97 0 166 39t105.5 110.5t36.5 168.5q0 100 -51.5 151.5t-164.5 51.5h-117l-38 -215h188l-16 -93h-189z" />
    <glyph glyph-name="Ntilde" unicode="&#xd1;" horiz-adv-x="706" 
d="M28 0l123 700h106l257 -533l94 533h106l-123 -700h-106l-257 533l-94 -533h-106zM287 757q18 58 51 85.5t75 27.5q27 0 43.5 -11.5t31 -23.5t35.5 -12q17 0 31 11.5t20 33.5h59q-17 -56 -51 -84t-75 -28q-28 0 -45 11.5t-31.5 23t-34.5 11.5q-37 0 -51 -45h-58z" />
    <glyph glyph-name="Ograve" unicode="&#xd2;" horiz-adv-x="799" 
d="M357 -12q-88 0 -155 39t-104.5 106.5t-37.5 154.5q0 89 32.5 165.5t90 135t133.5 91t163 32.5t154 -38.5t105 -106t38 -154.5q0 -89 -33 -166t-90.5 -135t-133.5 -91t-162 -33zM371 83q60 0 113.5 24.5t94.5 68.5t64 103t23 126q0 98 -54.5 155t-146.5 57
q-61 0 -114.5 -24.5t-94 -68.5t-63.5 -102.5t-23 -125.5q0 -65 25 -113t70 -74t106 -26zM519 741l-197 112l15 88l196 -124z" />
    <glyph glyph-name="Oacute" unicode="&#xd3;" horiz-adv-x="799" 
d="M357 -12q-88 0 -155 39t-104.5 106.5t-37.5 154.5q0 89 32.5 165.5t90 135t133.5 91t163 32.5t154 -38.5t105 -106t38 -154.5q0 -89 -33 -166t-90.5 -135t-133.5 -91t-162 -33zM371 83q60 0 113.5 24.5t94.5 68.5t64 103t23 126q0 98 -54.5 155t-146.5 57
q-61 0 -114.5 -24.5t-94 -68.5t-63.5 -102.5t-23 -125.5q0 -65 25 -113t70 -74t106 -26zM440 741l14 76l240 124l-16 -88z" />
    <glyph glyph-name="Ocircumflex" unicode="&#xd4;" horiz-adv-x="799" 
d="M357 -12q-88 0 -155 39t-104.5 106.5t-37.5 154.5q0 89 32.5 165.5t90 135t133.5 91t163 32.5t154 -38.5t105 -106t38 -154.5q0 -89 -33 -166t-90.5 -135t-133.5 -91t-162 -33zM371 83q60 0 113.5 24.5t94.5 68.5t64 103t23 126q0 98 -54.5 155t-146.5 57
q-61 0 -114.5 -24.5t-94 -68.5t-63.5 -102.5t-23 -125.5q0 -65 25 -113t70 -74t106 -26zM347 752l14 79l157 83l126 -83l-14 -79l-126 85z" />
    <glyph glyph-name="Otilde" unicode="&#xd5;" horiz-adv-x="799" 
d="M357 -12q-88 0 -155 39t-104.5 106.5t-37.5 154.5q0 89 32.5 165.5t90 135t133.5 91t163 32.5t154 -38.5t105 -106t38 -154.5q0 -89 -33 -166t-90.5 -135t-133.5 -91t-162 -33zM371 83q60 0 113.5 24.5t94.5 68.5t64 103t23 126q0 98 -54.5 155t-146.5 57
q-61 0 -114.5 -24.5t-94 -68.5t-63.5 -102.5t-23 -125.5q0 -65 25 -113t70 -74t106 -26zM334 757q18 58 51 85.5t75 27.5q27 0 43.5 -11.5t31 -23.5t35.5 -12q17 0 31 11.5t20 33.5h59q-17 -56 -51 -84t-75 -28q-28 0 -45 11.5t-31.5 23t-34.5 11.5q-37 0 -51 -45h-58z" />
    <glyph glyph-name="Odieresis" unicode="&#xd6;" horiz-adv-x="799" 
d="M357 -12q-88 0 -155 39t-104.5 106.5t-37.5 154.5q0 89 32.5 165.5t90 135t133.5 91t163 32.5t154 -38.5t105 -106t38 -154.5q0 -89 -33 -166t-90.5 -135t-133.5 -91t-162 -33zM371 83q60 0 113.5 24.5t94.5 68.5t64 103t23 126q0 98 -54.5 155t-146.5 57
q-61 0 -114.5 -24.5t-94 -68.5t-63.5 -102.5t-23 -125.5q0 -65 25 -113t70 -74t106 -26zM588 772q-23 0 -39.5 16t-16.5 39q0 24 16.5 40t39.5 16t39 -16t16 -40q0 -23 -16 -39t-39 -16zM418 772q-24 0 -40 16t-16 39q0 24 16 40t40 16q23 0 39.5 -16t16.5 -40
q0 -23 -16.5 -39t-39.5 -16z" />
    <glyph glyph-name="multiply" unicode="&#xd7;" horiz-adv-x="504" 
d="M96 97l-52 63l152 130l-103 126l73 61l104 -125l153 131l52 -63l-154 -131l104 -126l-73 -61l-104 126z" />
    <glyph glyph-name="Oslash" unicode="&#xd8;" horiz-adv-x="787" 
d="M-9 0l116 111q-24 37 -37.5 81.5t-13.5 95.5q0 89 32.5 165.5t90 135t133.5 91t163 32.5q57 0 106.5 -17t86.5 -49l57 54h105l-112 -107q26 -37 39.5 -82.5t13.5 -97.5q0 -89 -32.5 -166t-90 -135t-133.5 -91t-162 -33q-59 0 -109 18t-88 50l-59 -56h-106zM166 296
q0 -61 22 -108l404 386q-52 43 -131 43q-61 0 -114.5 -24.5t-94.5 -68.5t-63.5 -102.5t-22.5 -125.5zM367 83q60 0 113.5 24.5t94.5 68.5t64 103t23 126q0 64 -24 111l-405 -387q53 -46 134 -46z" />
    <glyph glyph-name="Ugrave" unicode="&#xd9;" horiz-adv-x="677" 
d="M285 -12q-65 0 -115.5 22.5t-79.5 68.5t-29 117q0 31 6 67l77 437h106l-78 -437q-5 -29 -5 -50q0 -66 36.5 -97t100.5 -31q73 0 124.5 43t68.5 135l78 437h106l-77 -437q-17 -94 -64 -155t-113.5 -90.5t-141.5 -29.5zM450 741l-197 112l15 88l196 -124z" />
    <glyph glyph-name="Uacute" unicode="&#xda;" horiz-adv-x="677" 
d="M285 -12q-65 0 -115.5 22.5t-79.5 68.5t-29 117q0 31 6 67l77 437h106l-78 -437q-5 -29 -5 -50q0 -66 36.5 -97t100.5 -31q73 0 124.5 43t68.5 135l78 437h106l-77 -437q-17 -94 -64 -155t-113.5 -90.5t-141.5 -29.5zM371 741l14 76l240 124l-16 -88z" />
    <glyph glyph-name="Ucircumflex" unicode="&#xdb;" horiz-adv-x="677" 
d="M285 -12q-65 0 -115.5 22.5t-79.5 68.5t-29 117q0 31 6 67l77 437h106l-78 -437q-5 -29 -5 -50q0 -66 36.5 -97t100.5 -31q73 0 124.5 43t68.5 135l78 437h106l-77 -437q-17 -94 -64 -155t-113.5 -90.5t-141.5 -29.5zM278 752l14 79l157 83l126 -83l-14 -79l-126 85z" />
    <glyph glyph-name="Udieresis" unicode="&#xdc;" horiz-adv-x="677" 
d="M285 -12q-65 0 -115.5 22.5t-79.5 68.5t-29 117q0 31 6 67l77 437h106l-78 -437q-5 -29 -5 -50q0 -66 36.5 -97t100.5 -31q73 0 124.5 43t68.5 135l78 437h106l-77 -437q-17 -94 -64 -155t-113.5 -90.5t-141.5 -29.5zM519 772q-23 0 -39.5 16t-16.5 39q0 24 16.5 40
t39.5 16t39 -16t16 -40q0 -23 -16 -39t-39 -16zM349 772q-24 0 -40 16t-16 39q0 24 16 40t40 16q23 0 39.5 -16t16.5 -40q0 -23 -16.5 -39t-39.5 -16z" />
    <glyph glyph-name="Yacute" unicode="&#xdd;" horiz-adv-x="602" 
d="M198 0l46 258l-154 442h121l105 -338l224 338h119l-309 -442l-46 -258h-106zM334 741l14 76l240 124l-16 -88z" />
    <glyph glyph-name="Thorn" unicode="&#xde;" horiz-adv-x="596" 
d="M28 0l123 700h106l-25 -140h139q73 0 119.5 -24t69 -64t22.5 -90q0 -73 -36 -127.5t-100.5 -84t-148.5 -29.5h-138l-25 -141h-106zM174 228h134q78 0 121.5 40.5t43.5 110.5q0 45 -29 69t-93 24h-134z" />
    <glyph glyph-name="germandbls" unicode="&#xdf;" horiz-adv-x="690" 
d="M413 -10q-91 0 -139.5 49.5t-42.5 132.5h102q-4 -46 20 -73.5t70 -27.5q47 0 76 25t29 68q0 26 -19 44t-64 34q-67 24 -98 49.5t-31 65.5q0 33 17 55t42.5 39t50.5 33.5t42.5 36.5t17.5 49q0 34 -28 53.5t-80 19.5q-70 0 -109 -36.5t-50 -101.5l-90 -505h-106l91 515
q12 63 47 112t93.5 77t139.5 28q98 0 149.5 -43t51.5 -103q0 -38 -17.5 -64.5t-42.5 -45.5t-50 -34t-42 -29.5t-17 -32.5q0 -17 18 -30.5t78 -35.5q59 -22 86 -54t27 -84q0 -54 -29 -96t-79 -66t-114 -24z" />
    <glyph glyph-name="agrave" unicode="&#xe0;" horiz-adv-x="557" 
d="M187 -12q-84 0 -122.5 39t-38.5 93q0 82 67.5 129t178.5 47h130l1 9q3 14 3 29q0 43 -26 65t-68 22q-44 0 -81 -21.5t-52 -63.5h-105q15 54 52 92.5t89 59t111 20.5q91 0 139 -41.5t48 -115.5q0 -11 -0.5 -22.5t-3.5 -23.5l-53 -305h-95l8 83q-29 -41 -73.5 -68
t-108.5 -27zM223 74q42 0 75.5 20.5t56.5 54.5t33 75h-118q-60 0 -95 -24t-35 -65q0 -30 22 -45.5t61 -15.5zM362 537l-197 112l15 88l196 -124z" />
    <glyph glyph-name="aacute" unicode="&#xe1;" horiz-adv-x="557" 
d="M187 -12q-84 0 -122.5 39t-38.5 93q0 82 67.5 129t178.5 47h130l1 9q3 14 3 29q0 43 -26 65t-68 22q-44 0 -81 -21.5t-52 -63.5h-105q15 54 52 92.5t89 59t111 20.5q91 0 139 -41.5t48 -115.5q0 -11 -0.5 -22.5t-3.5 -23.5l-53 -305h-95l8 83q-29 -41 -73.5 -68
t-108.5 -27zM223 74q42 0 75.5 20.5t56.5 54.5t33 75h-118q-60 0 -95 -24t-35 -65q0 -30 22 -45.5t61 -15.5zM282 537l14 76l240 124l-16 -88z" />
    <glyph glyph-name="acircumflex" unicode="&#xe2;" horiz-adv-x="557" 
d="M187 -12q-84 0 -122.5 39t-38.5 93q0 82 67.5 129t178.5 47h130l1 9q3 14 3 29q0 43 -26 65t-68 22q-44 0 -81 -21.5t-52 -63.5h-105q15 54 52 92.5t89 59t111 20.5q91 0 139 -41.5t48 -115.5q0 -11 -0.5 -22.5t-3.5 -23.5l-53 -305h-95l8 83q-29 -41 -73.5 -68
t-108.5 -27zM223 74q42 0 75.5 20.5t56.5 54.5t33 75h-118q-60 0 -95 -24t-35 -65q0 -30 22 -45.5t61 -15.5zM189 548l14 79l157 83l126 -83l-14 -79l-126 85z" />
    <glyph glyph-name="atilde" unicode="&#xe3;" horiz-adv-x="557" 
d="M187 -12q-84 0 -122.5 39t-38.5 93q0 82 67.5 129t178.5 47h130l1 9q3 14 3 29q0 43 -26 65t-68 22q-44 0 -81 -21.5t-52 -63.5h-105q15 54 52 92.5t89 59t111 20.5q91 0 139 -41.5t48 -115.5q0 -11 -0.5 -22.5t-3.5 -23.5l-53 -305h-95l8 83q-29 -41 -73.5 -68
t-108.5 -27zM223 74q42 0 75.5 20.5t56.5 54.5t33 75h-118q-60 0 -95 -24t-35 -65q0 -30 22 -45.5t61 -15.5zM170 553q18 58 51 85.5t75 27.5q27 0 43.5 -11.5t31 -23.5t36.5 -12q16 0 30 11.5t21 33.5h59q-18 -56 -51.5 -84t-75.5 -28q-28 0 -45 11.5t-31 23t-35 11.5
q-36 0 -50 -45h-59z" />
    <glyph glyph-name="adieresis" unicode="&#xe4;" horiz-adv-x="557" 
d="M187 -12q-84 0 -122.5 39t-38.5 93q0 82 67.5 129t178.5 47h130l1 9q3 14 3 29q0 43 -26 65t-68 22q-44 0 -81 -21.5t-52 -63.5h-105q15 54 52 92.5t89 59t111 20.5q91 0 139 -41.5t48 -115.5q0 -11 -0.5 -22.5t-3.5 -23.5l-53 -305h-95l8 83q-29 -41 -73.5 -68
t-108.5 -27zM223 74q42 0 75.5 20.5t56.5 54.5t33 75h-118q-60 0 -95 -24t-35 -65q0 -30 22 -45.5t61 -15.5zM430 568q-23 0 -39 16t-16 39q0 24 16 40t39 16t39.5 -16t16.5 -40q0 -23 -16.5 -39t-39.5 -16zM260 568q-24 0 -40 16t-16 39q0 24 16 40t40 16q23 0 39.5 -16
t16.5 -40q0 -23 -16.5 -39t-39.5 -16z" />
    <glyph glyph-name="aring" unicode="&#xe5;" horiz-adv-x="557" 
d="M187 -12q-84 0 -122.5 39t-38.5 93q0 82 67.5 129t178.5 47h130l1 9q3 14 3 29q0 43 -26 65t-68 22q-44 0 -81 -21.5t-52 -63.5h-105q15 54 52 92.5t89 59t111 20.5q91 0 139 -41.5t48 -115.5q0 -11 -0.5 -22.5t-3.5 -23.5l-53 -305h-95l8 83q-29 -41 -73.5 -68
t-108.5 -27zM223 74q42 0 75.5 20.5t56.5 54.5t33 75h-118q-60 0 -95 -24t-35 -65q0 -30 22 -45.5t61 -15.5zM352 552q-44 0 -76.5 28.5t-32.5 78.5t32.5 79t76.5 29q46 0 78 -29t32 -79t-32 -78.5t-78 -28.5zM352 603q23 0 39 15.5t16 40.5q0 27 -16 42t-39 15
q-22 0 -38 -15t-16 -42q0 -25 16 -40.5t38 -15.5z" />
    <glyph glyph-name="ae" unicode="&#xe6;" horiz-adv-x="936" 
d="M194 -12q-83 0 -125.5 36.5t-42.5 92.5q0 54 30 94.5t84 62.5t125 22h146q4 22 4 38q0 43 -26 65t-68 22q-44 0 -80.5 -21.5t-51.5 -63.5h-106q15 54 53.5 92.5t90.5 59t109 20.5q63 0 104 -21t61 -59q39 38 90.5 59t110.5 21q64 0 109.5 -25.5t69.5 -69t24 -98.5
q0 -15 -3 -34.5t-6.5 -36t-4.5 -21.5h-386q-2 -12 -2 -23q-1 -60 34.5 -92t86.5 -32q50 0 87 25t58 65h105q-22 -50 -60.5 -90.5t-90.5 -64t-114 -23.5q-67 0 -115.5 30t-71.5 82q-37 -49 -96.5 -80.5t-131.5 -31.5zM520 295h279q0 5 0.5 9t0.5 8q1 50 -30.5 79.5
t-83.5 29.5q-54 0 -100.5 -32t-65.5 -94zM222 74q40 0 74 18t58.5 48t35.5 65l4 19h-131q-55 0 -89 -23t-34 -66q0 -28 21.5 -44.5t60.5 -16.5z" />
    <glyph glyph-name="ccedilla" unicode="&#xe7;" horiz-adv-x="584" 
d="M256 -12q-64 0 -112 26.5t-74.5 74.5t-26.5 111q0 65 23.5 121t64.5 98t96 65.5t119 23.5q94 0 149 -49t55 -134h-110q0 45 -31.5 68.5t-77.5 23.5q-49 0 -89.5 -26.5t-64.5 -73.5t-24 -106q0 -62 34 -97.5t85 -35.5q46 0 85 24t57 69h110q-20 -55 -59.5 -96t-93 -64
t-115.5 -23zM131 -263l11 64h102q68 0 68 46q0 35 -52 35h-57l22 123h69l-12 -63q49 1 81 -20t32 -67q0 -35 -19 -61.5t-51.5 -41.5t-71.5 -15h-122z" />
    <glyph glyph-name="egrave" unicode="&#xe8;" horiz-adv-x="582" 
d="M253 -12q-96 0 -153 57t-57 153q0 64 22 120.5t62.5 99t95.5 66.5t121 24q65 0 111 -25.5t70 -69t24 -98.5q0 -22 -4.5 -47.5t-9.5 -44.5h-386q-2 -13 -2 -24q0 -60 35 -91.5t86 -31.5q46 0 80.5 21t54.5 55h107q-22 -47 -60 -84t-88 -58.5t-109 -21.5zM330 421
q-53 0 -100 -32t-67 -94h280q1 5 1 9v8q1 50 -30.5 79.5t-83.5 29.5zM382 537l-197 112l15 88l196 -124z" />
    <glyph glyph-name="eacute" unicode="&#xe9;" horiz-adv-x="582" 
d="M253 -12q-96 0 -153 57t-57 153q0 64 22 120.5t62.5 99t95.5 66.5t121 24q65 0 111 -25.5t70 -69t24 -98.5q0 -22 -4.5 -47.5t-9.5 -44.5h-386q-2 -13 -2 -24q0 -60 35 -91.5t86 -31.5q46 0 80.5 21t54.5 55h107q-22 -47 -60 -84t-88 -58.5t-109 -21.5zM330 421
q-53 0 -100 -32t-67 -94h280q1 5 1 9v8q1 50 -30.5 79.5t-83.5 29.5zM302 537l14 76l240 124l-16 -88z" />
    <glyph glyph-name="ecircumflex" unicode="&#xea;" horiz-adv-x="582" 
d="M253 -12q-96 0 -153 57t-57 153q0 64 22 120.5t62.5 99t95.5 66.5t121 24q65 0 111 -25.5t70 -69t24 -98.5q0 -22 -4.5 -47.5t-9.5 -44.5h-386q-2 -13 -2 -24q0 -60 35 -91.5t86 -31.5q46 0 80.5 21t54.5 55h107q-22 -47 -60 -84t-88 -58.5t-109 -21.5zM330 421
q-53 0 -100 -32t-67 -94h280q1 5 1 9v8q1 50 -30.5 79.5t-83.5 29.5zM209 548l14 79l157 83l126 -83l-14 -79l-126 85z" />
    <glyph glyph-name="edieresis" unicode="&#xeb;" horiz-adv-x="582" 
d="M253 -12q-96 0 -153 57t-57 153q0 64 22 120.5t62.5 99t95.5 66.5t121 24q65 0 111 -25.5t70 -69t24 -98.5q0 -22 -4.5 -47.5t-9.5 -44.5h-386q-2 -13 -2 -24q0 -60 35 -91.5t86 -31.5q46 0 80.5 21t54.5 55h107q-22 -47 -60 -84t-88 -58.5t-109 -21.5zM330 421
q-53 0 -100 -32t-67 -94h280q1 5 1 9v8q1 50 -30.5 79.5t-83.5 29.5zM450 568q-23 0 -39 16t-16 39q0 24 16 40t39 16t39.5 -16t16.5 -40q0 -23 -16.5 -39t-39.5 -16zM280 568q-24 0 -40 16t-16 39q0 24 16 40t40 16q23 0 39.5 -16t16.5 -40q0 -23 -16.5 -39t-39.5 -16z" />
    <glyph glyph-name="igrave" unicode="&#xec;" horiz-adv-x="241" 
d="M24 0l87 496h106l-87 -496h-106zM203 537l-197 112l15 88l196 -124z" />
    <glyph glyph-name="iacute" unicode="&#xed;" horiz-adv-x="241" 
d="M24 0l87 496h106l-87 -496h-106zM123 537l14 76l240 124l-16 -88z" />
    <glyph glyph-name="icircumflex" unicode="&#xee;" horiz-adv-x="241" 
d="M24 0l87 496h106l-87 -496h-106zM30 548l14 79l157 83l126 -83l-14 -79l-126 85z" />
    <glyph glyph-name="idieresis" unicode="&#xef;" horiz-adv-x="241" 
d="M24 0l87 496h106l-87 -496h-106zM271 568q-23 0 -39 16t-16 39q0 24 16 40t39 16t39.5 -16t16.5 -40q0 -23 -16.5 -39t-39.5 -16zM101 568q-24 0 -40 16t-16 39q0 24 16 40t40 16q23 0 39.5 -16t16.5 -40q0 -23 -16.5 -39t-39.5 -16z" />
    <glyph glyph-name="eth" unicode="&#xf0;" horiz-adv-x="626" 
d="M277 -12q-72 0 -124 31.5t-80 83t-28 112.5q0 62 23.5 115t64.5 92t94.5 61t114.5 22q46 0 86.5 -15t63.5 -52q-6 39 -19 76.5t-34 72.5l-137 -43l12 67l91 29q-24 31 -53 60h102q17 -16 32 -34l134 43l-12 -68l-85 -27q35 -58 52 -122t17 -129q0 -92 -26 -162
t-70.5 -117.5t-101 -71.5t-117.5 -24zM289 78q50 0 92 28t67 73t25 98q0 67 -39 102.5t-96 35.5q-50 0 -92 -26t-67 -70t-25 -97q0 -65 37.5 -104.5t97.5 -39.5z" />
    <glyph glyph-name="ntilde" unicode="&#xf1;" horiz-adv-x="591" 
d="M24 0l87 496h94l-6 -86q31 45 79.5 71.5t106.5 26.5q76 0 118.5 -42t42.5 -121q0 -29 -6 -60l-51 -285h-105l48 274q2 13 3.5 24t1.5 22q0 98 -97 98q-58 0 -103 -40t-60 -114l-47 -264h-106zM208 553q18 58 51 85.5t75 27.5q27 0 43.5 -11.5t31 -23.5t36.5 -12
q16 0 30 11.5t21 33.5h59q-18 -56 -51.5 -84t-75.5 -28q-28 0 -45 11.5t-31 23t-35 11.5q-36 0 -50 -45h-59z" />
    <glyph glyph-name="ograve" unicode="&#xf2;" horiz-adv-x="600" 
d="M259 -12q-63 0 -111.5 28.5t-76 78t-27.5 112.5q0 64 22.5 119t63 96t94 63.5t115.5 22.5q64 0 112.5 -27.5t76.5 -76t28 -112.5t-23 -119.5t-63.5 -97t-94 -64.5t-116.5 -23zM273 79q49 0 88.5 27.5t62.5 74t23 105.5q0 62 -35.5 96.5t-84.5 34.5t-88.5 -27.5t-62.5 -74
t-23 -105.5q0 -62 35.5 -96.5t84.5 -34.5zM381 537l-197 112l15 88l196 -124z" />
    <glyph glyph-name="oacute" unicode="&#xf3;" horiz-adv-x="600" 
d="M259 -12q-63 0 -111.5 28.5t-76 78t-27.5 112.5q0 64 22.5 119t63 96t94 63.5t115.5 22.5q64 0 112.5 -27.5t76.5 -76t28 -112.5t-23 -119.5t-63.5 -97t-94 -64.5t-116.5 -23zM273 79q49 0 88.5 27.5t62.5 74t23 105.5q0 62 -35.5 96.5t-84.5 34.5t-88.5 -27.5t-62.5 -74
t-23 -105.5q0 -62 35.5 -96.5t84.5 -34.5zM301 537l14 76l240 124l-16 -88z" />
    <glyph glyph-name="ocircumflex" unicode="&#xf4;" horiz-adv-x="600" 
d="M259 -12q-63 0 -111.5 28.5t-76 78t-27.5 112.5q0 64 22.5 119t63 96t94 63.5t115.5 22.5q64 0 112.5 -27.5t76.5 -76t28 -112.5t-23 -119.5t-63.5 -97t-94 -64.5t-116.5 -23zM273 79q49 0 88.5 27.5t62.5 74t23 105.5q0 62 -35.5 96.5t-84.5 34.5t-88.5 -27.5t-62.5 -74
t-23 -105.5q0 -62 35.5 -96.5t84.5 -34.5zM208 548l14 79l157 83l126 -83l-14 -79l-126 85z" />
    <glyph glyph-name="otilde" unicode="&#xf5;" horiz-adv-x="600" 
d="M259 -12q-63 0 -111.5 28.5t-76 78t-27.5 112.5q0 64 22.5 119t63 96t94 63.5t115.5 22.5q64 0 112.5 -27.5t76.5 -76t28 -112.5t-23 -119.5t-63.5 -97t-94 -64.5t-116.5 -23zM273 79q49 0 88.5 27.5t62.5 74t23 105.5q0 62 -35.5 96.5t-84.5 34.5t-88.5 -27.5t-62.5 -74
t-23 -105.5q0 -62 35.5 -96.5t84.5 -34.5zM189 553q18 58 51 85.5t75 27.5q27 0 43.5 -11.5t31 -23.5t36.5 -12q16 0 30 11.5t21 33.5h59q-18 -56 -51.5 -84t-75.5 -28q-28 0 -45 11.5t-31 23t-35 11.5q-36 0 -50 -45h-59z" />
    <glyph glyph-name="odieresis" unicode="&#xf6;" horiz-adv-x="600" 
d="M259 -12q-63 0 -111.5 28.5t-76 78t-27.5 112.5q0 64 22.5 119t63 96t94 63.5t115.5 22.5q64 0 112.5 -27.5t76.5 -76t28 -112.5t-23 -119.5t-63.5 -97t-94 -64.5t-116.5 -23zM273 79q49 0 88.5 27.5t62.5 74t23 105.5q0 62 -35.5 96.5t-84.5 34.5t-88.5 -27.5t-62.5 -74
t-23 -105.5q0 -62 35.5 -96.5t84.5 -34.5zM449 568q-23 0 -39 16t-16 39q0 24 16 40t39 16t39.5 -16t16.5 -40q0 -23 -16.5 -39t-39.5 -16zM279 568q-24 0 -40 16t-16 39q0 24 16 40t40 16q23 0 39.5 -16t16.5 -40q0 -23 -16.5 -39t-39.5 -16z" />
    <glyph glyph-name="divide" unicode="&#xf7;" horiz-adv-x="533" 
d="M301 384q-30 0 -49.5 19t-19.5 47t19.5 47t49.5 19t49 -19t19 -47t-19 -47t-49 -19zM59 246l15 88h415l-16 -88h-414zM248 64q-30 0 -49.5 19t-19.5 47t19.5 47t49.5 19t49 -19t19 -47t-19 -47t-49 -19z" />
    <glyph glyph-name="oslash" unicode="&#xf8;" horiz-adv-x="592" 
d="M-8 0l84 80q-36 55 -36 127q0 64 22.5 119t63 96t94 63.5t115.5 22.5q82 0 140 -45l34 33h90l-82 -79q35 -54 35 -125q0 -64 -23 -119.5t-63.5 -97t-94 -64.5t-115.5 -23q-41 0 -76 12t-62 34l-35 -34h-91zM144 209q0 -30 9 -55l251 241q-33 28 -80 28q-51 0 -91.5 -28
t-64.5 -76.5t-24 -109.5zM268 73q51 0 92 28t64.5 76.5t23.5 109.5q0 30 -9 55l-251 -241q34 -28 80 -28z" />
    <glyph glyph-name="ugrave" unicode="&#xf9;" horiz-adv-x="591" 
d="M206 -12q-76 0 -118.5 42t-42.5 121q0 29 6 60l50 285h106l-48 -274q-2 -13 -3.5 -24t-1.5 -22q0 -98 97 -98q57 0 102.5 40t60.5 114l46 264h106l-87 -496h-94l7 86q-31 -45 -80 -71.5t-106 -26.5zM372 537l-197 112l15 88l196 -124z" />
    <glyph glyph-name="uacute" unicode="&#xfa;" horiz-adv-x="591" 
d="M206 -12q-76 0 -118.5 42t-42.5 121q0 29 6 60l50 285h106l-48 -274q-2 -13 -3.5 -24t-1.5 -22q0 -98 97 -98q57 0 102.5 40t60.5 114l46 264h106l-87 -496h-94l7 86q-31 -45 -80 -71.5t-106 -26.5zM292 537l14 76l240 124l-16 -88z" />
    <glyph glyph-name="ucircumflex" unicode="&#xfb;" horiz-adv-x="591" 
d="M206 -12q-76 0 -118.5 42t-42.5 121q0 29 6 60l50 285h106l-48 -274q-2 -13 -3.5 -24t-1.5 -22q0 -98 97 -98q57 0 102.5 40t60.5 114l46 264h106l-87 -496h-94l7 86q-31 -45 -80 -71.5t-106 -26.5zM199 548l14 79l157 83l126 -83l-14 -79l-126 85z" />
    <glyph glyph-name="udieresis" unicode="&#xfc;" horiz-adv-x="591" 
d="M206 -12q-76 0 -118.5 42t-42.5 121q0 29 6 60l50 285h106l-48 -274q-2 -13 -3.5 -24t-1.5 -22q0 -98 97 -98q57 0 102.5 40t60.5 114l46 264h106l-87 -496h-94l7 86q-31 -45 -80 -71.5t-106 -26.5zM440 568q-23 0 -39.5 16t-16.5 39q0 24 16.5 40t39.5 16t39 -16t16 -40
q0 -23 -16 -39t-39 -16zM270 568q-24 0 -40 16t-16 39q0 24 16 40t40 16q23 0 39.5 -16t16.5 -40q0 -23 -16.5 -39t-39.5 -16z" />
    <glyph glyph-name="yacute" unicode="&#xfd;" horiz-adv-x="574" 
d="M42 -220l164 261h-29l-115 455h113l89 -367l224 367h112l-446 -716h-112zM292 537l14 76l240 124l-16 -88z" />
    <glyph glyph-name="thorn" unicode="&#xfe;" horiz-adv-x="632" 
d="M302 -12q-57 0 -99 27t-60 61l-52 -296h-106l165 940h106l-51 -294q29 33 73 57.5t108 24.5q62 0 107.5 -28t70.5 -76.5t25 -108.5q0 -65 -21.5 -120.5t-60.5 -97.5t-91.5 -65.5t-113.5 -23.5zM301 80q52 0 92 26t63.5 70.5t23.5 100.5q0 60 -35 99.5t-95 39.5
q-51 0 -92 -27t-64.5 -72.5t-23.5 -102.5q0 -59 36 -96.5t95 -37.5z" />
    <glyph glyph-name="ydieresis" unicode="&#xff;" horiz-adv-x="574" 
d="M42 -220l164 261h-29l-115 455h113l89 -367l224 367h112l-446 -716h-112zM440 568q-23 0 -39.5 16t-16.5 39q0 24 16.5 40t39.5 16t39 -16t16 -40q0 -23 -16 -39t-39 -16zM270 568q-24 0 -40 16t-16 39q0 24 16 40t40 16q23 0 39.5 -16t16.5 -40q0 -23 -16.5 -39
t-39.5 -16z" />
    <glyph glyph-name="Amacron" unicode="&#x100;" horiz-adv-x="683" 
d="M-18 0l381 700h117l132 -700h-110l-31 171h-286l-90 -171h-113zM229 253h228l-57 325zM256 789l14 77h361l-13 -77h-362z" />
    <glyph glyph-name="amacron" unicode="&#x101;" horiz-adv-x="557" 
d="M187 -12q-84 0 -122.5 39t-38.5 93q0 82 67.5 129t178.5 47h130l1 9q3 14 3 29q0 43 -26 65t-68 22q-44 0 -81 -21.5t-52 -63.5h-105q15 54 52 92.5t89 59t111 20.5q91 0 139 -41.5t48 -115.5q0 -11 -0.5 -22.5t-3.5 -23.5l-53 -305h-95l8 83q-29 -41 -73.5 -68
t-108.5 -27zM223 74q42 0 75.5 20.5t56.5 54.5t33 75h-118q-60 0 -95 -24t-35 -65q0 -30 22 -45.5t61 -15.5zM158 585l14 77h361l-13 -77h-362z" />
    <glyph glyph-name="Abreve" unicode="&#x102;" horiz-adv-x="683" 
d="M-18 0l381 700h117l132 -700h-110l-31 171h-286l-90 -171h-113zM229 253h228l-57 325zM431 759q-69 0 -101 39.5t-21 101.5l2 15h59q-6 -36 10.5 -56t65.5 -20q47 0 71 20t31 56h59l-3 -16q-11 -62 -56.5 -101t-116.5 -39z" />
    <glyph glyph-name="abreve" unicode="&#x103;" horiz-adv-x="557" 
d="M187 -12q-84 0 -122.5 39t-38.5 93q0 82 67.5 129t178.5 47h130l1 9q3 14 3 29q0 43 -26 65t-68 22q-44 0 -81 -21.5t-52 -63.5h-105q15 54 52 92.5t89 59t111 20.5q91 0 139 -41.5t48 -115.5q0 -11 -0.5 -22.5t-3.5 -23.5l-53 -305h-95l8 83q-29 -41 -73.5 -68
t-108.5 -27zM223 74q42 0 75.5 20.5t56.5 54.5t33 75h-118q-60 0 -95 -24t-35 -65q0 -30 22 -45.5t61 -15.5zM333 555q-69 0 -101 39.5t-21 101.5l3 15h58q-6 -36 10.5 -56t65.5 -20q47 0 71 20t31 56h59l-3 -16q-11 -62 -56.5 -101t-116.5 -39z" />
    <glyph glyph-name="Aogonek" unicode="&#x104;" horiz-adv-x="683" 
d="M-18 0l381 700h117l132 -700h-6l-59 -27q-41 -17 -57 -34t-20 -35q-4 -22 9.5 -34t38.5 -12q31 0 71 15l-12 -66q-20 -6 -41 -10t-43 -4q-33 0 -60 10.5t-40.5 33t-7.5 58.5q6 32 31.5 64.5t81.5 60.5l-27 151h-286l-90 -171h-113zM229 253h228l-57 325z" />
    <glyph glyph-name="aogonek" unicode="&#x105;" horiz-adv-x="557" 
d="M187 -12q-84 0 -122.5 39t-38.5 93q0 82 67.5 129t178.5 47h130l1 9q3 14 3 29q0 43 -26 65t-68 22q-44 0 -81 -21.5t-52 -63.5h-105q15 54 52 92.5t89 59t111 20.5q91 0 139 -41.5t48 -115.5q0 -11 -0.5 -22.5t-3.5 -23.5l-53 -305h-95l8 83q-29 -41 -73.5 -68
t-108.5 -27zM223 74q42 0 75.5 20.5t56.5 54.5t33 75h-118q-60 0 -95 -24t-35 -65q0 -30 22 -45.5t61 -15.5zM342 -207q-33 0 -59.5 10.5t-40.5 32.5t-7 57q6 38 40 72t111 65l53 22l17 -52l-59 -27q-40 -18 -57 -35t-21 -35q-4 -21 9.5 -33t38.5 -12q31 0 71 15l-12 -66
q-19 -6 -40.5 -10t-43.5 -4z" />
    <glyph glyph-name="Cacute" unicode="&#x106;" horiz-adv-x="731" 
d="M340 -12q-90 0 -153 35t-96 98.5t-33 146.5q0 95 31 175.5t86 141t129 94t161 33.5q123 0 191 -60t70 -168h-119q-2 62 -41.5 97.5t-116.5 35.5q-80 0 -143.5 -44.5t-100.5 -121t-37 -172.5q0 -93 49.5 -144.5t138.5 -51.5q77 0 128 34t75 93h119q-40 -105 -128 -163.5
t-210 -58.5zM425 741l14 76l240 124l-16 -88z" />
    <glyph glyph-name="cacute" unicode="&#x107;" horiz-adv-x="584" 
d="M256 -12q-64 0 -112 26.5t-74.5 74.5t-26.5 111q0 65 23.5 121t64.5 98t96 65.5t119 23.5q94 0 149 -49t55 -134h-110q0 45 -31.5 68.5t-77.5 23.5q-49 0 -89.5 -26.5t-64.5 -73.5t-24 -106q0 -62 34 -97.5t85 -35.5q46 0 85 24t57 69h110q-20 -55 -59.5 -96t-93 -64
t-115.5 -23zM307 538l14 76l240 124l-16 -88z" />
    <glyph glyph-name="Cdotaccent" unicode="&#x10a;" horiz-adv-x="731" 
d="M340 -12q-90 0 -153 35t-96 98.5t-33 146.5q0 95 31 175.5t86 141t129 94t161 33.5q123 0 191 -60t70 -168h-119q-2 62 -41.5 97.5t-116.5 35.5q-80 0 -143.5 -44.5t-100.5 -121t-37 -172.5q0 -93 49.5 -144.5t138.5 -51.5q77 0 128 34t75 93h119q-40 -105 -128 -163.5
t-210 -58.5zM486 765q-23 0 -39 16.5t-16 39.5t16 39.5t39 16.5q24 0 40 -16.5t16 -39.5t-16 -39.5t-40 -16.5z" />
    <glyph glyph-name="cdotaccent" unicode="&#x10b;" horiz-adv-x="584" 
d="M256 -12q-64 0 -112 26.5t-74.5 74.5t-26.5 111q0 65 23.5 121t64.5 98t96 65.5t119 23.5q94 0 149 -49t55 -134h-110q0 45 -31.5 68.5t-77.5 23.5q-49 0 -89.5 -26.5t-64.5 -73.5t-24 -106q0 -62 34 -97.5t85 -35.5q46 0 85 24t57 69h110q-20 -55 -59.5 -96t-93 -64
t-115.5 -23zM369 562q-23 0 -39.5 16.5t-16.5 39.5t16.5 39.5t39.5 16.5t39.5 -16.5t16.5 -39.5t-16.5 -39.5t-39.5 -16.5z" />
    <glyph glyph-name="Ccaron" unicode="&#x10c;" horiz-adv-x="731" 
d="M340 -12q-90 0 -153 35t-96 98.5t-33 146.5q0 95 31 175.5t86 141t129 94t161 33.5q123 0 191 -60t70 -168h-119q-2 62 -41.5 97.5t-116.5 35.5q-80 0 -143.5 -44.5t-100.5 -121t-37 -172.5q0 -93 49.5 -144.5t138.5 -51.5q77 0 128 34t75 93h119q-40 -105 -128 -163.5
t-210 -58.5zM474 751l-127 83l14 76l124 -84l158 87l-13 -79z" />
    <glyph glyph-name="ccaron" unicode="&#x10d;" horiz-adv-x="584" 
d="M256 -12q-64 0 -112 26.5t-74.5 74.5t-26.5 111q0 65 23.5 121t64.5 98t96 65.5t119 23.5q94 0 149 -49t55 -134h-110q0 45 -31.5 68.5t-77.5 23.5q-49 0 -89.5 -26.5t-64.5 -73.5t-24 -106q0 -62 34 -97.5t85 -35.5q46 0 85 24t57 69h110q-20 -55 -59.5 -96t-93 -64
t-115.5 -23zM356 548l-127 83l14 76l124 -84l158 87l-13 -79z" />
    <glyph glyph-name="Dcaron" unicode="&#x10e;" horiz-adv-x="708" 
d="M28 0l123 700h227q158 0 232 -75t74 -209q0 -123 -53 -216.5t-149.5 -146.5t-226.5 -53h-227zM150 90h117q97 0 166 39t105.5 110.5t36.5 168.5q0 100 -51.5 151.5t-164.5 51.5h-117zM403 751l-127 83l14 76l124 -84l158 87l-13 -79z" />
    <glyph glyph-name="dcaron" unicode="&#x10f;" horiz-adv-x="763" 
d="M683 523l8 46q25 0 39 14t19 42l5 22h-53l17 93h98q4 -53 -4 -97q-19 -120 -129 -120zM245 -12q-63 0 -108 29.5t-69 79t-24 110.5q0 87 37.5 155t101.5 107t143 39q63 0 103 -24.5t60 -63.5l53 300h106l-128 -720h-95l3 77q-29 -35 -73 -62t-110 -27zM281 80q52 0 93 28
t64.5 74.5t23.5 102.5q0 59 -34.5 95t-93.5 36q-52 0 -92.5 -26t-64 -70.5t-23.5 -100.5q0 -59 34 -99t93 -40z" />
    <glyph glyph-name="Dcroat" unicode="&#x110;" horiz-adv-x="719" 
d="M39 0l53 303h-81l17 93h80l54 304h227q158 0 232 -75t74 -209q0 -123 -53 -216.5t-149.5 -146.5t-226.5 -53h-227zM161 90h117q97 0 166 39t105.5 110.5t36.5 168.5q0 100 -51.5 151.5t-164.5 51.5h-117l-38 -215h188l-16 -93h-189z" />
    <glyph glyph-name="dcroat" unicode="&#x111;" horiz-adv-x="670" 
d="M245 -12q-63 0 -108 29.5t-69 79t-24 110.5q0 87 37.5 155t101.5 107t143 39q63 0 103 -24.5t60 -63.5l26 148h-138l12 71h138l15 81h106l-14 -81h73l-13 -71h-73l-101 -568h-95l3 77q-29 -35 -73 -62t-110 -27zM281 80q52 0 93 28t64.5 74.5t23.5 102.5q0 59 -34.5 95
t-93.5 36q-52 0 -92.5 -26t-64 -70.5t-23.5 -100.5q0 -59 34 -99t93 -40z" />
    <glyph glyph-name="Emacron" unicode="&#x112;" horiz-adv-x="551" 
d="M28 0l123 700h419l-16 -84h-312l-38 -221h282l-14 -82h-283l-40 -229h312l-15 -84h-418zM199 789l14 77h361l-13 -77h-362z" />
    <glyph glyph-name="emacron" unicode="&#x113;" horiz-adv-x="582" 
d="M253 -12q-96 0 -153 57t-57 153q0 64 22 120.5t62.5 99t95.5 66.5t121 24q65 0 111 -25.5t70 -69t24 -98.5q0 -22 -4.5 -47.5t-9.5 -44.5h-386q-2 -13 -2 -24q0 -60 35 -91.5t86 -31.5q46 0 80.5 21t54.5 55h107q-22 -47 -60 -84t-88 -58.5t-109 -21.5zM330 421
q-53 0 -100 -32t-67 -94h280q1 5 1 9v8q1 50 -30.5 79.5t-83.5 29.5zM177 585l14 77h361l-13 -77h-362z" />
    <glyph glyph-name="Ebreve" unicode="&#x114;" horiz-adv-x="551" 
d="M28 0l123 700h419l-16 -84h-312l-38 -221h282l-14 -82h-283l-40 -229h312l-15 -84h-418zM374 759q-69 0 -101 39.5t-21 101.5l2 15h59q-6 -36 10.5 -56t65.5 -20q47 0 71 20t31 56h59l-3 -16q-11 -62 -56.5 -101t-116.5 -39z" />
    <glyph glyph-name="ebreve" unicode="&#x115;" horiz-adv-x="582" 
d="M253 -12q-96 0 -153 57t-57 153q0 64 22 120.5t62.5 99t95.5 66.5t121 24q65 0 111 -25.5t70 -69t24 -98.5q0 -22 -4.5 -47.5t-9.5 -44.5h-386q-2 -13 -2 -24q0 -60 35 -91.5t86 -31.5q46 0 80.5 21t54.5 55h107q-22 -47 -60 -84t-88 -58.5t-109 -21.5zM330 421
q-53 0 -100 -32t-67 -94h280q1 5 1 9v8q1 50 -30.5 79.5t-83.5 29.5zM352 555q-69 0 -101 39.5t-21 101.5l3 15h58q-6 -36 10.5 -56t65.5 -20q47 0 71 20t31 56h59l-3 -16q-11 -62 -56.5 -101t-116.5 -39z" />
    <glyph glyph-name="Edotaccent" unicode="&#x116;" horiz-adv-x="551" 
d="M28 0l123 700h419l-16 -84h-312l-38 -221h282l-14 -82h-283l-40 -229h312l-15 -84h-418zM385 765q-23 0 -39 16.5t-16 39.5t16 39.5t39 16.5q24 0 40 -16.5t16 -39.5t-16 -39.5t-40 -16.5z" />
    <glyph glyph-name="edotaccent" unicode="&#x117;" horiz-adv-x="582" 
d="M253 -12q-96 0 -153 57t-57 153q0 64 22 120.5t62.5 99t95.5 66.5t121 24q65 0 111 -25.5t70 -69t24 -98.5q0 -22 -4.5 -47.5t-9.5 -44.5h-386q-2 -13 -2 -24q0 -60 35 -91.5t86 -31.5q46 0 80.5 21t54.5 55h107q-22 -47 -60 -84t-88 -58.5t-109 -21.5zM330 421
q-53 0 -100 -32t-67 -94h280q1 5 1 9v8q1 50 -30.5 79.5t-83.5 29.5zM363 561q-23 0 -39.5 16.5t-16.5 39.5t16.5 39.5t39.5 16.5t39.5 -16.5t16.5 -39.5t-16.5 -39.5t-39.5 -16.5z" />
    <glyph glyph-name="Eogonek" unicode="&#x118;" horiz-adv-x="551" 
d="M28 0l123 700h419l-16 -84h-312l-38 -221h282l-14 -82h-283l-40 -229h312l-15 -84h-418zM333 -207q-33 0 -60 10.5t-40.5 32.5t-7.5 57q7 38 40.5 72t111.5 65l53 22l16 -52l-58 -27q-40 -18 -57.5 -35t-20.5 -35q-4 -21 9 -33t39 -12q30 0 71 15l-12 -66q-19 -6 -41 -10
t-43 -4z" />
    <glyph glyph-name="eogonek" unicode="&#x119;" horiz-adv-x="582" 
d="M253 -12q-96 0 -153 57t-57 153q0 64 22 120.5t62.5 99t95.5 66.5t121 24q65 0 111 -25.5t70 -69t24 -98.5q0 -22 -4.5 -47.5t-9.5 -44.5h-386q-2 -13 -2 -24q0 -60 35 -91.5t86 -31.5q46 0 80.5 21t54.5 55h107q-22 -47 -60 -84t-88 -58.5t-109 -21.5zM330 421
q-53 0 -100 -32t-67 -94h280q1 5 1 9v8q1 50 -30.5 79.5t-83.5 29.5zM246 -195q-33 0 -59.5 10.5t-40.5 32.5t-7 57q6 38 40 72t111 65l53 22l17 -52l-59 -27q-40 -18 -57 -35t-21 -35q-4 -21 9.5 -33t38.5 -12q31 0 71 15l-12 -66q-19 -6 -40.5 -10t-43.5 -4z" />
    <glyph glyph-name="Ecaron" unicode="&#x11a;" horiz-adv-x="551" 
d="M28 0l123 700h419l-16 -84h-312l-38 -221h282l-14 -82h-283l-40 -229h312l-15 -84h-418zM373 751l-127 83l14 76l124 -84l158 87l-13 -79z" />
    <glyph glyph-name="ecaron" unicode="&#x11b;" horiz-adv-x="582" 
d="M253 -12q-96 0 -153 57t-57 153q0 64 22 120.5t62.5 99t95.5 66.5t121 24q65 0 111 -25.5t70 -69t24 -98.5q0 -22 -4.5 -47.5t-9.5 -44.5h-386q-2 -13 -2 -24q0 -60 35 -91.5t86 -31.5q46 0 80.5 21t54.5 55h107q-22 -47 -60 -84t-88 -58.5t-109 -21.5zM330 421
q-53 0 -100 -32t-67 -94h280q1 5 1 9v8q1 50 -30.5 79.5t-83.5 29.5zM351 547l-127 83l14 76l124 -84l158 87l-13 -79z" />
    <glyph glyph-name="Gbreve" unicode="&#x11e;" horiz-adv-x="769" 
d="M333 -12q-85 0 -146 38t-94 104t-33 150q0 95 30.5 174t85.5 137t130.5 89.5t165.5 31.5q120 0 192.5 -58t77.5 -160h-120q-5 56 -47 88t-117 32q-86 0 -151 -41.5t-101 -115t-36 -169.5q0 -95 50 -150.5t137 -55.5q104 0 166.5 59t89.5 157h-190l15 82h296l-66 -380h-97
l8 103q-45 -55 -102.5 -85t-143.5 -30zM484 759q-69 0 -101 39.5t-21 101.5l2 15h59q-6 -36 10.5 -56t65.5 -20q47 0 71 20t31 56h59l-3 -16q-11 -62 -56.5 -101t-116.5 -39z" />
    <glyph glyph-name="gbreve" unicode="&#x11f;" horiz-adv-x="557" 
d="M250 152q-40 0 -72 10l-44 -35q21 -12 48.5 -19.5t79.5 -11.5q99 -8 138 -45.5t39 -89.5q0 -56 -32.5 -99.5t-90 -68.5t-131.5 -25q-94 0 -151.5 36t-57.5 104q0 45 25 82t70 66q-34 16 -54 39l4 23l95 81q-38 39 -38 98t31.5 107t84.5 76t119 28q42 0 76 -12h185
l-13 -70l-89 -5q11 -27 11 -58q0 -59 -31 -107t-84 -76t-118 -28zM265 235q53 0 87.5 32.5t34.5 82.5q0 36 -24 55t-65 19q-55 0 -89.5 -32t-34.5 -83q0 -36 24.5 -55t66.5 -19zM79 -71q0 -38 32 -58t87 -20q60 0 99.5 26.5t39.5 72.5q0 25 -19.5 44.5t-77.5 23.5
q-47 3 -86 11q-38 -20 -56.5 -45.5t-18.5 -54.5zM320 555q-69 0 -101 39.5t-21 101.5l2 15h59q-6 -36 10.5 -56t65.5 -20q47 0 71 20t31 56h59l-3 -16q-11 -62 -56.5 -101t-116.5 -39z" />
    <glyph glyph-name="Gdotaccent" unicode="&#x120;" horiz-adv-x="769" 
d="M333 -12q-85 0 -146 38t-94 104t-33 150q0 95 30.5 174t85.5 137t130.5 89.5t165.5 31.5q120 0 192.5 -58t77.5 -160h-120q-5 56 -47 88t-117 32q-86 0 -151 -41.5t-101 -115t-36 -169.5q0 -95 50 -150.5t137 -55.5q104 0 166.5 59t89.5 157h-190l15 82h296l-66 -380h-97
l8 103q-45 -55 -102.5 -85t-143.5 -30zM495 765q-23 0 -39 16.5t-16 39.5t16 39.5t39 16.5q24 0 40 -16.5t16 -39.5t-16 -39.5t-40 -16.5z" />
    <glyph glyph-name="gdotaccent" unicode="&#x121;" horiz-adv-x="557" 
d="M250 152q-40 0 -72 10l-44 -35q21 -12 48.5 -19.5t79.5 -11.5q99 -8 138 -45.5t39 -89.5q0 -56 -32.5 -99.5t-90 -68.5t-131.5 -25q-94 0 -151.5 36t-57.5 104q0 45 25 82t70 66q-34 16 -54 39l4 23l95 81q-38 39 -38 98t31.5 107t84.5 76t119 28q42 0 76 -12h185
l-13 -70l-89 -5q11 -27 11 -58q0 -59 -31 -107t-84 -76t-118 -28zM265 235q53 0 87.5 32.5t34.5 82.5q0 36 -24 55t-65 19q-55 0 -89.5 -32t-34.5 -83q0 -36 24.5 -55t66.5 -19zM79 -71q0 -38 32 -58t87 -20q60 0 99.5 26.5t39.5 72.5q0 25 -19.5 44.5t-77.5 23.5
q-47 3 -86 11q-38 -20 -56.5 -45.5t-18.5 -54.5zM331 561q-23 0 -39 16.5t-16 39.5t16 39.5t39 16.5q24 0 40 -16.5t16 -39.5t-16 -39.5t-40 -16.5z" />
    <glyph glyph-name="uni0122" unicode="&#x122;" horiz-adv-x="769" 
d="M333 -12q-85 0 -146 38t-94 104t-33 150q0 95 30.5 174t85.5 137t130.5 89.5t165.5 31.5q120 0 192.5 -58t77.5 -160h-120q-5 56 -47 88t-117 32q-86 0 -151 -41.5t-101 -115t-36 -169.5q0 -95 50 -150.5t137 -55.5q104 0 166.5 59t89.5 157h-190l15 82h296l-66 -380h-97
l8 103q-45 -55 -102.5 -85t-143.5 -30zM246 -256l8 46q48 0 58 59l2 15h-49l15 88h98q5 -45 -2 -85q-11 -62 -44.5 -92.5t-85.5 -30.5z" />
    <glyph glyph-name="uni0123" unicode="&#x123;" horiz-adv-x="557" 
d="M325 596q-2 27 -0.5 51.5t4.5 45.5q20 120 129 120l-7 -46q-50 0 -59 -56l-4 -22h53l-17 -93h-99zM250 152q-40 0 -72 10l-44 -35q21 -12 48.5 -19.5t79.5 -11.5q99 -8 138 -45.5t39 -89.5q0 -56 -32.5 -99.5t-90 -68.5t-131.5 -25q-94 0 -151.5 36t-57.5 104q0 45 25 82
t70 66q-34 16 -54 39l4 23l95 81q-38 39 -38 98t31.5 107t84.5 76t119 28q42 0 76 -12h185l-13 -70l-89 -5q11 -27 11 -58q0 -59 -31 -107t-84 -76t-118 -28zM265 235q53 0 87.5 32.5t34.5 82.5q0 36 -24 55t-65 19q-55 0 -89.5 -32t-34.5 -83q0 -36 24.5 -55t66.5 -19z
M79 -71q0 -38 32 -58t87 -20q60 0 99.5 26.5t39.5 72.5q0 25 -19.5 44.5t-77.5 23.5q-47 3 -86 11q-38 -20 -56.5 -45.5t-18.5 -54.5z" />
    <glyph glyph-name="Itilde" unicode="&#x128;" horiz-adv-x="249" 
d="M28 0l123 700h106l-123 -700h-106zM57 757q18 58 51 85.5t75 27.5q27 0 43.5 -11.5t31 -23.5t35.5 -12q17 0 31 11.5t20 33.5h59q-17 -56 -51 -84t-75 -28q-28 0 -45 11.5t-31.5 23t-34.5 11.5q-37 0 -51 -45h-58z" />
    <glyph glyph-name="itilde" unicode="&#x129;" horiz-adv-x="241" 
d="M24 0l87 496h106l-87 -496h-106zM11 553q18 58 51 85.5t75 27.5q27 0 43.5 -11.5t31 -23.5t36.5 -12q16 0 30 11.5t21 33.5h59q-18 -56 -51.5 -84t-75.5 -28q-28 0 -45 11.5t-31 23t-35 11.5q-36 0 -50 -45h-59z" />
    <glyph glyph-name="Imacron" unicode="&#x12a;" horiz-adv-x="249" 
d="M28 0l123 700h106l-123 -700h-106zM37 789l14 77h361l-13 -77h-362z" />
    <glyph glyph-name="imacron" unicode="&#x12b;" horiz-adv-x="241" 
d="M24 0l87 496h106l-87 -496h-106zM-2 585l14 77h361l-13 -77h-362z" />
    <glyph glyph-name="Ibreve" unicode="&#x12c;" horiz-adv-x="249" 
d="M28 0l123 700h106l-123 -700h-106zM213 759q-69 0 -101 39.5t-21 101.5l2 15h59q-6 -36 10.5 -56t65.5 -20q47 0 71 20t31 56h59l-3 -16q-11 -62 -56.5 -101t-116.5 -39z" />
    <glyph glyph-name="ibreve" unicode="&#x12d;" horiz-adv-x="241" 
d="M24 0l87 496h106l-87 -496h-106zM173 555q-69 0 -101 39.5t-21 101.5l3 15h58q-6 -36 10.5 -56t65.5 -20q47 0 71 20t31 56h59l-3 -16q-11 -62 -56.5 -101t-116.5 -39z" />
    <glyph glyph-name="Iogonek" unicode="&#x12e;" horiz-adv-x="249" 
d="M28 0l123 700h106l-123 -700h-106zM20 -206q-33 0 -60 10.5t-40.5 32.5t-7.5 57q7 38 40.5 72t111.5 65l53 22l16 -52l-58 -27q-40 -18 -57.5 -35t-20.5 -35q-4 -21 9 -33t39 -12q30 0 71 15l-12 -66q-19 -6 -41 -10t-43 -4z" />
    <glyph glyph-name="iogonek" unicode="&#x12f;" horiz-adv-x="256" 
d="M199 588q-30 0 -49.5 19t-19.5 47t19.5 47t49.5 19t49.5 -19t19.5 -47t-19.5 -47t-49.5 -19zM31 0l87 496h106l-87 -496h-106zM23 -206q-33 0 -59.5 10.5t-40.5 32.5t-7 57q6 38 40 72t111 65l53 22l17 -52l-59 -27q-40 -18 -57 -35t-21 -35q-4 -21 9.5 -33t38.5 -12
q31 0 71 15l-12 -66q-19 -6 -40.5 -10t-43.5 -4z" />
    <glyph glyph-name="Idotaccent" unicode="&#x130;" horiz-adv-x="249" 
d="M28 0l123 700h106l-123 -700h-106zM223 765q-23 0 -39 16.5t-16 39.5t16 39.5t39 16.5q24 0 40 -16.5t16 -39.5t-16 -39.5t-40 -16.5z" />
    <glyph glyph-name="dotlessi" unicode="&#x131;" horiz-adv-x="241" 
d="M24 0l87 496h106l-87 -496h-106z" />
    <glyph glyph-name="uni0136" unicode="&#x136;" horiz-adv-x="618" 
d="M28 0l123 700h106l-52 -300l328 300h131l-308 -279l191 -421h-125l-153 343l-89 -81l-46 -262h-106zM166 -256l9 46q47 0 57 59l3 15h-50l16 88h97q5 -45 -2 -85q-23 -123 -130 -123z" />
    <glyph glyph-name="uni0137" unicode="&#x137;" horiz-adv-x="544" 
d="M23 0l128 720h106l-76 -428l228 204h134l-260 -222l204 -274h-128l-184 260l-46 -260h-106zM123 -256l8 46q48 0 59 59l2 15h-50l16 88h97q4 -46 -2 -85q-23 -123 -130 -123z" />
    <glyph glyph-name="Lacute" unicode="&#x139;" horiz-adv-x="539" 
d="M28 0l123 700h106l-108 -616h317l-14 -84h-424zM173 741l14 76l240 124l-16 -88z" />
    <glyph glyph-name="lacute" unicode="&#x13a;" horiz-adv-x="241" 
d="M23 0l128 720h106l-128 -720h-106zM164 761l14 76l240 124l-16 -88z" />
    <glyph glyph-name="uni013B" unicode="&#x13b;" horiz-adv-x="539" 
d="M28 0l123 700h106l-108 -616h317l-14 -84h-424zM107 -256l8 46q48 0 59 59l2 15h-50l15 88h98q3 -23 2 -44.5t-4 -40.5q-22 -123 -130 -123z" />
    <glyph glyph-name="uni013C" unicode="&#x13c;" horiz-adv-x="253" 
d="M23 0l128 720h106l-128 -720h-106zM-17 -256l8 46q49 0 59 59l2 15h-50l16 88h97q6 -45 -2 -85q-22 -123 -130 -123z" />
    <glyph glyph-name="Lcaron" unicode="&#x13d;" horiz-adv-x="539" 
d="M330 483l8 46q47 0 58 57l4 21h-52l16 93h99q2 -27 0.5 -51.5t-4.5 -45.5q-20 -120 -129 -120zM28 0l123 700h106l-108 -616h317l-14 -84h-424z" />
    <glyph glyph-name="lcaron" unicode="&#x13e;" horiz-adv-x="372" 
d="M292 523l8 46q48 0 59 56l3 22h-52l17 93h99q3 -54 -5 -97q-20 -120 -129 -120zM23 0l128 720h106l-128 -720h-106z" />
    <glyph glyph-name="Ldot" unicode="&#x13f;" horiz-adv-x="539" 
d="M28 0l123 700h106l-108 -616h317l-14 -84h-424zM385 283q-30 0 -49.5 19.5t-19.5 46.5q0 28 19.5 47.5t49.5 19.5t49.5 -19.5t19.5 -47.5q0 -27 -19.5 -46.5t-49.5 -19.5z" />
    <glyph glyph-name="ldot" unicode="&#x140;" horiz-adv-x="367" 
d="M23 0l128 720h106l-128 -720h-106zM300 311q-23 0 -39.5 16t-16.5 39q0 24 16.5 40.5t39.5 16.5q24 0 40 -16.5t16 -40.5q0 -23 -16 -39t-40 -16z" />
    <glyph glyph-name="Lslash" unicode="&#x141;" horiz-adv-x="564" 
d="M53 0l52 297l-81 -27l18 101l81 27l53 302h106l-47 -265l120 41l-18 -102l-119 -40l-44 -250h317l-14 -84h-424z" />
    <glyph glyph-name="lslash" unicode="&#x142;" horiz-adv-x="276" 
d="M36 0l59 328l-76 -27l17 101l77 27l51 291h106l-44 -252l77 27l-18 -99l-77 -28l-66 -368h-106z" />
    <glyph glyph-name="Nacute" unicode="&#x143;" horiz-adv-x="706" 
d="M28 0l123 700h106l257 -533l94 533h106l-123 -700h-106l-257 533l-94 -533h-106zM392 741l14 76l240 124l-16 -88z" />
    <glyph glyph-name="nacute" unicode="&#x144;" horiz-adv-x="591" 
d="M24 0l87 496h94l-6 -86q31 45 79.5 71.5t106.5 26.5q76 0 118.5 -42t42.5 -121q0 -29 -6 -60l-51 -285h-105l48 274q2 13 3.5 24t1.5 22q0 98 -97 98q-58 0 -103 -40t-60 -114l-47 -264h-106zM320 537l14 76l240 124l-16 -88z" />
    <glyph glyph-name="uni0145" unicode="&#x145;" horiz-adv-x="706" 
d="M28 0l123 700h106l257 -533l94 533h106l-123 -700h-106l-257 533l-94 -533h-106zM215 -256l9 46q49 0 58 59l2 15h-50l16 88h97q6 -47 -2 -85q-22 -123 -130 -123z" />
    <glyph glyph-name="uni0146" unicode="&#x146;" horiz-adv-x="591" 
d="M24 0l87 496h94l-6 -86q31 45 79.5 71.5t106.5 26.5q76 0 118.5 -42t42.5 -121q0 -29 -6 -60l-51 -285h-105l48 274q2 13 3.5 24t1.5 22q0 98 -97 98q-58 0 -103 -40t-60 -114l-47 -264h-106zM165 -256l9 46q49 0 58 59l2 15h-49l15 88h98q4 -47 -3 -85
q-23 -123 -130 -123z" />
    <glyph glyph-name="Ncaron" unicode="&#x147;" horiz-adv-x="706" 
d="M28 0l123 700h106l257 -533l94 533h106l-123 -700h-106l-257 533l-94 -533h-106zM441 751l-127 83l14 76l124 -84l158 87l-13 -79z" />
    <glyph glyph-name="ncaron" unicode="&#x148;" horiz-adv-x="591" 
d="M24 0l87 496h94l-6 -86q31 45 79.5 71.5t106.5 26.5q76 0 118.5 -42t42.5 -121q0 -29 -6 -60l-51 -285h-105l48 274q2 13 3.5 24t1.5 22q0 98 -97 98q-58 0 -103 -40t-60 -114l-47 -264h-106zM369 547l-127 83l14 76l124 -84l158 87l-13 -79z" />
    <glyph glyph-name="Omacron" unicode="&#x14c;" horiz-adv-x="799" 
d="M357 -12q-88 0 -155 39t-104.5 106.5t-37.5 154.5q0 89 32.5 165.5t90 135t133.5 91t163 32.5t154 -38.5t105 -106t38 -154.5q0 -89 -33 -166t-90.5 -135t-133.5 -91t-162 -33zM371 83q60 0 113.5 24.5t94.5 68.5t64 103t23 126q0 98 -54.5 155t-146.5 57
q-61 0 -114.5 -24.5t-94 -68.5t-63.5 -102.5t-23 -125.5q0 -65 25 -113t70 -74t106 -26zM315 789l14 77h361l-13 -77h-362z" />
    <glyph glyph-name="omacron" unicode="&#x14d;" horiz-adv-x="600" 
d="M259 -12q-63 0 -111.5 28.5t-76 78t-27.5 112.5q0 64 22.5 119t63 96t94 63.5t115.5 22.5q64 0 112.5 -27.5t76.5 -76t28 -112.5t-23 -119.5t-63.5 -97t-94 -64.5t-116.5 -23zM273 79q49 0 88.5 27.5t62.5 74t23 105.5q0 62 -35.5 96.5t-84.5 34.5t-88.5 -27.5t-62.5 -74
t-23 -105.5q0 -62 35.5 -96.5t84.5 -34.5zM176 585l14 77h361l-13 -77h-362z" />
    <glyph glyph-name="Obreve" unicode="&#x14e;" horiz-adv-x="799" 
d="M357 -12q-88 0 -155 39t-104.5 106.5t-37.5 154.5q0 89 32.5 165.5t90 135t133.5 91t163 32.5t154 -38.5t105 -106t38 -154.5q0 -89 -33 -166t-90.5 -135t-133.5 -91t-162 -33zM371 83q60 0 113.5 24.5t94.5 68.5t64 103t23 126q0 98 -54.5 155t-146.5 57
q-61 0 -114.5 -24.5t-94 -68.5t-63.5 -102.5t-23 -125.5q0 -65 25 -113t70 -74t106 -26zM490 759q-69 0 -101 39.5t-21 101.5l2 15h59q-6 -36 10.5 -56t65.5 -20q47 0 71 20t31 56h59l-3 -16q-11 -62 -56.5 -101t-116.5 -39z" />
    <glyph glyph-name="obreve" unicode="&#x14f;" horiz-adv-x="600" 
d="M259 -12q-63 0 -111.5 28.5t-76 78t-27.5 112.5q0 64 22.5 119t63 96t94 63.5t115.5 22.5q64 0 112.5 -27.5t76.5 -76t28 -112.5t-23 -119.5t-63.5 -97t-94 -64.5t-116.5 -23zM273 79q49 0 88.5 27.5t62.5 74t23 105.5q0 62 -35.5 96.5t-84.5 34.5t-88.5 -27.5t-62.5 -74
t-23 -105.5q0 -62 35.5 -96.5t84.5 -34.5zM351 555q-69 0 -101 39.5t-21 101.5l3 15h58q-6 -36 10.5 -56t65.5 -20q47 0 71 20t31 56h59l-3 -16q-11 -62 -56.5 -101t-116.5 -39z" />
    <glyph glyph-name="Ohungarumlaut" unicode="&#x150;" horiz-adv-x="799" 
d="M357 -12q-88 0 -155 39t-104.5 106.5t-37.5 154.5q0 89 32.5 165.5t90 135t133.5 91t163 32.5t154 -38.5t105 -106t38 -154.5q0 -89 -33 -166t-90.5 -135t-133.5 -91t-162 -33zM371 83q60 0 113.5 24.5t94.5 68.5t64 103t23 126q0 98 -54.5 155t-146.5 57
q-61 0 -114.5 -24.5t-94 -68.5t-63.5 -102.5t-23 -125.5q0 -65 25 -113t70 -74t106 -26zM525 751l111 164h89l-132 -164h-68zM366 751l98 164h89l-118 -164h-69z" />
    <glyph glyph-name="ohungarumlaut" unicode="&#x151;" horiz-adv-x="600" 
d="M259 -12q-63 0 -111.5 28.5t-76 78t-27.5 112.5q0 64 22.5 119t63 96t94 63.5t115.5 22.5q64 0 112.5 -27.5t76.5 -76t28 -112.5t-23 -119.5t-63.5 -97t-94 -64.5t-116.5 -23zM273 79q49 0 88.5 27.5t62.5 74t23 105.5q0 62 -35.5 96.5t-84.5 34.5t-88.5 -27.5t-62.5 -74
t-23 -105.5q0 -62 35.5 -96.5t84.5 -34.5zM385 547l111 164h89l-131 -164h-69zM227 547l97 164h89l-117 -164h-69z" />
    <glyph glyph-name="OE" unicode="&#x152;" horiz-adv-x="1111" 
d="M342 -12q-82 0 -145.5 40t-99.5 110t-36 159q0 87 32 162.5t88 132t128 88.5t152 32q77 0 139.5 -32.5t94.5 -91.5l20 112h414l-16 -86h-308l-38 -218h278l-14 -84h-279l-40 -226h308l-15 -86h-414l20 110q-52 -59 -123 -90.5t-146 -31.5zM365 83q61 0 114 25.5t93 70.5
t62.5 104.5t22.5 126.5q0 65 -26.5 111.5t-72 71t-103.5 24.5q-57 0 -108 -24.5t-90.5 -67.5t-62.5 -99.5t-23 -121.5q0 -68 25.5 -117.5t69.5 -76.5t99 -27z" />
    <glyph glyph-name="oe" unicode="&#x153;" horiz-adv-x="982" 
d="M259 -12q-63 0 -111.5 28.5t-76 78t-27.5 112.5q0 64 22.5 119t63 96t94 63.5t115.5 22.5q63 0 111 -27t74 -75q40 47 98 74.5t125 27.5q64 0 109.5 -25.5t69.5 -69t24 -98.5q0 -15 -3 -34.5t-6.5 -36t-4.5 -21.5h-386q-2 -13 -2 -24q0 -60 35 -91.5t86 -31.5q50 0 87 25
t58 65h105q-22 -50 -60.5 -90.5t-90.5 -64t-114 -23.5t-108 26.5t-70 71.5q-40 -45 -96 -71.5t-121 -26.5zM565 295h279q0 5 0.5 10t0.5 9q0 50 -31.5 78.5t-82.5 28.5q-54 0 -100.5 -32t-65.5 -94zM273 79q49 0 88.5 27.5t62.5 74t23 105.5q0 62 -35.5 96.5t-84.5 34.5
t-88.5 -27.5t-62.5 -74t-23 -105.5q0 -62 35.5 -96.5t84.5 -34.5z" />
    <glyph glyph-name="Racute" unicode="&#x154;" horiz-adv-x="609" 
d="M28 0l123 700h239q73 0 119.5 -25t69 -66t22.5 -89q0 -85 -48.5 -143t-130.5 -81l96 -296h-116l-86 282v0h-132l-50 -282h-106zM198 362h129q74 0 119 38.5t45 108.5q0 44 -28.5 73t-92.5 29h-128zM313 741l14 76l240 124l-16 -88z" />
    <glyph glyph-name="racute" unicode="&#x155;" horiz-adv-x="386" 
d="M24 0l87 496h96l-7 -89q34 46 86 73.5t117 27.5l-20 -111h-29q-44 0 -81 -13.5t-63 -45.5t-35 -87l-45 -251h-106zM232 537l14 76l240 124l-16 -88z" />
    <glyph glyph-name="uni0156" unicode="&#x156;" horiz-adv-x="609" 
d="M28 0l123 700h239q73 0 119.5 -25t69 -66t22.5 -89q0 -85 -48.5 -143t-130.5 -81l96 -296h-116l-86 282v0h-132l-50 -282h-106zM198 362h129q74 0 119 38.5t45 108.5q0 44 -28.5 73t-92.5 29h-128zM162 -256l9 46q47 0 58 59l2 15h-49l15 88h98q2 -23 1 -44.5t-4 -40.5
q-23 -123 -130 -123z" />
    <glyph glyph-name="uni0157" unicode="&#x157;" horiz-adv-x="386" 
d="M24 0l87 496h96l-7 -89q34 46 86 73.5t117 27.5l-20 -111h-29q-44 0 -81 -13.5t-63 -45.5t-35 -87l-45 -251h-106zM-18 -256l8 46q47 0 58 59l2 15h-50l16 88h97q3 -23 2 -44.5t-4 -40.5q-22 -123 -129 -123z" />
    <glyph glyph-name="Rcaron" unicode="&#x158;" horiz-adv-x="609" 
d="M28 0l123 700h239q73 0 119.5 -25t69 -66t22.5 -89q0 -85 -48.5 -143t-130.5 -81l96 -296h-116l-86 282v0h-132l-50 -282h-106zM198 362h129q74 0 119 38.5t45 108.5q0 44 -28.5 73t-92.5 29h-128zM362 751l-127 83l14 76l124 -84l158 87l-13 -79z" />
    <glyph glyph-name="rcaron" unicode="&#x159;" horiz-adv-x="386" 
d="M24 0l87 496h96l-7 -89q34 46 86 73.5t117 27.5l-20 -111h-29q-44 0 -81 -13.5t-63 -45.5t-35 -87l-45 -251h-106zM282 547l-127 83l14 76l124 -84l158 87l-13 -79z" />
    <glyph glyph-name="Sacute" unicode="&#x15a;" horiz-adv-x="598" 
d="M270 -12q-69 0 -121.5 22t-82 63t-29.5 98q0 10 1 19.5t2 20.5h113q-3 -13 -3 -24q0 -49 35.5 -79.5t96.5 -30.5q69 0 106.5 34.5t37.5 89.5q0 40 -26.5 63t-68.5 37.5t-86 31.5q-66 23 -100 65t-34 97q0 65 33 114t91.5 76t134.5 27q92 0 149 -45.5t57 -121.5
q0 -14 -3 -31h-112q1 11 1 18q0 35 -27 62.5t-81 27.5q-59 0 -94 -31t-35 -78q0 -34 22 -54.5t59.5 -35t83.5 -31.5q62 -22 106 -64.5t44 -112.5q0 -68 -34.5 -119.5t-95 -79.5t-140.5 -28zM332 741l14 76l240 124l-16 -88z" />
    <glyph glyph-name="sacute" unicode="&#x15b;" horiz-adv-x="525" 
d="M223 -12q-97 0 -150.5 49t-47.5 128h107q-2 -39 23.5 -66t82.5 -27q47 0 75 21t28 56q0 29 -27.5 42.5t-71.5 22.5q-39 9 -76 24.5t-61.5 41t-24.5 66.5q0 46 27.5 83t75 58t108.5 21q84 0 133 -40.5t46 -113.5h-103q1 32 -22.5 51t-64.5 19t-67 -19t-26 -45
q0 -27 27.5 -40t73.5 -24q43 -10 80 -25t59.5 -41t22.5 -67q0 -54 -29.5 -93t-81 -60.5t-116.5 -21.5zM256 537l14 76l240 124l-16 -88z" />
    <glyph glyph-name="Scedilla" unicode="&#x15e;" horiz-adv-x="598" 
d="M270 -12q-69 0 -121.5 22t-82 63t-29.5 98q0 10 1 19.5t2 20.5h113q-3 -13 -3 -24q0 -49 35.5 -79.5t96.5 -30.5q69 0 106.5 34.5t37.5 89.5q0 40 -26.5 63t-68.5 37.5t-86 31.5q-66 23 -100 65t-34 97q0 65 33 114t91.5 76t134.5 27q92 0 149 -45.5t57 -121.5
q0 -14 -3 -31h-112q1 11 1 18q0 35 -27 62.5t-81 27.5q-59 0 -94 -31t-35 -78q0 -34 22 -54.5t59.5 -35t83.5 -31.5q62 -22 106 -64.5t44 -112.5q0 -68 -34.5 -119.5t-95 -79.5t-140.5 -28zM108 -262l11 64h102q69 0 69 46q0 35 -53 35h-56l21 123h69l-11 -63q48 1 80 -20
t32 -67q0 -35 -19 -61.5t-51 -41.5t-72 -15h-122z" />
    <glyph glyph-name="scedilla" unicode="&#x15f;" horiz-adv-x="525" 
d="M223 -12q-97 0 -150.5 49t-47.5 128h107q-2 -39 23.5 -66t82.5 -27q47 0 75 21t28 56q0 29 -27.5 42.5t-71.5 22.5q-39 9 -76 24.5t-61.5 41t-24.5 66.5q0 46 27.5 83t75 58t108.5 21q84 0 133 -40.5t46 -113.5h-103q1 32 -22.5 51t-64.5 19t-67 -19t-26 -45
q0 -27 27.5 -40t73.5 -24q43 -10 80 -25t59.5 -41t22.5 -67q0 -54 -29.5 -93t-81 -60.5t-116.5 -21.5zM98 -262l11 64h102q69 0 69 46q0 35 -53 35h-56l21 123h69l-11 -63q48 1 80 -20t32 -67q0 -35 -19 -61.5t-51 -41.5t-72 -15h-122z" />
    <glyph glyph-name="Scaron" unicode="&#x160;" horiz-adv-x="598" 
d="M270 -12q-69 0 -121.5 22t-82 63t-29.5 98q0 10 1 19.5t2 20.5h113q-3 -13 -3 -24q0 -49 35.5 -79.5t96.5 -30.5q69 0 106.5 34.5t37.5 89.5q0 40 -26.5 63t-68.5 37.5t-86 31.5q-66 23 -100 65t-34 97q0 65 33 114t91.5 76t134.5 27q92 0 149 -45.5t57 -121.5
q0 -14 -3 -31h-112q1 11 1 18q0 35 -27 62.5t-81 27.5q-59 0 -94 -31t-35 -78q0 -34 22 -54.5t59.5 -35t83.5 -31.5q62 -22 106 -64.5t44 -112.5q0 -68 -34.5 -119.5t-95 -79.5t-140.5 -28zM381 751l-127 83l14 76l124 -84l158 87l-13 -79z" />
    <glyph glyph-name="scaron" unicode="&#x161;" horiz-adv-x="525" 
d="M223 -12q-97 0 -150.5 49t-47.5 128h107q-2 -39 23.5 -66t82.5 -27q47 0 75 21t28 56q0 29 -27.5 42.5t-71.5 22.5q-39 9 -76 24.5t-61.5 41t-24.5 66.5q0 46 27.5 83t75 58t108.5 21q84 0 133 -40.5t46 -113.5h-103q1 32 -22.5 51t-64.5 19t-67 -19t-26 -45
q0 -27 27.5 -40t73.5 -24q43 -10 80 -25t59.5 -41t22.5 -67q0 -54 -29.5 -93t-81 -60.5t-116.5 -21.5zM305 547l-127 83l14 76l124 -84l158 87l-13 -79z" />
    <glyph glyph-name="uni0162" unicode="&#x162;" horiz-adv-x="575" 
d="M191 0l108 616h-206l15 84h519l-14 -84h-208l-108 -616h-106zM119 -262l11 64h102q68 0 68 46q0 35 -52 35h-57l22 123h69l-12 -63q49 1 81 -20t32 -67q0 -35 -19 -61.5t-51.5 -41.5t-71.5 -15h-122z" />
    <glyph glyph-name="uni0163" unicode="&#x163;" horiz-adv-x="391" 
d="M220 0h-7l-10 -58q48 1 80 -19t32 -61q0 -10 -2 -20q-9 -51 -49.5 -78t-92.5 -27h-120l12 64h101q69 0 69 51q0 31 -54 31h-55l22 128q-31 11 -48.5 36.5t-17.5 69.5q0 22 5 47l43 243h-79l16 89h79l35 126h93l-22 -126h140l-16 -89h-140l-43 -243q-3 -14 -3 -25
q0 -27 15 -38t50 -11h66l-16 -90h-83z" />
    <glyph glyph-name="Tcaron" unicode="&#x164;" horiz-adv-x="575" 
d="M191 0l108 616h-206l15 84h519l-14 -84h-208l-108 -616h-106zM375 751l-127 83l14 76l124 -84l158 87l-13 -79z" />
    <glyph glyph-name="tcaron" unicode="&#x165;" horiz-adv-x="391" 
d="M333 594l8 47q50 0 55 37l3 20h-52l18 92h98q2 -27 1.5 -47.5t-3.5 -42.5q-19 -106 -128 -106zM220 0q-65 0 -102.5 26.5t-37.5 90.5q0 22 5 47l43 243h-79l16 89h79l35 126h93l-22 -126h140l-16 -89h-140l-43 -243q-3 -14 -3 -25q0 -27 15 -38t50 -11h66l-16 -90h-83z
" />
    <glyph glyph-name="Utilde" unicode="&#x168;" horiz-adv-x="677" 
d="M285 -12q-65 0 -115.5 22.5t-79.5 68.5t-29 117q0 31 6 67l77 437h106l-78 -437q-5 -29 -5 -50q0 -66 36.5 -97t100.5 -31q73 0 124.5 43t68.5 135l78 437h106l-77 -437q-17 -94 -64 -155t-113.5 -90.5t-141.5 -29.5zM265 757q18 58 51 85.5t75 27.5q27 0 43.5 -11.5
t31 -23.5t35.5 -12q17 0 31 11.5t20 33.5h59q-17 -56 -51 -84t-75 -28q-28 0 -45 11.5t-31.5 23t-34.5 11.5q-37 0 -51 -45h-58z" />
    <glyph glyph-name="utilde" unicode="&#x169;" horiz-adv-x="591" 
d="M206 -12q-76 0 -118.5 42t-42.5 121q0 29 6 60l50 285h106l-48 -274q-2 -13 -3.5 -24t-1.5 -22q0 -98 97 -98q57 0 102.5 40t60.5 114l46 264h106l-87 -496h-94l7 86q-31 -45 -80 -71.5t-106 -26.5zM187 553q18 58 51 85.5t75 27.5q27 0 43.5 -11.5t31 -23.5t35.5 -12
q17 0 31 11.5t20 33.5h59q-17 -56 -51 -84t-75 -28q-28 0 -45 11.5t-31.5 23t-34.5 11.5q-37 0 -51 -45h-58z" />
    <glyph glyph-name="Umacron" unicode="&#x16a;" horiz-adv-x="677" 
d="M285 -12q-65 0 -115.5 22.5t-79.5 68.5t-29 117q0 31 6 67l77 437h106l-78 -437q-5 -29 -5 -50q0 -66 36.5 -97t100.5 -31q73 0 124.5 43t68.5 135l78 437h106l-77 -437q-17 -94 -64 -155t-113.5 -90.5t-141.5 -29.5zM246 789l14 77h361l-13 -77h-362z" />
    <glyph glyph-name="umacron" unicode="&#x16b;" horiz-adv-x="591" 
d="M206 -12q-76 0 -118.5 42t-42.5 121q0 29 6 60l50 285h106l-48 -274q-2 -13 -3.5 -24t-1.5 -22q0 -98 97 -98q57 0 102.5 40t60.5 114l46 264h106l-87 -496h-94l7 86q-31 -45 -80 -71.5t-106 -26.5zM167 585l14 77h361l-13 -77h-362z" />
    <glyph glyph-name="Ubreve" unicode="&#x16c;" horiz-adv-x="677" 
d="M285 -12q-65 0 -115.5 22.5t-79.5 68.5t-29 117q0 31 6 67l77 437h106l-78 -437q-5 -29 -5 -50q0 -66 36.5 -97t100.5 -31q73 0 124.5 43t68.5 135l78 437h106l-77 -437q-17 -94 -64 -155t-113.5 -90.5t-141.5 -29.5zM421 759q-69 0 -101 39.5t-21 101.5l2 15h59
q-6 -36 10.5 -56t65.5 -20q47 0 71 20t31 56h59l-3 -16q-11 -62 -56.5 -101t-116.5 -39z" />
    <glyph glyph-name="ubreve" unicode="&#x16d;" horiz-adv-x="591" 
d="M206 -12q-76 0 -118.5 42t-42.5 121q0 29 6 60l50 285h106l-48 -274q-2 -13 -3.5 -24t-1.5 -22q0 -98 97 -98q57 0 102.5 40t60.5 114l46 264h106l-87 -496h-94l7 86q-31 -45 -80 -71.5t-106 -26.5zM342 555q-69 0 -101 39.5t-21 101.5l2 15h59q-6 -36 10.5 -56t65.5 -20
q47 0 71 20t31 56h59l-3 -16q-11 -62 -56.5 -101t-116.5 -39z" />
    <glyph glyph-name="Uring" unicode="&#x16e;" horiz-adv-x="677" 
d="M285 -12q-65 0 -115.5 22.5t-79.5 68.5t-29 117q0 31 6 67l77 437h106l-78 -437q-5 -29 -5 -50q0 -66 36.5 -97t100.5 -31q73 0 124.5 43t68.5 135l78 437h106l-77 -437q-17 -94 -64 -155t-113.5 -90.5t-141.5 -29.5zM440 756q-44 0 -76.5 28.5t-32.5 78.5t32.5 79
t76.5 29q46 0 78 -29t32 -79t-32 -78.5t-78 -28.5zM440 807q24 0 40 15.5t16 40.5q0 27 -16 42t-40 15q-22 0 -38 -15t-16 -42q0 -25 16 -40.5t38 -15.5z" />
    <glyph glyph-name="uring" unicode="&#x16f;" horiz-adv-x="591" 
d="M206 -12q-76 0 -118.5 42t-42.5 121q0 29 6 60l50 285h106l-48 -274q-2 -13 -3.5 -24t-1.5 -22q0 -98 97 -98q57 0 102.5 40t60.5 114l46 264h106l-87 -496h-94l7 86q-31 -45 -80 -71.5t-106 -26.5zM361 552q-44 0 -76.5 28.5t-32.5 78.5t32.5 79t76.5 29q46 0 78 -29
t32 -79t-32 -78.5t-78 -28.5zM361 603q24 0 40 15.5t16 40.5q0 27 -16 42t-40 15q-22 0 -38 -15t-16 -42q0 -25 16 -40.5t38 -15.5z" />
    <glyph glyph-name="Uhungarumlaut" unicode="&#x170;" horiz-adv-x="677" 
d="M285 -12q-65 0 -115.5 22.5t-79.5 68.5t-29 117q0 31 6 67l77 437h106l-78 -437q-5 -29 -5 -50q0 -66 36.5 -97t100.5 -31q73 0 124.5 43t68.5 135l78 437h106l-77 -437q-17 -94 -64 -155t-113.5 -90.5t-141.5 -29.5zM456 751l111 164h89l-132 -164h-68zM297 751l98 164
h89l-118 -164h-69z" />
    <glyph glyph-name="uhungarumlaut" unicode="&#x171;" horiz-adv-x="591" 
d="M206 -12q-76 0 -118.5 42t-42.5 121q0 29 6 60l50 285h106l-48 -274q-2 -13 -3.5 -24t-1.5 -22q0 -98 97 -98q57 0 102.5 40t60.5 114l46 264h106l-87 -496h-94l7 86q-31 -45 -80 -71.5t-106 -26.5zM377 547l111 164h89l-132 -164h-68zM218 547l98 164h89l-118 -164h-69z
" />
    <glyph glyph-name="Uogonek" unicode="&#x172;" horiz-adv-x="677" 
d="M285 -12q-65 0 -115.5 22.5t-79.5 68.5t-29 117q0 31 6 67l77 437h106l-78 -437q-5 -29 -5 -50q0 -66 36.5 -97t100.5 -31q73 0 124.5 43t68.5 135l78 437h106l-77 -437q-17 -94 -64 -155t-113.5 -90.5t-141.5 -29.5zM248 -206q-33 0 -59.5 10.5t-40.5 32.5t-7 57
q6 38 40 72t111 65l53 22l17 -52l-59 -27q-40 -18 -57 -35t-21 -35q-4 -21 9.5 -33t38.5 -12q31 0 71 15l-12 -66q-19 -6 -40.5 -10t-43.5 -4z" />
    <glyph glyph-name="uogonek" unicode="&#x173;" horiz-adv-x="591" 
d="M206 -12q-76 0 -118.5 42t-42.5 121q0 29 6 60l50 285h106l-48 -274q-2 -13 -3.5 -24t-1.5 -22q0 -98 97 -98q57 0 102.5 40t60.5 114l46 264h106l-87 -496h-94l7 86q-31 -45 -80 -71.5t-106 -26.5zM366 -207q-33 0 -60 10.5t-40.5 32.5t-7.5 57q7 38 40.5 72t111.5 65
l53 22l16 -52l-58 -27q-40 -18 -57.5 -35t-20.5 -35q-4 -21 9 -33t39 -12q30 0 71 15l-12 -66q-19 -6 -41 -10t-43 -4z" />
    <glyph glyph-name="Wcircumflex" unicode="&#x174;" horiz-adv-x="990" 
d="M164 -1l-64 701h113l37 -574l261 574h119l52 -574l240 574h116l-317 -700h-124l-56 547l-254 -547zM442 752l14 79l157 83l126 -83l-14 -79l-126 85z" />
    <glyph glyph-name="wcircumflex" unicode="&#x175;" horiz-adv-x="774" 
d="M121 0l-58 496h105l30 -374l174 374h118l43 -374l161 374h106l-232 -496h-110l-45 390l-183 -390h-109zM298 548l14 79l157 83l126 -83l-14 -79l-126 85z" />
    <glyph glyph-name="Ycircumflex" unicode="&#x176;" horiz-adv-x="602" 
d="M198 0l46 258l-154 442h121l105 -338l224 338h119l-309 -442l-46 -258h-106zM241 752l14 79l157 83l126 -83l-14 -79l-126 85z" />
    <glyph glyph-name="ycircumflex" unicode="&#x177;" horiz-adv-x="574" 
d="M42 -220l164 261h-29l-115 455h113l89 -367l224 367h112l-446 -716h-112zM199 548l14 79l157 83l126 -83l-14 -79l-126 85z" />
    <glyph glyph-name="Ydieresis" unicode="&#x178;" horiz-adv-x="602" 
d="M198 0l46 258l-154 442h121l105 -338l224 338h119l-309 -442l-46 -258h-106zM482 772q-23 0 -39.5 16t-16.5 39q0 24 16.5 40t39.5 16t39 -16t16 -40q0 -23 -16 -39t-39 -16zM312 772q-24 0 -40 16t-16 39q0 24 16 40t40 16q23 0 39.5 -16t16.5 -40q0 -23 -16.5 -39
t-39.5 -16z" />
    <glyph glyph-name="Zacute" unicode="&#x179;" horiz-adv-x="550" 
d="M-5 0l15 82l426 528h-330l17 90h452l-14 -82l-428 -528h337l-16 -90h-459zM308 741l14 76l240 124l-16 -88z" />
    <glyph glyph-name="zacute" unicode="&#x17a;" horiz-adv-x="467" 
d="M-14 0l16 86l330 322h-259l16 88h380l-16 -86l-331 -322h270l-16 -88h-390zM239 537l14 76l240 124l-16 -88z" />
    <glyph glyph-name="Zdotaccent" unicode="&#x17b;" horiz-adv-x="550" 
d="M-5 0l15 82l426 528h-330l17 90h452l-14 -82l-428 -528h337l-16 -90h-459zM369 765q-23 0 -39 16.5t-16 39.5t16 39.5t39 16.5q24 0 40 -16.5t16 -39.5t-16 -39.5t-40 -16.5z" />
    <glyph glyph-name="zdotaccent" unicode="&#x17c;" horiz-adv-x="467" 
d="M-14 0l16 86l330 322h-259l16 88h380l-16 -86l-331 -322h270l-16 -88h-390zM300 561q-23 0 -39 16.5t-16 39.5t16 39.5t39 16.5q24 0 40 -16.5t16 -39.5t-16 -39.5t-40 -16.5z" />
    <glyph glyph-name="Zcaron" unicode="&#x17d;" horiz-adv-x="550" 
d="M-5 0l15 82l426 528h-330l17 90h452l-14 -82l-428 -528h337l-16 -90h-459zM357 751l-127 83l14 76l124 -84l158 87l-13 -79z" />
    <glyph glyph-name="zcaron" unicode="&#x17e;" horiz-adv-x="467" 
d="M-14 0l16 86l330 322h-259l16 88h380l-16 -86l-331 -322h270l-16 -88h-390zM288 547l-127 83l14 76l124 -84l158 87l-13 -79z" />
    <glyph glyph-name="uni018F" unicode="&#x18f;" horiz-adv-x="761" 
d="M329 -12q-81 0 -143.5 32.5t-97.5 92.5t-35 142q0 30 5.5 63.5t14.5 63.5h551l1 10q1 8 1.5 16.5t0.5 16.5q0 88 -51 139.5t-136 51.5q-74 0 -136.5 -37t-93.5 -103h-118q32 72 86 125t125 82t152 29q86 0 150 -36t99 -98.5t35 -143.5q0 -93 -29.5 -173.5t-84 -142
t-130 -96t-166.5 -34.5zM343 85q65 0 120.5 27t94.5 75.5t54 112.5h-447q-4 -24 -4 -47q0 -80 49.5 -124t132.5 -44z" />
    <glyph glyph-name="florin" unicode="&#x192;" horiz-adv-x="333" 
d="M-137 -210l26 89h23q26 0 42 13t25 47l148 523h-67l24 88h68l12 42q27 93 90 135.5t168 42.5l-24 -90q-54 0 -84.5 -20.5t-43.5 -67.5l-12 -42h110l-24 -88h-111l-147 -523q-23 -82 -72.5 -115.5t-123.5 -33.5h-27z" />
    <glyph glyph-name="AEacute" unicode="&#x1fc;" horiz-adv-x="931" 
d="M-18 0l514 700h454l-15 -84h-280l-40 -221h251l-14 -82h-251l-40 -229h280l-15 -84h-386l26 149h-259l-109 -149h-116zM549 616l-282 -385h214zM617 741l14 76l240 124l-16 -88z" />
    <glyph glyph-name="aeacute" unicode="&#x1fd;" horiz-adv-x="936" 
d="M194 -12q-83 0 -125.5 36.5t-42.5 92.5q0 54 30 94.5t84 62.5t125 22h146q4 22 4 38q0 43 -26 65t-68 22q-44 0 -80.5 -21.5t-51.5 -63.5h-106q15 54 53.5 92.5t90.5 59t109 20.5q63 0 104 -21t61 -59q39 38 90.5 59t110.5 21q64 0 109.5 -25.5t69.5 -69t24 -98.5
q0 -15 -3 -34.5t-6.5 -36t-4.5 -21.5h-386q-2 -12 -2 -23q-1 -60 34.5 -92t86.5 -32q50 0 87 25t58 65h105q-22 -50 -60.5 -90.5t-90.5 -64t-114 -23.5q-67 0 -115.5 30t-71.5 82q-37 -49 -96.5 -80.5t-131.5 -31.5zM520 295h279q0 5 0.5 9t0.5 8q1 50 -30.5 79.5
t-83.5 29.5q-54 0 -100.5 -32t-65.5 -94zM222 74q40 0 74 18t58.5 48t35.5 65l4 19h-131q-55 0 -89 -23t-34 -66q0 -28 21.5 -44.5t60.5 -16.5zM482 537l14 76l240 124l-16 -88z" />
    <glyph glyph-name="uni0218" unicode="&#x218;" horiz-adv-x="598" 
d="M270 -12q-69 0 -121.5 22t-82 63t-29.5 98q0 10 1 19.5t2 20.5h113q-3 -13 -3 -24q0 -49 35.5 -79.5t96.5 -30.5q69 0 106.5 34.5t37.5 89.5q0 40 -26.5 63t-68.5 37.5t-86 31.5q-66 23 -100 65t-34 97q0 65 33 114t91.5 76t134.5 27q92 0 149 -45.5t57 -121.5
q0 -14 -3 -31h-112q1 11 1 18q0 35 -27 62.5t-81 27.5q-59 0 -94 -31t-35 -78q0 -34 22 -54.5t59.5 -35t83.5 -31.5q62 -22 106 -64.5t44 -112.5q0 -68 -34.5 -119.5t-95 -79.5t-140.5 -28zM163 -256l8 46q49 0 59 59l2 15h-50l16 88h97q5 -45 -2 -85q-22 -123 -130 -123z
" />
    <glyph glyph-name="uni0219" unicode="&#x219;" horiz-adv-x="525" 
d="M223 -12q-97 0 -150.5 49t-47.5 128h107q-2 -39 23.5 -66t82.5 -27q47 0 75 21t28 56q0 29 -27.5 42.5t-71.5 22.5q-39 9 -76 24.5t-61.5 41t-24.5 66.5q0 46 27.5 83t75 58t108.5 21q84 0 133 -40.5t46 -113.5h-103q1 32 -22.5 51t-64.5 19t-67 -19t-26 -45
q0 -27 27.5 -40t73.5 -24q43 -10 80 -25t59.5 -41t22.5 -67q0 -54 -29.5 -93t-81 -60.5t-116.5 -21.5zM126 -256l8 46q48 0 58 59l3 15h-50l15 88h98q5 -45 -2 -85q-11 -62 -44.5 -92.5t-85.5 -30.5z" />
    <glyph glyph-name="uni021A" unicode="&#x21a;" horiz-adv-x="575" 
d="M191 0l108 616h-206l15 84h519l-14 -84h-208l-108 -616h-106zM142 -256l9 46q49 0 58 59l2 15h-49l15 88h98q2 -23 1 -44.5t-4 -40.5q-10 -62 -43.5 -92.5t-86.5 -30.5z" />
    <glyph glyph-name="uni021B" unicode="&#x21b;" horiz-adv-x="391" 
d="M220 0q-65 0 -102.5 26.5t-37.5 90.5q0 22 5 47l43 243h-79l16 89h79l35 126h93l-22 -126h140l-16 -89h-140l-43 -243q-3 -14 -3 -25q0 -27 15 -38t50 -11h66l-16 -90h-83zM88 -256l9 46q50 0 58 59l2 15h-49l15 88h98q4 -45 -2 -85q-10 -62 -44 -92.5t-87 -30.5z" />
    <glyph glyph-name="uni0259" unicode="&#x259;" horiz-adv-x="582" 
d="M237 -12q-65 0 -110.5 25.5t-69.5 69t-24 98.5q0 22 4.5 47.5t9.5 44.5h386q1 13 1 24q0 60 -35 91.5t-86 31.5q-45 0 -79.5 -21t-54.5 -55h-107q22 47 60 84t88 58.5t108 21.5q97 0 153.5 -57t56.5 -153q0 -64 -22 -120.5t-62 -99t-95 -66.5t-122 -24zM252 75
q53 0 99.5 32t66.5 94h-279q-1 -5 -1.5 -9t-0.5 -8q0 -50 31.5 -79.5t83.5 -29.5z" />
    <glyph glyph-name="circumflex" unicode="&#x2c6;" horiz-adv-x="322" 
d="M72 548l14 79l157 83l126 -83l-14 -79l-126 85z" />
    <glyph glyph-name="caron" unicode="&#x2c7;" horiz-adv-x="321" 
d="M214 547l-127 83l14 76l124 -84l158 87l-13 -79z" />
    <glyph glyph-name="breve" unicode="&#x2d8;" horiz-adv-x="334" 
d="M220 555q-69 0 -101 39.5t-21 101.5l3 15h58q-6 -36 10.5 -56t65.5 -20q47 0 71 20t31 56h59l-3 -16q-11 -62 -56.5 -101t-116.5 -39z" />
    <glyph glyph-name="dotaccent" unicode="&#x2d9;" horiz-adv-x="156" 
d="M143 561q-23 0 -39.5 16.5t-16.5 39.5t16.5 39.5t39.5 16.5t39.5 -16.5t16.5 -39.5t-16.5 -39.5t-39.5 -16.5z" />
    <glyph glyph-name="ring" unicode="&#x2da;" horiz-adv-x="258" 
d="M201 552q-44 0 -76.5 28.5t-32.5 78.5t32.5 79t76.5 29q46 0 78 -29t32 -79t-32 -78.5t-78 -28.5zM201 603q23 0 39 15.5t16 40.5q0 27 -16 42t-39 15q-22 0 -38 -15t-16 -42q0 -25 16 -40.5t38 -15.5z" />
    <glyph glyph-name="ogonek" unicode="&#x2db;" horiz-adv-x="256" 
d="M62 -207q-33 0 -59.5 10.5t-40.5 32.5t-7 57q6 38 40 72t111 65l53 22l17 -52l-59 -27q-40 -18 -57 -35t-21 -35q-4 -21 9.5 -33t38.5 -12q31 0 71 15l-12 -66q-19 -6 -40.5 -10t-43.5 -4z" />
    <glyph glyph-name="tilde" unicode="&#x2dc;" horiz-adv-x="362" 
d="M71 553q18 58 51 85.5t75 27.5q27 0 43.5 -11.5t31 -23.5t36.5 -12q16 0 30 11.5t21 33.5h59q-18 -56 -51.5 -84t-75.5 -28q-28 0 -45 11.5t-31 23t-35 11.5q-36 0 -50 -45h-59z" />
    <glyph glyph-name="hungarumlaut" unicode="&#x2dd;" horiz-adv-x="367" 
d="M233 547l111 164h89l-131 -164h-69zM75 547l97 164h89l-117 -164h-69z" />
    <glyph glyph-name="gravecomb" unicode="&#x300;" 
d="M268 537l-197 112l15 88l196 -124z" />
    <glyph glyph-name="acutecomb" unicode="&#x301;" 
d="M51 537l14 76l240 124l-16 -88z" />
    <glyph glyph-name="uni0302" unicode="&#x302;" 
d="M53 548l14 79l157 83l126 -83l-14 -79l-126 85z" />
    <glyph glyph-name="tildecomb" unicode="&#x303;" 
d="M54 553q18 58 51 85.5t75 27.5q27 0 43.5 -11.5t31 -23.5t35.5 -12q17 0 31 11.5t20 33.5h59q-17 -56 -51 -84t-75 -28q-28 0 -45 11.5t-31.5 23t-34.5 11.5q-37 0 -51 -45h-58z" />
    <glyph glyph-name="uni0304" unicode="&#x304;" 
d="M59 585l14 77h361l-13 -77h-362z" />
    <glyph glyph-name="uni0306" unicode="&#x306;" 
d="M201 555q-69 0 -101 39.5t-21 101.5l2 15h59q-6 -36 10.5 -56t65.5 -20q47 0 71 20t31 56h59l-3 -16q-11 -62 -56.5 -101t-116.5 -39z" />
    <glyph glyph-name="uni0307" unicode="&#x307;" 
d="M121 561q-23 0 -39 16.5t-16 39.5t16 39.5t39 16.5q24 0 40 -16.5t16 -39.5t-16 -39.5t-40 -16.5z" />
    <glyph glyph-name="uni0308" unicode="&#x308;" 
d="M293 568q-23 0 -39.5 16t-16.5 39q0 24 16.5 40t39.5 16t39 -16t16 -40q0 -23 -16 -39t-39 -16zM123 568q-24 0 -40 16t-16 39q0 24 16 40t40 16q23 0 39.5 -16t16.5 -40q0 -23 -16.5 -39t-39.5 -16z" />
    <glyph glyph-name="uni030A" unicode="&#x30a;" 
d="M183 552q-44 0 -76.5 28.5t-32.5 78.5t32.5 79t76.5 29q46 0 78 -29t32 -79t-32 -78.5t-78 -28.5zM183 603q24 0 40 15.5t16 40.5q0 27 -16 42t-40 15q-22 0 -38 -15t-16 -42q0 -25 16 -40.5t38 -15.5z" />
    <glyph glyph-name="uni030B" unicode="&#x30b;" 
d="M211 547l111 164h89l-132 -164h-68zM52 547l98 164h89l-118 -164h-69z" />
    <glyph glyph-name="uni030C" unicode="&#x30c;" 
d="M195 547l-127 83l14 76l124 -84l158 87l-13 -79z" />
    <glyph glyph-name="uni0327" unicode="&#x327;" 
d="M-90 -261l11 64h102q69 0 69 46q0 35 -53 35h-56l21 123h69l-11 -63q48 1 80 -20t32 -67q0 -35 -19 -61.5t-51 -41.5t-72 -15h-122z" />
    <glyph glyph-name="uni0328" unicode="&#x328;" 
d="M45 -207q-33 0 -60 10.5t-40.5 32.5t-7.5 57q7 38 40.5 72t111.5 65l53 22l16 -52l-58 -27q-40 -18 -57.5 -35t-20.5 -35q-4 -21 9 -33t39 -12q30 0 71 15l-12 -66q-19 -6 -41 -10t-43 -4z" />
    <glyph glyph-name="pi" unicode="&#x3c0;" horiz-adv-x="646" 
d="M72 0l74 414h-77l14 82h568l-15 -82h-77l-73 -414h-106l73 414h-201l-74 -414h-106z" />
    <glyph glyph-name="Wgrave" unicode="&#x1e80;" horiz-adv-x="990" 
d="M164 -1l-64 701h113l37 -574l261 574h119l52 -574l240 574h116l-317 -700h-124l-56 547l-254 -547zM615 741l-197 112l15 88l196 -124z" />
    <glyph glyph-name="wgrave" unicode="&#x1e81;" horiz-adv-x="774" 
d="M121 0l-58 496h105l30 -374l174 374h118l43 -374l161 374h106l-232 -496h-110l-45 390l-183 -390h-109zM471 537l-197 112l15 88l196 -124z" />
    <glyph glyph-name="Wacute" unicode="&#x1e82;" horiz-adv-x="990" 
d="M164 -1l-64 701h113l37 -574l261 574h119l52 -574l240 574h116l-317 -700h-124l-56 547l-254 -547zM535 741l14 76l240 124l-16 -88z" />
    <glyph glyph-name="wacute" unicode="&#x1e83;" horiz-adv-x="774" 
d="M121 0l-58 496h105l30 -374l174 374h118l43 -374l161 374h106l-232 -496h-110l-45 390l-183 -390h-109zM391 537l14 76l240 124l-16 -88z" />
    <glyph glyph-name="Wdieresis" unicode="&#x1e84;" horiz-adv-x="990" 
d="M164 -1l-64 701h113l37 -574l261 574h119l52 -574l240 574h116l-317 -700h-124l-56 547l-254 -547zM683 772q-23 0 -39.5 16t-16.5 39q0 24 16.5 40t39.5 16t39 -16t16 -40q0 -23 -16 -39t-39 -16zM513 772q-24 0 -40 16t-16 39q0 24 16 40t40 16q23 0 39.5 -16t16.5 -40
q0 -23 -16.5 -39t-39.5 -16z" />
    <glyph glyph-name="wdieresis" unicode="&#x1e85;" horiz-adv-x="774" 
d="M121 0l-58 496h105l30 -374l174 374h118l43 -374l161 374h106l-232 -496h-110l-45 390l-183 -390h-109zM539 568q-23 0 -39.5 16t-16.5 39q0 24 16.5 40t39.5 16t39 -16t16 -40q0 -23 -16 -39t-39 -16zM369 568q-24 0 -40 16t-16 39q0 24 16 40t40 16q23 0 39.5 -16
t16.5 -40q0 -23 -16.5 -39t-39.5 -16z" />
    <glyph glyph-name="uni1EBC" unicode="&#x1ebc;" horiz-adv-x="551" 
d="M28 0l123 700h419l-16 -84h-312l-38 -221h282l-14 -82h-283l-40 -229h312l-15 -84h-418zM218 757q18 58 51 85.5t75 27.5q27 0 43.5 -11.5t31 -23.5t35.5 -12q17 0 31 11.5t20 33.5h59q-17 -56 -51 -84t-75 -28q-28 0 -45 11.5t-31.5 23t-34.5 11.5q-37 0 -51 -45h-58z
" />
    <glyph glyph-name="uni1EBD" unicode="&#x1ebd;" horiz-adv-x="582" 
d="M253 -12q-96 0 -153 57t-57 153q0 64 22 120.5t62.5 99t95.5 66.5t121 24q65 0 111 -25.5t70 -69t24 -98.5q0 -22 -4.5 -47.5t-9.5 -44.5h-386q-2 -13 -2 -24q0 -60 35 -91.5t86 -31.5q46 0 80.5 21t54.5 55h107q-22 -47 -60 -84t-88 -58.5t-109 -21.5zM330 421
q-53 0 -100 -32t-67 -94h280q1 5 1 9v8q1 50 -30.5 79.5t-83.5 29.5zM190 553q18 58 51 85.5t75 27.5q27 0 43.5 -11.5t31 -23.5t36.5 -12q16 0 30 11.5t21 33.5h59q-18 -56 -51.5 -84t-75.5 -28q-28 0 -45 11.5t-31 23t-35 11.5q-36 0 -50 -45h-59z" />
    <glyph glyph-name="Ygrave" unicode="&#x1ef2;" horiz-adv-x="602" 
d="M198 0l46 258l-154 442h121l105 -338l224 338h119l-309 -442l-46 -258h-106zM414 741l-197 112l15 88l196 -124z" />
    <glyph glyph-name="ygrave" unicode="&#x1ef3;" horiz-adv-x="574" 
d="M42 -220l164 261h-29l-115 455h113l89 -367l224 367h112l-446 -716h-112zM371 537l-197 112l15 88l196 -124z" />
    <glyph glyph-name="uni1EF8" unicode="&#x1ef8;" horiz-adv-x="602" 
d="M198 0l46 258l-154 442h121l105 -338l224 338h119l-309 -442l-46 -258h-106zM229 757q18 58 51 85.5t75 27.5q27 0 43.5 -11.5t31 -23.5t35.5 -12q17 0 31 11.5t20 33.5h59q-17 -56 -51 -84t-75 -28q-28 0 -45 11.5t-31.5 23t-34.5 11.5q-37 0 -51 -45h-58z" />
    <glyph glyph-name="uni1EF9" unicode="&#x1ef9;" horiz-adv-x="574" 
d="M42 -220l164 261h-29l-115 455h113l89 -367l224 367h112l-446 -716h-112zM186 553q18 58 51 85.5t75 27.5q27 0 43.5 -11.5t31 -23.5t35.5 -12q17 0 31 11.5t20 33.5h59q-17 -56 -51 -84t-75 -28q-28 0 -45 11.5t-31.5 23t-34.5 11.5q-37 0 -51 -45h-58z" />
    <glyph glyph-name="endash" unicode="&#x2013;" horiz-adv-x="645" 
d="M57 246l15 88h532l-16 -88h-531z" />
    <glyph glyph-name="emdash" unicode="&#x2014;" horiz-adv-x="858" 
d="M57 246l15 88h744l-15 -88h-744z" />
    <glyph glyph-name="quoteleft" unicode="&#x2018;" horiz-adv-x="239" 
d="M66 465l138 235h74l-97 -235h-115z" />
    <glyph glyph-name="quoteright" unicode="&#x2019;" horiz-adv-x="239" 
d="M79 465l98 235h114l-138 -235h-74z" />
    <glyph glyph-name="quotesinglbase" unicode="&#x201a;" horiz-adv-x="212" 
d="M-58 -118l97 236h115l-138 -236h-74z" />
    <glyph glyph-name="quotedblleft" unicode="&#x201c;" horiz-adv-x="417" 
d="M244 465l138 235h74l-97 -235h-115zM66 465l138 235h74l-97 -235h-115z" />
    <glyph glyph-name="quotedblright" unicode="&#x201d;" horiz-adv-x="416" 
d="M257 465l97 234h114l-137 -234h-74zM79 465l97 234h114l-137 -234h-74z" />
    <glyph glyph-name="quotedblbase" unicode="&#x201e;" horiz-adv-x="397" 
d="M127 -118l97 236h114l-138 -236h-73zM-58 -118l97 236h115l-138 -236h-74z" />
    <glyph glyph-name="dagger" unicode="&#x2020;" horiz-adv-x="562" 
d="M132 -261l141 737l-197 -9l15 83l194 -9l31 242h106l-53 -242l197 9l-15 -83l-194 9l-119 -737h-106z" />
    <glyph glyph-name="daggerdbl" unicode="&#x2021;" horiz-adv-x="563" 
d="M132 -261l54 242l-198 -10l16 83l193 -9l76 431l-197 -9l15 83l194 -9l31 242h105l-52 -242l197 9l-15 -83l-193 9l-77 -431l198 9l-15 -83l-194 10l-33 -242h-105z" />
    <glyph glyph-name="bullet" unicode="&#x2022;" horiz-adv-x="367" 
d="M198 206q-35 0 -64 17t-46 45.5t-17 64.5t17 65t46 46t64 17q36 0 65 -17t46.5 -46t17.5 -65t-17.5 -64.5t-46.5 -45.5t-65 -17z" />
    <glyph glyph-name="ellipsis" unicode="&#x2026;" horiz-adv-x="616" 
d="M276 -6q-30 0 -49.5 19.5t-19.5 46.5q0 28 19.5 47.5t49.5 19.5t49 -19.5t19 -47.5q0 -27 -19 -46.5t-49 -19.5zM474 -6q-30 0 -49.5 19.5t-19.5 46.5q0 28 19.5 47.5t49.5 19.5t49 -19.5t19 -47.5q0 -27 -19 -46.5t-49 -19.5zM77 -6q-30 0 -49.5 19.5t-19.5 46.5
q0 28 19.5 47.5t49.5 19.5t49 -19.5t19 -47.5q0 -27 -19 -46.5t-49 -19.5z" />
    <glyph glyph-name="perthousand" unicode="&#x2030;" horiz-adv-x="1195" 
d="M233 366q-63 0 -103.5 38t-40.5 104q0 56 26 102t70.5 73.5t100.5 27.5q61 0 101.5 -37.5t40.5 -104.5q0 -56 -26 -102t-70.5 -73.5t-98.5 -27.5zM114 0l524 700h104l-524 -700h-104zM242 441q27 0 50 16.5t36.5 43.5t13.5 61q0 37 -19 56t-47 19t-51 -16.5t-36.5 -44
t-13.5 -60.5q0 -37 19 -56t48 -19zM577 -12q-62 0 -102.5 38t-40.5 104q0 56 26 102.5t70.5 74t99.5 27.5q62 0 102 -38t40 -104q0 -56 -26 -102.5t-70 -74t-99 -27.5zM946 -12q-61 0 -102 38t-41 104q0 56 26.5 102.5t71 74t99.5 27.5q62 0 102 -38t40 -104
q0 -56 -26 -102.5t-70 -74t-100 -27.5zM586 63q28 0 50.5 16.5t36 44t13.5 60.5q0 38 -18.5 56.5t-47.5 18.5q-28 0 -50.5 -16t-36 -44t-13.5 -61q0 -37 19 -56t47 -19zM956 63q28 0 50.5 16.5t36 44t13.5 60.5q0 38 -19 56.5t-47 18.5t-50.5 -16t-36 -44t-13.5 -61
q0 -37 19 -56t47 -19z" />
    <glyph glyph-name="guilsinglleft" unicode="&#x2039;" horiz-adv-x="290" 
d="M111 120l-63 175l125 175h102l-128 -175l66 -175h-102z" />
    <glyph glyph-name="guilsinglright" unicode="&#x203a;" horiz-adv-x="289" 
d="M30 120l128 175l-66 175h102l63 -175l-125 -175h-102z" />
    <glyph glyph-name="fraction" unicode="&#x2044;" horiz-adv-x="466" 
d="M-65 0l524 700h104l-524 -700h-104z" />
    <glyph glyph-name="uni2074" unicode="&#x2074;" horiz-adv-x="334" 
d="M212 352l11 64h-169l10 57l199 227h90l-39 -224h42l-11 -60h-42l-11 -64h-80zM146 476h93l24 136z" />
    <glyph glyph-name="uni20A8" unicode="&#x20a8;" horiz-adv-x="1115" 
d="M23 0l124 700h238q83 0 132 -28t67 -75t7 -106q-12 -73 -65 -129.5t-149 -72.5l136 -289h-124l-128 284h-82l-50 -284h-106zM194 364h128q74 0 112.5 34t48.5 90q11 57 -16 91.5t-101 34.5h-129zM795 -8q-97 0 -150.5 46.5t-47.5 131.5h107q-4 -43 23.5 -69.5t81.5 -26.5
q49 0 79 22.5t36 56.5q5 29 -10 45.5t-42.5 26.5t-61.5 17t-67 16.5t-59.5 25.5t-39.5 43t-6 71q8 44 39 80.5t81 58t115 21.5q95 0 143.5 -48.5t41.5 -128.5h-106q3 41 -21.5 68t-76.5 27q-48 0 -79 -22t-37 -56q-5 -28 10 -44.5t43 -26t62 -16.5t67 -16.5t59.5 -26
t39.5 -44.5t5 -73q-8 -46 -39.5 -82t-80.5 -56.5t-109 -20.5z" />
    <glyph glyph-name="Euro" unicode="&#x20ac;" horiz-adv-x="778" 
d="M14 238l12 69h80q3 42 13 82h-78l12 70h89q32 76 86.5 133t127 88.5t156.5 31.5q122 0 190.5 -60t70.5 -168h-119q-2 62 -41.5 97.5t-116.5 35.5q-79 0 -142 -43t-99 -115h230l-12 -70h-244q-11 -39 -13 -82h242l-12 -69h-228q10 -74 58 -114.5t127 -40.5q77 0 128 34
t75 93h119q-40 -105 -128 -163.5t-210 -58.5q-126 0 -199 68.5t-82 181.5h-92z" />
    <glyph glyph-name="uni20BD" unicode="&#x20bd;" horiz-adv-x="632" 
d="M73 0l20 115h-88l15 83h88l16 91h-88l14 84h89l58 327h234q109 0 160.5 -49t51.5 -129q0 -70 -37 -122.5t-101 -81.5t-146 -29h-129l-16 -91h206l-15 -83h-206l-20 -115h-106zM413 618h-125l-44 -245h126q79 0 121 39t42 104q0 48 -28.5 75t-91.5 27z" />
    <glyph glyph-name="uni2113" unicode="&#x2113;" horiz-adv-x="250" 
d="M10 -100l146 820h106l-146 -820h-106z" />
    <glyph glyph-name="trademark" unicode="&#x2122;" horiz-adv-x="800" 
d="M348 348l62 352h105l58 -257l153 257h99l-62 -352h-74l41 245l-149 -245h-56l-60 252l-44 -252h-73zM126 348l52 287h-89l12 65h256l-12 -65h-88l-50 -287h-81z" />
    <glyph glyph-name="uni2126" unicode="&#x2126;" horiz-adv-x="789" 
d="M1 0l15 82h132q-49 38 -75 100t-26 127q0 86 33 159.5t91 128t134.5 85t163.5 30.5t154.5 -35.5t106 -100t38.5 -150.5q0 -71 -24 -137t-68 -119.5t-105 -87.5h131l-16 -82h-274l16 86q70 22 121.5 71t79.5 115t28 137q0 96 -56.5 151t-148.5 55q-88 0 -155 -41.5
t-105 -112t-38 -155.5q0 -78 37.5 -138.5t99.5 -81.5l-16 -86h-274z" />
    <glyph glyph-name="estimated" unicode="&#x212e;" horiz-adv-x="758" 
d="M337 -7q-86 0 -151.5 30.5t-102.5 89.5t-37 144q0 17 1.5 36t5.5 38q18 104 71.5 188.5t137 134t191.5 49.5q94 0 157 -36.5t94.5 -97t31.5 -132.5q0 -29 -5 -60l-11 -62h-524l-31 -168q31 -43 74.5 -65t109.5 -22q75 0 140.5 33t134.5 92l35 -49q-74 -67 -154.5 -105
t-167.5 -38zM208 384h371l30 175q-50 77 -168 77q-59 0 -111 -21.5t-94 -66.5z" />
    <glyph glyph-name="partialdiff" unicode="&#x2202;" horiz-adv-x="579" 
d="M191 -9q-56 0 -98 25.5t-61 78t-4 133.5q12 67 42 126.5t74 105.5t97.5 72t112.5 26q44 0 75.5 -20.5t38.5 -74.5q8 61 0.5 109.5t-36.5 76.5t-85 28q-18 0 -37 -3t-40 -8l10 60q28 7 53 10.5t49 3.5q115 0 162 -86t19 -243q-22 -130 -77.5 -224t-132 -145t-162.5 -51z
M218 82q50 0 94 33t75 88.5t42 120.5q14 74 -10 109.5t-74 35.5q-49 0 -92.5 -32t-74 -86.5t-43.5 -122.5q-13 -76 12 -111t71 -35z" />
    <glyph glyph-name="uni2206" unicode="&#x2206;" horiz-adv-x="704" 
d="M-18 0l15 82l390 618h87l174 -618l-15 -82h-651zM106 82h433l-130 497z" />
    <glyph glyph-name="product" unicode="&#x220f;" horiz-adv-x="732" 
d="M67 0l108 618h-77l16 82h665l-15 -82h-78l-108 -618h-106l109 618h-300l-108 -618h-106z" />
    <glyph glyph-name="summation" unicode="&#x2211;" horiz-adv-x="557" 
d="M19 -49l21 122l300 255l-211 250l22 122h407l-15 -82h-319l221 -249l-14 -79l-307 -258h316l-15 -81h-406z" />
    <glyph glyph-name="minus" unicode="&#x2212;" horiz-adv-x="527" 
d="M60 246l15 88h407l-15 -88h-407z" />
    <glyph glyph-name="uni2215" unicode="&#x2215;" horiz-adv-x="406" 
d="M-36 -103l404 874h104l-405 -874h-103z" />
    <glyph glyph-name="radical" unicode="&#x221a;" horiz-adv-x="744" 
d="M190 -43l-89 228l-75 -40l-22 54l176 93l81 -209l569 792h71l-660 -918h-51z" />
    <glyph glyph-name="infinity" unicode="&#x221e;" horiz-adv-x="725" 
d="M175 134q-59 0 -96.5 33.5t-37.5 96.5q0 51 24.5 90.5t66 63t93.5 23.5q41 0 69.5 -14.5t49 -37.5t36.5 -49q32 42 78.5 71.5t103.5 29.5q60 0 98 -34.5t38 -95.5q0 -50 -25.5 -90t-68 -63.5t-94.5 -23.5q-59 0 -95 29t-61 66q-32 -40 -77.5 -67.5t-101.5 -27.5zM129 276
q0 -33 20 -50t50 -17q33 0 64.5 20t57.5 54q-21 34 -44 59t-59 25q-38 0 -63.5 -27t-25.5 -64zM543 366q-35 0 -69 -22t-61 -58q20 -32 44 -55t62 -23q39 0 65.5 25.5t26.5 64.5q0 32 -18.5 50t-49.5 18z" />
    <glyph glyph-name="integral" unicode="&#x222b;" horiz-adv-x="267" 
d="M-128 -210l25 89h20q24 0 37.5 13.5t22.5 46.5l239 837q23 81 71.5 113.5t118.5 32.5h21l-24 -90h-19q-23 0 -38 -12t-24 -44l-239 -837q-23 -82 -70.5 -115.5t-119.5 -33.5h-21z" />
    <glyph glyph-name="approxequal" unicode="&#x2248;" horiz-adv-x="544" 
d="M329 99q-29 0 -50 10t-38.5 23t-35 23t-39.5 10q-25 0 -46 -17.5t-31 -47.5h-79q29 82 75.5 121t104.5 39q30 0 51 -10t38.5 -23t34.5 -23t39 -10q26 0 46.5 17t30.5 48h80q-28 -82 -75.5 -121t-105.5 -39zM367 317q-29 0 -50 10t-38.5 23t-35 23t-39.5 10
q-25 0 -46 -17.5t-31 -47.5h-79q29 82 75.5 121t104.5 39q30 0 51 -10t38.5 -23t34.5 -23t39 -10q26 0 46.5 17t30.5 48h80q-28 -82 -75.5 -121t-105.5 -39z" />
    <glyph glyph-name="notequal" unicode="&#x2260;" horiz-adv-x="535" 
d="M75 70l47 67h-80l16 92h129l86 123h-193l16 92h243l47 67h88l-47 -67h80l-16 -92h-129l-87 -123h195l-16 -92h-243l-48 -67h-88z" />
    <glyph glyph-name="lessequal" unicode="&#x2264;" horiz-adv-x="491" 
d="M294 210l-202 190l269 191h136l-267 -191l200 -190h-136zM43 66l14 82h362l-15 -82h-361z" />
    <glyph glyph-name="greaterequal" unicode="&#x2265;" horiz-adv-x="491" 
d="M48 210l265 191l-198 190h135l202 -191l-269 -190h-135zM24 66l14 82h362l-15 -82h-361z" />
    <glyph glyph-name="lozenge" unicode="&#x25ca;" horiz-adv-x="556" 
d="M246 105l-201 245l289 246l201 -246zM264 210l165 141l-113 139l-165 -140z" />
    <glyph glyph-name="a.ss02" horiz-adv-x="632" 
d="M245 -12q-63 0 -108 29.5t-69 79t-24 110.5q0 87 37.5 155t101.5 107t143 39q63 0 103 -24.5t60 -63.5l24 76h95l-88 -496h-95l3 77q-29 -35 -73 -62t-110 -27zM281 80q52 0 93 28t64.5 74.5t23.5 102.5q0 59 -34.5 95t-93.5 36q-52 0 -92.5 -26t-64 -70.5t-23.5 -100.5
q0 -59 34 -99t93 -40z" />
    <glyph glyph-name="aacute.ss02" horiz-adv-x="632" 
d="M245 -12q-63 0 -108 29.5t-69 79t-24 110.5q0 87 37.5 155t101.5 107t143 39q63 0 103 -24.5t60 -63.5l24 76h95l-88 -496h-95l3 77q-29 -35 -73 -62t-110 -27zM281 80q52 0 93 28t64.5 74.5t23.5 102.5q0 59 -34.5 95t-93.5 36q-52 0 -92.5 -26t-64 -70.5t-23.5 -100.5
q0 -59 34 -99t93 -40zM315 537l14 76l240 124l-16 -88z" />
    <glyph glyph-name="abreve.ss02" horiz-adv-x="632" 
d="M245 -12q-63 0 -108 29.5t-69 79t-24 110.5q0 87 37.5 155t101.5 107t143 39q63 0 103 -24.5t60 -63.5l24 76h95l-88 -496h-95l3 77q-29 -35 -73 -62t-110 -27zM281 80q52 0 93 28t64.5 74.5t23.5 102.5q0 59 -34.5 95t-93.5 36q-52 0 -92.5 -26t-64 -70.5t-23.5 -100.5
q0 -59 34 -99t93 -40zM365 555q-69 0 -101 39.5t-21 101.5l2 15h59q-6 -36 10.5 -56t65.5 -20q47 0 71 20t31 56h59l-3 -16q-11 -62 -56.5 -101t-116.5 -39z" />
    <glyph glyph-name="acircumflex.ss02" horiz-adv-x="632" 
d="M245 -12q-63 0 -108 29.5t-69 79t-24 110.5q0 87 37.5 155t101.5 107t143 39q63 0 103 -24.5t60 -63.5l24 76h95l-88 -496h-95l3 77q-29 -35 -73 -62t-110 -27zM281 80q52 0 93 28t64.5 74.5t23.5 102.5q0 59 -34.5 95t-93.5 36q-52 0 -92.5 -26t-64 -70.5t-23.5 -100.5
q0 -59 34 -99t93 -40zM222 548l14 79l157 83l126 -83l-14 -79l-126 85z" />
    <glyph glyph-name="adieresis.ss02" horiz-adv-x="632" 
d="M245 -12q-63 0 -108 29.5t-69 79t-24 110.5q0 87 37.5 155t101.5 107t143 39q63 0 103 -24.5t60 -63.5l24 76h95l-88 -496h-95l3 77q-29 -35 -73 -62t-110 -27zM281 80q52 0 93 28t64.5 74.5t23.5 102.5q0 59 -34.5 95t-93.5 36q-52 0 -92.5 -26t-64 -70.5t-23.5 -100.5
q0 -59 34 -99t93 -40zM463 568q-23 0 -39.5 16t-16.5 39q0 24 16.5 40t39.5 16t39 -16t16 -40q0 -23 -16 -39t-39 -16zM293 568q-24 0 -40 16t-16 39q0 24 16 40t40 16q23 0 39.5 -16t16.5 -40q0 -23 -16.5 -39t-39.5 -16z" />
    <glyph glyph-name="agrave.ss02" horiz-adv-x="632" 
d="M245 -12q-63 0 -108 29.5t-69 79t-24 110.5q0 87 37.5 155t101.5 107t143 39q63 0 103 -24.5t60 -63.5l24 76h95l-88 -496h-95l3 77q-29 -35 -73 -62t-110 -27zM281 80q52 0 93 28t64.5 74.5t23.5 102.5q0 59 -34.5 95t-93.5 36q-52 0 -92.5 -26t-64 -70.5t-23.5 -100.5
q0 -59 34 -99t93 -40zM395 537l-197 112l15 88l196 -124z" />
    <glyph glyph-name="amacron.ss02" horiz-adv-x="632" 
d="M245 -12q-63 0 -108 29.5t-69 79t-24 110.5q0 87 37.5 155t101.5 107t143 39q63 0 103 -24.5t60 -63.5l24 76h95l-88 -496h-95l3 77q-29 -35 -73 -62t-110 -27zM281 80q52 0 93 28t64.5 74.5t23.5 102.5q0 59 -34.5 95t-93.5 36q-52 0 -92.5 -26t-64 -70.5t-23.5 -100.5
q0 -59 34 -99t93 -40zM190 585l14 77h361l-13 -77h-362z" />
    <glyph glyph-name="aogonek.ss02" horiz-adv-x="632" 
d="M245 -12q-63 0 -108 29.5t-69 79t-24 110.5q0 87 37.5 155t101.5 107t143 39q63 0 103 -24.5t60 -63.5l24 76h95l-88 -496h-95l3 77q-29 -35 -73 -62t-110 -27zM281 80q52 0 93 28t64.5 74.5t23.5 102.5q0 59 -34.5 95t-93.5 36q-52 0 -92.5 -26t-64 -70.5t-23.5 -100.5
q0 -59 34 -99t93 -40zM407 -207q-33 0 -60 10.5t-40.5 32.5t-7.5 57q7 38 40.5 72t111.5 65l53 22l16 -52l-58 -27q-40 -18 -57.5 -35t-20.5 -35q-4 -21 9 -33t39 -12q30 0 71 15l-12 -66q-19 -6 -41 -10t-43 -4z" />
    <glyph glyph-name="aring.ss02" horiz-adv-x="632" 
d="M245 -12q-63 0 -108 29.5t-69 79t-24 110.5q0 87 37.5 155t101.5 107t143 39q63 0 103 -24.5t60 -63.5l24 76h95l-88 -496h-95l3 77q-29 -35 -73 -62t-110 -27zM281 80q52 0 93 28t64.5 74.5t23.5 102.5q0 59 -34.5 95t-93.5 36q-52 0 -92.5 -26t-64 -70.5t-23.5 -100.5
q0 -59 34 -99t93 -40zM384 552q-44 0 -76.5 28.5t-32.5 78.5t32.5 79t76.5 29q46 0 78 -29t32 -79t-32 -78.5t-78 -28.5zM384 603q24 0 40 15.5t16 40.5q0 27 -16 42t-40 15q-22 0 -38 -15t-16 -42q0 -25 16 -40.5t38 -15.5z" />
    <glyph glyph-name="atilde.ss02" horiz-adv-x="632" 
d="M245 -12q-63 0 -108 29.5t-69 79t-24 110.5q0 87 37.5 155t101.5 107t143 39q63 0 103 -24.5t60 -63.5l24 76h95l-88 -496h-95l3 77q-29 -35 -73 -62t-110 -27zM281 80q52 0 93 28t64.5 74.5t23.5 102.5q0 59 -34.5 95t-93.5 36q-52 0 -92.5 -26t-64 -70.5t-23.5 -100.5
q0 -59 34 -99t93 -40zM209 553q18 58 51 85.5t75 27.5q27 0 43.5 -11.5t31 -23.5t35.5 -12q17 0 31 11.5t20 33.5h59q-17 -56 -51 -84t-75 -28q-28 0 -45 11.5t-31.5 23t-34.5 11.5q-37 0 -51 -45h-58z" />
    <glyph glyph-name="ae.ss02" horiz-adv-x="994" 
d="M245 -12q-63 0 -108 29.5t-69 79t-24 110.5q0 87 37.5 155t101.5 107t143 39q59 0 97.5 -21.5t59.5 -55.5l17 65h85l-8 -46q37 27 82.5 42.5t97.5 15.5q65 0 111 -25.5t70 -69t24 -98.5q0 -22 -4.5 -47.5t-9.5 -44.5h-386q-2 -13 -2 -24q0 -60 35 -91.5t86 -31.5
q45 0 79.5 21t55.5 55h106q-22 -47 -59.5 -84t-87.5 -58.5t-109 -21.5q-51 0 -91.5 16.5t-67.5 47.5l-9 -52h-86l9 69q-29 -33 -71.5 -57t-104.5 -24zM743 421q-54 0 -100.5 -32t-66.5 -94h280q0 5 0.5 9t0.5 8q1 50 -30.5 79.5t-83.5 29.5zM281 80q52 0 93 28t64.5 74.5
t23.5 102.5q0 59 -34.5 95t-93.5 36q-52 0 -92.5 -26t-64 -70.5t-23.5 -100.5q0 -59 34 -99t93 -40z" />
    <glyph glyph-name="aeacute.ss02" horiz-adv-x="994" 
d="M245 -12q-63 0 -108 29.5t-69 79t-24 110.5q0 87 37.5 155t101.5 107t143 39q59 0 97.5 -21.5t59.5 -55.5l17 65h85l-8 -46q37 27 82.5 42.5t97.5 15.5q65 0 111 -25.5t70 -69t24 -98.5q0 -22 -4.5 -47.5t-9.5 -44.5h-386q-2 -13 -2 -24q0 -60 35 -91.5t86 -31.5
q45 0 79.5 21t55.5 55h106q-22 -47 -59.5 -84t-87.5 -58.5t-109 -21.5q-51 0 -91.5 16.5t-67.5 47.5l-9 -52h-86l9 69q-29 -33 -71.5 -57t-104.5 -24zM743 421q-54 0 -100.5 -32t-66.5 -94h280q0 5 0.5 9t0.5 8q1 50 -30.5 79.5t-83.5 29.5zM281 80q52 0 93 28t64.5 74.5
t23.5 102.5q0 59 -34.5 95t-93.5 36q-52 0 -92.5 -26t-64 -70.5t-23.5 -100.5q0 -59 34 -99t93 -40zM504 537l14 76l240 124l-16 -88z" />
    <glyph glyph-name="g.ss03" horiz-adv-x="653" 
d="M241 -232q-63 0 -115.5 21.5t-83 65t-29.5 108.5h105q4 -48 41 -75.5t96 -27.5q43 0 81.5 18.5t66.5 55t37 92.5l12 67q-30 -39 -80.5 -69t-118.5 -30q-62 0 -109 28t-73.5 77t-26.5 109q0 62 22.5 116t62 95.5t93 65t115.5 23.5q61 0 107 -26.5t65 -65.5l30 80h90
l-83 -472q-15 -83 -58.5 -140t-107 -86.5t-139.5 -29.5zM288 85q53 0 96.5 27.5t69.5 72.5t26 100q0 58 -39 94.5t-100 36.5q-55 0 -97.5 -27t-66 -71.5t-23.5 -97.5q0 -59 36.5 -97t97.5 -38z" />
    <glyph glyph-name="gbreve.ss03" horiz-adv-x="653" 
d="M241 -232q-63 0 -115.5 21.5t-83 65t-29.5 108.5h105q4 -48 41 -75.5t96 -27.5q43 0 81.5 18.5t66.5 55t37 92.5l12 67q-30 -39 -80.5 -69t-118.5 -30q-62 0 -109 28t-73.5 77t-26.5 109q0 62 22.5 116t62 95.5t93 65t115.5 23.5q61 0 107 -26.5t65 -65.5l30 80h90
l-83 -472q-15 -83 -58.5 -140t-107 -86.5t-139.5 -29.5zM288 85q53 0 96.5 27.5t69.5 72.5t26 100q0 58 -39 94.5t-100 36.5q-55 0 -97.5 -27t-66 -71.5t-23.5 -97.5q0 -59 36.5 -97t97.5 -38zM362 555q-69 0 -101 39.5t-21 101.5l2 15h59q-6 -36 10.5 -56t65.5 -20
q47 0 71 20t31 56h59l-3 -16q-11 -62 -56.5 -101t-116.5 -39z" />
    <glyph glyph-name="uni0123.ss03" horiz-adv-x="653" 
d="M315 596q-2 27 -0.5 51.5t4.5 45.5q20 120 129 120l-7 -46q-50 0 -59 -56l-4 -22h53l-17 -93h-99zM241 -232q-63 0 -115.5 21.5t-83 65t-29.5 108.5h105q4 -48 41 -75.5t96 -27.5q43 0 81.5 18.5t66.5 55t37 92.5l12 67q-30 -39 -80.5 -69t-118.5 -30q-62 0 -109 28
t-73.5 77t-26.5 109q0 62 22.5 116t62 95.5t93 65t115.5 23.5q61 0 107 -26.5t65 -65.5l30 80h90l-83 -472q-15 -83 -58.5 -140t-107 -86.5t-139.5 -29.5zM288 85q53 0 96.5 27.5t69.5 72.5t26 100q0 58 -39 94.5t-100 36.5q-55 0 -97.5 -27t-66 -71.5t-23.5 -97.5
q0 -59 36.5 -97t97.5 -38z" />
    <glyph glyph-name="gdotaccent.ss03" horiz-adv-x="653" 
d="M241 -232q-63 0 -115.5 21.5t-83 65t-29.5 108.5h105q4 -48 41 -75.5t96 -27.5q43 0 81.5 18.5t66.5 55t37 92.5l12 67q-30 -39 -80.5 -69t-118.5 -30q-62 0 -109 28t-73.5 77t-26.5 109q0 62 22.5 116t62 95.5t93 65t115.5 23.5q61 0 107 -26.5t65 -65.5l30 80h90
l-83 -472q-15 -83 -58.5 -140t-107 -86.5t-139.5 -29.5zM288 85q53 0 96.5 27.5t69.5 72.5t26 100q0 58 -39 94.5t-100 36.5q-55 0 -97.5 -27t-66 -71.5t-23.5 -97.5q0 -59 36.5 -97t97.5 -38zM372 561q-23 0 -39 16.5t-16 39.5t16 39.5t39 16.5q24 0 40 -16.5t16 -39.5
t-16 -39.5t-40 -16.5z" />
    <glyph glyph-name="three.ss04" horiz-adv-x="594" 
d="M251 -5q-97 0 -152.5 46t-55.5 138v17.5t1 17.5h101q-2 -13 -2 -27q0 -46 33 -75t91 -29q50 0 87 22t57.5 60t20.5 87q0 53 -31 81.5t-91 28.5h-103l13 71l218 175h-286l16 92h421l-14 -78l-233 -188q90 -2 140 -48.5t50 -126.5q0 -78 -36 -137.5t-99.5 -93t-145.5 -33.5
z" />
    <glyph glyph-name="six.ss04" horiz-adv-x="596" 
d="M257 -4q-67 0 -115.5 25t-74.5 70t-26 103q0 57 20 106.5t47.5 88.5t49.5 66l215 253h121l-214 -247q35 12 76 12q59 0 102.5 -25.5t67.5 -69.5t24 -100q0 -82 -39 -145.5t-105.5 -100t-148.5 -36.5zM273 89q50 0 89.5 22.5t62 62t22.5 92.5t-32.5 88.5t-91.5 35.5
q-51 0 -91 -24.5t-63 -66t-23 -93.5q0 -54 34 -85.5t93 -31.5z" />
    <glyph glyph-name="nine.ss04" horiz-adv-x="596" 
d="M139 0l214 247q-35 -12 -76 -12q-59 0 -102.5 25t-67.5 69.5t-24 100.5q0 82 39 145.5t105.5 100t148.5 36.5q68 0 116 -26t74 -71.5t26 -102.5q0 -58 -20 -106.5t-47 -87.5t-50 -65l-215 -253h-121zM310 318q51 0 91 24.5t63.5 66t23.5 93.5q0 53 -34 85t-93 32
q-51 0 -90.5 -22.5t-61.5 -62.5t-22 -92q0 -53 32.5 -88.5t90.5 -35.5z" />
    <glyph glyph-name="comma.ss01" horiz-adv-x="191" 
d="M-18 -100l8 46q50 0 59 57l4 22h-53l17 93h99q3 -27 1 -52t-5 -46q-20 -120 -130 -120z" />
    <glyph glyph-name="quotesinglbase.ss01" horiz-adv-x="191" 
d="M-18 -100l8 46q50 0 59 57l4 22h-53l17 93h99q3 -27 1 -52t-5 -46q-20 -120 -130 -120z" />
    <glyph glyph-name="quotedblbase.ss01" horiz-adv-x="336" 
d="M-18 -100l8 46q50 0 59 57l4 22h-53l17 93h99q3 -27 1 -52t-5 -46q-20 -120 -130 -120zM128 -100l8 46q49 0 58 57l4 22h-52l17 93h99q2 -27 0.5 -52t-4.5 -46q-20 -120 -130 -120z" />
    <glyph glyph-name="quotedblleft.ss01" horiz-adv-x="325" 
d="M245 579q-3 27 -1.5 51.5t4.5 45.5q21 120 131 120l-9 -46q-49 0 -59 -56l-3 -22h52l-17 -93h-98zM99 579q-2 27 -1 51.5t5 45.5q21 120 130 120l-9 -46q-48 0 -58 -56l-4 -22h52l-16 -93h-99z" />
    <glyph glyph-name="quotedblright.ss01" horiz-adv-x="324" 
d="M89 579l9 46q48 0 58 57l4 21h-52l16 93h99q3 -27 1.5 -51.5t-5.5 -45.5q-21 -120 -130 -120zM235 579l8 46q49 0 59 57l3 21h-52l17 93h99q3 -55 -4 -97q-22 -120 -130 -120z" />
    <glyph glyph-name="quoteleft.ss01" horiz-adv-x="180" 
d="M99 579q-2 27 -1 51.5t5 45.5q22 120 130 120l-9 -46q-48 0 -58 -56l-4 -22h52l-16 -93h-99z" />
    <glyph glyph-name="quoteright.ss01" horiz-adv-x="179" 
d="M89 579l9 46q48 0 58 57l4 21h-52l16 93h99q3 -27 1.5 -51.5t-5.5 -45.5q-21 -120 -130 -120z" />
    <glyph glyph-name="uni0308.cap" 
d="M329 772q-23 0 -39.5 16t-16.5 39q0 24 16.5 40t39.5 16t39 -16t16 -40q0 -23 -16 -39t-39 -16zM159 772q-24 0 -40 16t-16 39q0 24 16 40t40 16q23 0 39.5 -16t16.5 -40q0 -23 -16.5 -39t-39.5 -16z" />
    <glyph glyph-name="uni0307.cap" 
d="M157 765q-23 0 -39 16.5t-16 39.5t16 39.5t39 16.5q24 0 40 -16.5t16 -39.5t-16 -39.5t-40 -16.5z" />
    <glyph glyph-name="gravecomb.cap" 
d="M304 741l-197 112l15 88l196 -124z" />
    <glyph glyph-name="acutecomb.cap" 
d="M87 741l14 76l240 124l-16 -88z" />
    <glyph glyph-name="uni030B.cap" 
d="M247 751l111 164h89l-132 -164h-68zM88 751l98 164h89l-118 -164h-69z" />
    <glyph glyph-name="uni0302.cap" 
d="M89 752l14 79l157 83l126 -83l-14 -79l-126 85z" />
    <glyph glyph-name="uni030C.cap" 
d="M231 751l-127 83l14 76l124 -84l158 87l-13 -79z" />
    <glyph glyph-name="uni0306.cap" 
d="M237 759q-69 0 -101 39.5t-21 101.5l2 15h59q-6 -36 10.5 -56t65.5 -20q47 0 71 20t31 56h59l-3 -16q-11 -62 -56.5 -101t-116.5 -39z" />
    <glyph glyph-name="uni030A.cap" 
d="M219 756q-44 0 -76.5 28.5t-32.5 78.5t32.5 79t76.5 29q46 0 78 -29t32 -79t-32 -78.5t-78 -28.5zM219 807q24 0 40 15.5t16 40.5q0 27 -16 42t-40 15q-22 0 -38 -15t-16 -42q0 -25 16 -40.5t38 -15.5z" />
    <glyph glyph-name="tildecomb.cap" 
d="M90 757q18 58 51 85.5t75 27.5q27 0 43.5 -11.5t31 -23.5t35.5 -12q17 0 31 11.5t20 33.5h59q-17 -56 -51 -84t-75 -28q-28 0 -45 11.5t-31.5 23t-34.5 11.5q-37 0 -51 -45h-58z" />
    <glyph glyph-name="uni0304.cap" 
d="M95 789l14 77h361l-13 -77h-362z" />
    <glyph glyph-name="uni0327.cap" 
d="M-90 -261l11 64h102q69 0 69 46q0 35 -53 35h-56l21 123h69l-11 -63q48 1 80 -20t32 -67q0 -35 -19 -61.5t-51 -41.5t-72 -15h-122z" />
    <glyph glyph-name="uni0328.cap" 
d="M45 -207q-33 0 -60 10.5t-40.5 32.5t-7.5 57q7 38 40.5 72t111.5 65l53 22l16 -52l-58 -27q-40 -18 -57.5 -35t-20.5 -35q-4 -21 9 -33t39 -12q30 0 71 15l-12 -66q-19 -6 -41 -10t-43 -4z" />
    </font>
</defs>
</svg>
