<?xml version="1.0" standalone="no"?>
<!DOCTYPE svg PUBLIC "-//W3C//DTD SVG 1.1//EN" "http://www.w3.org/Graphics/SVG/1.1/DTD/svg11.dtd" >
<svg xmlns="http://www.w3.org/2000/svg" xmlns:xlink="http://www.w3.org/1999/xlink" version="1.1">
<metadata>
Created by FontForge 20170731 at Tue Oct 15 18:58:10 2019
 By Aleksey,,,
Copyright 2014-2017 Indian Type Foundry (info@indiantypefoundry.com) with Reserved Font Name 'Poppins'. Copyright 2019 Google LLC.
</metadata>
<defs>
<font id="DMSans-Regular" horiz-adv-x="0" >
  <font-face 
    font-family="DM Sans"
    font-weight="400"
    font-stretch="normal"
    units-per-em="1000"
    panose-1="0 0 0 0 0 0 0 0 0 0"
    ascent="800"
    descent="-200"
    x-height="496"
    cap-height="700"
    bbox="-63 -260 1083 967"
    underline-thickness="50"
    underline-position="-175"
    unicode-range="U+000D-FB02"
  />
<missing-glyph horiz-adv-x="549" 
d="M74 0v700h401v-700h-401zM144 57h261v586h-261v-586z" />
    <glyph glyph-name="fi" unicode="fi" horiz-adv-x="567" 
d="M96 0v425h-75v71h75v86q0 72 36 105t105 33h50v-72h-37q-38 0 -54 -15.5t-16 -52.5v-84h308v-496h-84v425h-224v-425h-84zM447 591q-24 0 -41 16.5t-17 41.5q0 24 17 40t41 16q25 0 41.5 -16t16.5 -40q0 -25 -16.5 -41.5t-41.5 -16.5z" />
    <glyph glyph-name="fl" unicode="fl" horiz-adv-x="555" 
d="M96 0v425h-75v71h75v86q0 72 36 105t105 33h50v-72h-37q-38 0 -54 -15.5t-16 -52.5v-84h122v-71h-122v-425h-84zM402 0v720h84v-720h-84z" />
    <glyph glyph-name=".notdef" horiz-adv-x="549" 
d="M74 0v700h401v-700h-401zM144 57h261v586h-261v-586z" />
    <glyph glyph-name=".null" 
 />
    <glyph glyph-name="nonmarkingreturn" horiz-adv-x="333" 
 />
    <glyph glyph-name="CR" unicode="&#xd;" horiz-adv-x="600" 
 />
    <glyph glyph-name="space" unicode=" " horiz-adv-x="265" 
 />
    <glyph glyph-name="exclam" unicode="!" horiz-adv-x="248" 
d="M87 194l-10 506h91l-10 -506h-71zM125 -5q-25 0 -41.5 16.5t-16.5 40.5t16.5 40.5t41.5 16.5q24 0 40.5 -16.5t16.5 -40.5t-16.5 -40.5t-40.5 -16.5z" />
    <glyph glyph-name="quotedbl" unicode="&#x22;" horiz-adv-x="284" 
d="M178 558l-11 197h79l-9 -197h-59zM48 558l-11 197h79l-10 -197h-58z" />
    <glyph glyph-name="numbersign" unicode="#" horiz-adv-x="814" 
d="M145 0l43 197h-142v75h158l34 163h-150v74h166l42 197h80l-42 -197h215l42 197h79l-42 -197h139v-74h-155l-34 -163h145v-75h-161l-43 -197h-80l43 197h-215l-42 -197h-80zM283 272h215l35 163h-215z" />
    <glyph glyph-name="dollar" unicode="$" horiz-adv-x="578" 
d="M256 -87v77q-98 11 -155 70t-57 150h88q0 -53 31.5 -94.5t92.5 -53.5v271q-7 2 -14.5 4.5t-14.5 4.5q-81 28 -120 69.5t-39 108.5q-1 78 49.5 130t138.5 60v81h69v-81q84 -10 134 -63t51 -129h-88q0 37 -24 71.5t-73 46.5v-242q8 -2 16 -5t17 -5q50 -18 90 -42t62.5 -62
t22.5 -97q0 -47 -23 -89t-69.5 -71t-115.5 -34v-76h-69zM155 528q0 -46 27 -69.5t74 -40.5v220q-45 -7 -73 -35.5t-28 -74.5zM446 178q0 58 -34 86t-87 46v-250q58 7 89.5 40t31.5 78z" />
    <glyph glyph-name="percent" unicode="%" horiz-adv-x="773" 
d="M200 375q-45 0 -81.5 20.5t-57.5 58t-21 89.5t21.5 89.5t58 58t81.5 20.5t81 -20.5t57 -58t21 -89.5t-21.5 -89.5t-57.5 -58t-81 -20.5zM138 0l407 700h84l-407 -700h-84zM200 440q35 0 61.5 26t26.5 77q0 52 -26 78.5t-61 26.5t-62.5 -26.5t-27.5 -78.5q0 -51 27 -77
t62 -26zM574 -12q-45 0 -81.5 20.5t-57.5 58t-21 89.5t21.5 89.5t57.5 58t81 20.5t81 -20.5t57 -58t21 -89.5t-21 -89.5t-57 -58t-81 -20.5zM573 53q36 0 62.5 26t26.5 77q0 52 -26 78t-62 26q-35 0 -62 -26t-27 -78q0 -51 26.5 -77t61.5 -26z" />
    <glyph glyph-name="ampersand" unicode="&#x26;" horiz-adv-x="732" 
d="M281 -12q-72 0 -126.5 26.5t-85 74t-30.5 112.5q0 71 41.5 126.5t120.5 87.5q-34 37 -49 70.5t-15 72.5q0 67 47.5 110.5t130.5 43.5q54 0 94 -20.5t62 -56.5t20 -82h-83q1 45 -27.5 68t-65.5 23q-45 0 -70 -24t-25 -61q0 -32 17.5 -62t52.5 -67l221 -223q29 42 63 101
l31 54h89l-44 -78q-44 -79 -84 -132l151 -152h-106l-93 94q-53 -57 -110 -81.5t-127 -24.5zM123 204q0 -62 44 -103t115 -41q53 0 96.5 20.5t85.5 67.5l-212 215q-66 -26 -97.5 -66t-31.5 -93z" />
    <glyph glyph-name="quotesingle" unicode="'" horiz-adv-x="157" 
d="M50 558l-13 197h83l-12 -197h-58z" />
    <glyph glyph-name="parenleft" unicode="(" horiz-adv-x="372" 
d="M248 -145q-54 52 -100 123.5t-73.5 161t-27.5 193.5t27.5 193.5t73.5 161t100 123.5h86v-8q-92 -90 -147.5 -210.5t-55.5 -259.5t56 -259.5t147 -210.5v-8h-86z" />
    <glyph glyph-name="parenright" unicode=")" horiz-adv-x="372" 
d="M38 -145v8q91 90 147.5 210.5t56.5 259.5t-56 259.5t-147 210.5v8h85q55 -52 100.5 -123.5t73 -161t27.5 -193.5t-27.5 -193.5t-73 -161t-100.5 -123.5h-86z" />
    <glyph glyph-name="asterisk" unicode="*" horiz-adv-x="478" 
d="M208 360l12 153l-124 -87l-35 61l139 61l-138 60l33 59l126 -87l-14 153h68l-15 -153l125 87l32 -58l-138 -62l139 -61l-33 -59l-125 86l14 -153h-66z" />
    <glyph glyph-name="plus" unicode="+" horiz-adv-x="583" 
d="M63 255v71h191v182h75v-182h191v-71h-191v-183h-75v183h-191z" />
    <glyph glyph-name="comma" unicode="," horiz-adv-x="178" 
d="M2 -119l58 221h87l-87 -221h-58z" />
    <glyph glyph-name="hyphen" unicode="-" horiz-adv-x="513" 
d="M59 255v71h396v-71h-396z" />
    <glyph glyph-name="period" unicode="." horiz-adv-x="195" 
d="M98 -5q-25 0 -41.5 16.5t-16.5 40.5t16.5 40.5t41.5 16.5q24 0 40.5 -16.5t16.5 -40.5t-16.5 -40.5t-40.5 -16.5z" />
    <glyph glyph-name="slash" unicode="/" horiz-adv-x="391" 
d="M28 -95l251 859h83l-251 -859h-83z" />
    <glyph glyph-name="zero" unicode="0" horiz-adv-x="693" 
d="M347 -12q-93 0 -160.5 45.5t-103.5 127t-36 189.5t36 189.5t103.5 127t160.5 45.5t160 -45.5t103 -127t36 -189.5t-36 -189.5t-103 -127t-160 -45.5zM347 62q61 0 109.5 34.5t76 99t27.5 154.5t-27.5 154t-76 98.5t-109.5 34.5q-62 0 -110 -34.5t-76 -98.5t-28 -154
t28 -154.5t76 -99t110 -34.5z" />
    <glyph glyph-name="one" unicode="1" horiz-adv-x="302" 
d="M143 0v606l-113 -25v58l141 61h57v-700h-85z" />
    <glyph glyph-name="two" unicode="2" horiz-adv-x="572" 
d="M63 0v59q71 56 134.5 113.5t113 113.5t78 110t28.5 104q0 37 -12.5 69t-40.5 51.5t-76 19.5q-46 0 -77 -20.5t-46.5 -54.5t-15.5 -73h-81q0 69 29 118.5t79 75.5t113 26q93 0 152.5 -52.5t59.5 -156.5q0 -62 -31 -122.5t-79 -117t-102.5 -105.5t-101.5 -88h338v-70h-462z
" />
    <glyph glyph-name="three" unicode="3" horiz-adv-x="588" 
d="M292 -12q-67 0 -121 24.5t-86.5 73.5t-34.5 122h85q1 -60 42 -103.5t115 -43.5t111.5 41t37.5 99q0 49 -23.5 80t-63 46t-86.5 15h-52v71h52q68 0 106.5 31t38.5 87q0 47 -30.5 77.5t-90.5 30.5q-58 0 -93 -34.5t-39 -86.5h-85q3 57 30.5 101t75.5 68.5t111 24.5
q68 0 113.5 -24t69 -64t23.5 -88q0 -53 -29 -96.5t-87 -58.5q62 -13 103 -59t41 -121q0 -58 -26.5 -106.5t-78.5 -77.5t-129 -29z" />
    <glyph glyph-name="four" unicode="4" horiz-adv-x="605" 
d="M391 0v150h-355v65l340 485h98v-476h104v-74h-104v-150h-83zM129 224h266v383z" />
    <glyph glyph-name="five" unicode="5" horiz-adv-x="612" 
d="M312 -12q-72 0 -125 26t-84.5 71.5t-38.5 103.5h82q12 -58 56 -93.5t111 -35.5q50 0 86 23.5t55.5 63.5t19.5 89q0 78 -44 126t-114 48q-58 0 -99 -26t-60 -68h-80l60 384h367v-73h-302l-41 -213q24 29 66.5 48t97.5 19q69 0 120.5 -32t80.5 -87t29 -125
q0 -67 -28.5 -124t-83 -91t-131.5 -34z" />
    <glyph glyph-name="six" unicode="6" horiz-adv-x="630" 
d="M326 -12q-76 0 -128 28.5t-83.5 76.5t-46 107.5t-14.5 121.5q0 116 32 203.5t92.5 137t146.5 49.5q66 0 113 -26t74.5 -69.5t34.5 -96.5h-78q-11 57 -49 88t-96 31q-79 0 -132.5 -74.5t-57.5 -232.5q24 47 76.5 81.5t126.5 34.5q60 0 112.5 -28t85.5 -78.5t33 -118.5
q0 -59 -29 -113t-83.5 -88t-129.5 -34zM320 62q47 0 84 20t58 55.5t21 81.5q0 71 -46.5 113.5t-116.5 42.5q-47 0 -84 -21.5t-58.5 -57.5t-21.5 -78q0 -45 21.5 -80.5t58.5 -55.5t84 -20z" />
    <glyph glyph-name="seven" unicode="7" horiz-adv-x="533" 
d="M132 0l278 628h-384v72h470v-63l-275 -637h-89z" />
    <glyph glyph-name="eight" unicode="8" horiz-adv-x="610" 
d="M305 -12q-69 0 -124 25.5t-86.5 71t-31.5 105.5q0 64 37.5 115t99.5 68q-57 19 -88 61t-31 92q0 51 27 93.5t77 67.5t120 25t120 -25t77 -67.5t27 -93.5q0 -49 -31 -91.5t-88 -61.5q62 -17 99.5 -68t37.5 -115q0 -60 -31.5 -105.5t-86.5 -71t-124 -25.5zM305 403
q64 0 101.5 32.5t37.5 85.5q0 59 -37 89t-102 30t-101.5 -30t-36.5 -89q0 -53 37 -85.5t101 -32.5zM305 62q79 0 118.5 36.5t39.5 96.5q0 68 -43 103t-115 35t-115 -35t-43 -103q0 -60 39.5 -96.5t118.5 -36.5z" />
    <glyph glyph-name="nine" unicode="9" horiz-adv-x="630" 
d="M305 -12q-66 0 -113 26t-74.5 69.5t-33.5 96.5h78q10 -57 48 -88t96 -31q80 0 133 74.5t57 232.5q-24 -47 -76.5 -81.5t-126.5 -34.5q-59 0 -112 28t-86 78.5t-33 118.5q0 59 29.5 113t83.5 88t129 34q76 0 128 -28.5t83.5 -76.5t46 -107.5t14.5 -121.5
q0 -116 -32 -203.5t-92.5 -137t-146.5 -49.5zM310 325q47 0 84 21.5t59 57.5t22 78q0 45 -22 80.5t-59 55.5t-84 20t-84 -20t-58 -55.5t-21 -81.5q0 -71 46.5 -113.5t116.5 -42.5z" />
    <glyph glyph-name="colon" unicode=":" horiz-adv-x="199" 
d="M98 -5q-25 0 -41.5 16.5t-16.5 40.5t16.5 40.5t41.5 16.5q24 0 40.5 -16.5t16.5 -40.5t-16.5 -40.5t-40.5 -16.5zM98 394q-25 0 -41.5 16.5t-16.5 40.5t16.5 40.5t41.5 16.5q24 0 40.5 -16.5t16.5 -40.5t-16.5 -40.5t-40.5 -16.5z" />
    <glyph glyph-name="semicolon" unicode=";" horiz-adv-x="223" 
d="M123 394q-25 0 -41.5 16.5t-16.5 40.5t16.5 40.5t41.5 16.5q24 0 40.5 -16.5t16.5 -40.5t-16.5 -40.5t-40.5 -16.5zM23 -119l58 221h87l-87 -221h-58z" />
    <glyph glyph-name="less" unicode="&#x3c;" horiz-adv-x="499" 
d="M316 137l-244 230l244 231h107l-245 -231l245 -230h-107z" />
    <glyph glyph-name="equal" unicode="=" horiz-adv-x="525" 
d="M63 359v72h399v-72h-399zM63 151v72h399v-72h-399z" />
    <glyph glyph-name="greater" unicode="&#x3e;" horiz-adv-x="499" 
d="M76 137l245 230l-245 231h107l244 -231l-244 -230h-107z" />
    <glyph glyph-name="question" unicode="?" horiz-adv-x="516" 
d="M151 196l-4 161h31q56 0 104.5 11t78.5 43t30 96q0 62 -38.5 98t-101.5 36q-64 0 -101 -35t-37 -94h-80q0 60 27.5 105t76.5 70t114 25t115 -25t78 -71t28 -109q0 -74 -31.5 -120t-87 -67t-126.5 -21l-3 -103h-73zM187 -5q-25 0 -41.5 16.5t-16.5 40.5t16.5 40.5
t41.5 16.5t41 -16.5t16 -40.5t-16 -40.5t-41 -16.5z" />
    <glyph glyph-name="at" unicode="@" horiz-adv-x="1013" 
d="M432 -199q-107 0 -187.5 41t-125 116t-44.5 178q0 106 37 198t104 161t158 107t200 38q111 0 193 -42.5t126.5 -118t44.5 -175.5q0 -57 -14 -112.5t-41.5 -100t-67 -71t-90.5 -26.5t-77.5 26t-29.5 70q-31 -45 -78.5 -70.5t-100.5 -25.5q-76 0 -118.5 46t-42.5 124
q0 55 17.5 105.5t49.5 90t76 62.5t98 23q101 0 131 -83l13 72h71l-50 -286q-7 -43 4.5 -69.5t48.5 -26.5q32 0 57 22.5t42 60t25.5 81t8.5 84.5q0 131 -81.5 206t-224.5 75q-91 0 -167.5 -34t-133.5 -94t-88.5 -139t-31.5 -171q0 -90 37 -153t105 -96t162 -33q43 0 86 8.5
t80 25.5l14 -57q-90 -37 -195 -37zM464 58q43 0 79 23t59 63.5t28 93.5q7 59 -20.5 101t-88.5 42q-51 0 -88.5 -29.5t-57.5 -76.5t-20 -98q0 -54 27.5 -86.5t81.5 -32.5z" />
    <glyph glyph-name="A" unicode="A" horiz-adv-x="664" 
d="M30 0l258 700h89l257 -700h-89l-64 180h-298l-65 -180h-88zM208 248h248l-124 346z" />
    <glyph glyph-name="B" unicode="B" horiz-adv-x="602" 
d="M74 0v700h246q74 0 122.5 -23.5t72.5 -64t24 -90.5q0 -68 -36.5 -107t-87.5 -54q39 -7 71 -31t50.5 -60t18.5 -79q0 -53 -26 -96.5t-77 -69t-124 -25.5h-254zM158 394h156q67 0 103 31.5t36 87.5q0 53 -35.5 85t-106.5 32h-153v-236zM158 70h161q72 0 111 33.5t39 93.5
q0 59 -41 94.5t-111 35.5h-159v-257z" />
    <glyph glyph-name="C" unicode="C" horiz-adv-x="720" 
d="M381 -12q-103 0 -177.5 45.5t-115.5 127t-41 189.5q0 107 41 188.5t115.5 127.5t177.5 46q120 0 195.5 -57.5t96.5 -160.5h-93q-16 65 -65.5 104.5t-133.5 39.5q-75 0 -131 -34.5t-86.5 -99t-30.5 -154.5t30.5 -154.5t86.5 -99t131 -34.5q84 0 133.5 38.5t65.5 102.5h93
q-21 -101 -96.5 -158t-195.5 -57z" />
    <glyph glyph-name="D" unicode="D" horiz-adv-x="696" 
d="M74 0v700h215q185 0 272.5 -94t87.5 -258q0 -161 -87.5 -254.5t-272.5 -93.5h-215zM158 70h129q102 0 162.5 33.5t86.5 96t26 148.5q0 88 -26 151t-86.5 97t-162.5 34h-129v-560z" />
    <glyph glyph-name="E" unicode="E" horiz-adv-x="564" 
d="M74 0v700h433v-69h-349v-244h319v-68h-319v-250h349v-69h-433z" />
    <glyph glyph-name="F" unicode="F" horiz-adv-x="534" 
d="M74 0v700h426v-69h-342v-246h291v-68h-291v-317h-84z" />
    <glyph glyph-name="G" unicode="G" horiz-adv-x="757" 
d="M375 -12q-98 0 -172 45.5t-115 127t-41 188.5t41.5 189t118 128t180.5 46q118 0 196.5 -57t101.5 -157h-97q-14 63 -66.5 100t-134.5 37q-77 0 -134 -34.5t-88.5 -98.5t-31.5 -153t31 -153t86 -98.5t128 -34.5q112 0 169 65.5t65 179.5h-202v66h288v-374h-77l-7 115
q-38 -61 -93 -94t-146 -33z" />
    <glyph glyph-name="H" unicode="H" horiz-adv-x="679" 
d="M74 0v700h84v-309h363v309h84v-700h-84v322h-363v-322h-84z" />
    <glyph glyph-name="I" unicode="I" horiz-adv-x="232" 
d="M74 0v700h84v-700h-84z" />
    <glyph glyph-name="J" unicode="J" horiz-adv-x="499" 
d="M230 -12q-95 0 -149 53t-54 147h85q0 -53 26 -89t91 -36q63 0 87.5 35t24.5 87v515h84v-515q0 -93 -51.5 -145t-143.5 -52z" />
    <glyph glyph-name="K" unicode="K" horiz-adv-x="582" 
d="M74 0v700h84v-317l292 317h106l-260 -279l264 -421h-102l-222 356l-78 -83v-273h-84z" />
    <glyph glyph-name="L" unicode="L" horiz-adv-x="525" 
d="M74 0v700h84v-633h326v-67h-410z" />
    <glyph glyph-name="M" unicode="M" horiz-adv-x="847" 
d="M74 0v700h98l252 -488l250 488h99v-700h-84v550l-234 -450h-63l-234 449v-549h-84z" />
    <glyph glyph-name="N" unicode="N" horiz-adv-x="689" 
d="M74 0v700h84l373 -561v561h84v-700h-84l-373 561v-561h-84z" />
    <glyph glyph-name="O" unicode="O" horiz-adv-x="784" 
d="M392 -12q-103 0 -180.5 45.5t-121 127.5t-43.5 189t43.5 188.5t121 127.5t180.5 46q104 0 181.5 -46t120.5 -127.5t43 -188.5t-43 -189t-120.5 -127.5t-181.5 -45.5zM392 62q77 0 135.5 34.5t91 99t32.5 154.5t-32.5 154t-91 98.5t-135.5 34.5t-135.5 -34.5t-91 -98.5
t-32.5 -154t32.5 -154.5t91 -99t135.5 -34.5z" />
    <glyph glyph-name="P" unicode="P" horiz-adv-x="579" 
d="M74 0v700h230q82 0 135 -27t78.5 -73t25.5 -104q0 -57 -25 -103t-78 -73.5t-136 -27.5h-146v-292h-84zM158 363h144q84 0 119.5 35.5t35.5 97.5q0 63 -35.5 98.5t-119.5 35.5h-144v-267z" />
    <glyph glyph-name="Q" unicode="Q" horiz-adv-x="789" 
d="M392 -12q-103 0 -180.5 45.5t-121 127.5t-43.5 189t43.5 188.5t121 127.5t180.5 46q104 0 181.5 -46t120.5 -127.5t43 -188.5t-43 -188.5t-118 -126.5l177 -170h-109l-142 138q-51 -15 -110 -15zM392 62q77 0 135.5 34.5t91 99t32.5 154.5t-32.5 154t-91 98.5
t-135.5 34.5t-135.5 -34.5t-91 -98.5t-32.5 -154t32.5 -154.5t91 -99t135.5 -34.5z" />
    <glyph glyph-name="R" unicode="R" horiz-adv-x="593" 
d="M74 0v700h226q82 0 134 -27t77 -74t25 -104q0 -66 -35.5 -119t-110.5 -75l153 -301h-99l-142 289h-6h-138v-289h-84zM158 355h136q81 0 118 39t37 100q0 62 -36.5 98.5t-119.5 36.5h-135v-274z" />
    <glyph glyph-name="S" unicode="S" horiz-adv-x="578" 
d="M297 -12q-77 0 -134 28t-88 78t-31 116h88q0 -41 19 -75.5t55.5 -55t90.5 -20.5q71 0 110 34t39 85q0 42 -18 67.5t-48.5 41.5t-70 28t-82.5 27q-81 28 -120 69.5t-39 108.5q-1 56 26 99.5t76.5 68t117.5 24.5q67 0 116.5 -25t77 -69t28.5 -100h-88q0 29 -15 57.5
t-45.5 46.5t-76.5 18q-57 1 -93.5 -29t-36.5 -83q0 -45 25.5 -69t71.5 -39.5t106 -35.5q50 -18 90 -42t62.5 -62t22.5 -97q0 -50 -26 -94.5t-78.5 -72.5t-131.5 -28z" />
    <glyph glyph-name="T" unicode="T" horiz-adv-x="560" 
d="M238 0v631h-209v69h502v-69h-209v-631h-84z" />
    <glyph glyph-name="U" unicode="U" horiz-adv-x="656" 
d="M327 -12q-72 0 -130.5 28.5t-93.5 88.5t-35 153v442h84v-443q0 -102 49 -148t128 -46t127 46t48 148v443h84v-442q0 -93 -35 -153t-94 -88.5t-132 -28.5z" />
    <glyph glyph-name="V" unicode="V" horiz-adv-x="668" 
d="M285 0l-263 700h91l221 -611l223 611h89l-263 -700h-98z" />
    <glyph glyph-name="W" unicode="W" horiz-adv-x="967" 
d="M218 -1l-192 701h90l151 -601l172 601h93l167 -601l153 601h90l-196 -700h-96l-167 578l-171 -578z" />
    <glyph glyph-name="X" unicode="X" horiz-adv-x="602" 
d="M38 0l214 353l-214 347h95l172 -280l164 280h94l-214 -351l215 -349h-95l-173 281l-163 -281h-95z" />
    <glyph glyph-name="Y" unicode="Y" horiz-adv-x="579" 
d="M248 0v266l-228 434h95l175 -354l175 354h94l-227 -434v-266h-84z" />
    <glyph glyph-name="Z" unicode="Z" horiz-adv-x="535" 
d="M44 0v66l345 561h-340v73h438v-66l-346 -561h350v-73h-447z" />
    <glyph glyph-name="bracketleft" unicode="[" horiz-adv-x="307" 
d="M74 -151v962h174v-69h-95v-823h95v-70h-174z" />
    <glyph glyph-name="backslash" unicode="\" horiz-adv-x="391" 
d="M280 -95l-252 859h84l250 -859h-82z" />
    <glyph glyph-name="bracketright" unicode="]" horiz-adv-x="307" 
d="M59 -151v70h95v823h-95v69h174v-962h-174z" />
    <glyph glyph-name="asciicircum" unicode="^" horiz-adv-x="620" 
d="M37 178l235 522h77l235 -522h-86l-187 419l-188 -419h-86z" />
    <glyph glyph-name="underscore" unicode="_" horiz-adv-x="642" 
d="M59 -115v79h524v-79h-524z" />
    <glyph glyph-name="grave" unicode="`" horiz-adv-x="254" 
d="M232 537l-210 117v73l210 -127v-63z" />
    <glyph glyph-name="a" unicode="a" horiz-adv-x="541" 
d="M234 -12q-62 0 -103 21t-61 56t-20 76q0 76 58 117t158 41h134v6q0 65 -34 98.5t-91 33.5q-49 0 -84.5 -24.5t-44.5 -71.5h-86q5 54 36.5 91t78.5 56.5t100 19.5q104 0 156.5 -55.5t52.5 -147.5v-305h-75l-5 89q-21 -42 -61.5 -71.5t-108.5 -29.5zM247 59q48 0 82.5 25
t52.5 65t18 84v1h-127q-74 0 -104.5 -25.5t-30.5 -63.5q0 -39 28.5 -62.5t80.5 -23.5z" />
    <glyph glyph-name="b" unicode="b" horiz-adv-x="628" 
d="M334 -12q-61 0 -108.5 25t-72.5 70l-8 -83h-76v720h84v-306q24 36 68.5 65t113.5 29q74 0 129 -34t85.5 -93t30.5 -134t-30.5 -133.5t-86 -92t-129.5 -33.5zM325 61q50 0 88 23.5t60 65.5t22 98t-22 98t-60 65.5t-88 23.5t-88 -23.5t-60 -65.5t-22 -98t22 -98t60 -65.5
t88 -23.5z" />
    <glyph glyph-name="c" unicode="c" horiz-adv-x="570" 
d="M297 -12q-71 0 -127.5 32.5t-89 91t-32.5 136.5t32.5 136.5t89 91t127.5 32.5q88 0 148.5 -46t76.5 -123h-86q-10 46 -49 71.5t-91 25.5q-42 0 -79 -21t-60 -63t-23 -104t23 -104t60 -63.5t79 -21.5q52 0 91 25.5t49 72.5h86q-15 -75 -76 -122t-149 -47z" />
    <glyph glyph-name="d" unicode="d" horiz-adv-x="628" 
d="M294 -12q-74 0 -129.5 34t-86 93t-30.5 134t31 133.5t86 92t130 33.5q61 0 108 -25t73 -70v307h84v-720h-76l-8 82q-24 -36 -69 -65t-113 -29zM303 61q50 0 88.5 23.5t60 65.5t21.5 98t-21.5 98t-60 65.5t-88.5 23.5q-49 0 -87.5 -23.5t-60 -65.5t-21.5 -98t21.5 -98
t60 -65.5t87.5 -23.5z" />
    <glyph glyph-name="e" unicode="e" horiz-adv-x="569" 
d="M292 -12q-71 0 -126 32.5t-86.5 90.5t-31.5 137q0 78 31 136.5t86.5 91t128.5 32.5q72 0 124.5 -32.5t80.5 -85.5t28 -114q0 -11 -0.5 -22t-0.5 -25h-395q3 -57 26.5 -94.5t59 -56.5t75.5 -19q52 0 87 24t51 65h83q-20 -69 -76.5 -114.5t-144.5 -45.5zM292 437
q-60 0 -106.5 -36.5t-53.5 -106.5h312q-3 67 -46 105t-106 38z" />
    <glyph glyph-name="f" unicode="f" horiz-adv-x="333" 
d="M96 0v425h-75v71h75v86q0 72 36 105t105 33h50v-72h-37q-38 0 -54 -15.5t-16 -52.5v-84h122v-71h-122v-425h-84z" />
    <glyph glyph-name="g" unicode="g" horiz-adv-x="552" 
d="M265 156q-42 0 -77 11l-50 -47q11 -8 27.5 -13.5t47.5 -10t87 -9.5q100 -7 143 -46t43 -102q0 -43 -23.5 -82t-72 -64t-124.5 -25q-67 0 -119 17.5t-81 53t-29 89.5q0 28 15 60.5t56 61.5q-22 9 -37.5 19.5t-28.5 23.5v23l85 84q-59 50 -59 132q0 49 23 89t67 63.5
t107 23.5q43 0 78 -12h183v-63l-93 -4q29 -42 29 -97q0 -49 -23.5 -89t-67 -63.5t-106.5 -23.5zM265 225q53 0 84.5 27.5t31.5 79.5q0 51 -31.5 78.5t-84.5 27.5q-54 0 -85.5 -27.5t-31.5 -78.5q0 -52 31.5 -79.5t85.5 -27.5zM119 -64q0 -50 42 -74.5t105 -24.5
q62 0 99.5 27t37.5 72q0 32 -26 55.5t-96 27.5q-55 4 -95 10q-41 -22 -54 -47.5t-13 -45.5z" />
    <glyph glyph-name="h" unicode="h" horiz-adv-x="572" 
d="M69 0v720h84v-309q25 46 71 71.5t100 25.5q86 0 138 -53.5t52 -164.5v-290h-83v281q0 155 -125 155q-65 0 -109 -46.5t-44 -132.5v-257h-84z" />
    <glyph glyph-name="i" unicode="i" horiz-adv-x="239" 
d="M120 606q-25 0 -41.5 16.5t-16.5 41.5q0 24 16.5 40t41.5 16q24 0 41 -16t17 -40q0 -25 -17 -41.5t-41 -16.5zM78 0v496h84v-496h-84z" />
    <glyph glyph-name="j" unicode="j" horiz-adv-x="242" 
d="M124 606q-24 0 -41 16.5t-17 41.5q0 24 17 40t41 16t40.5 -16t16.5 -40q0 -25 -16.5 -41.5t-40.5 -16.5zM-28 -220v72h39q37 0 53.5 15.5t16.5 52.5v576h84v-578q0 -72 -36 -105t-105 -33h-52z" />
    <glyph glyph-name="k" unicode="k" horiz-adv-x="504" 
d="M69 0v720h84v-433l203 209h103l-220 -224l248 -272h-107l-227 257v-257h-84z" />
    <glyph glyph-name="l" unicode="l" horiz-adv-x="222" 
d="M69 0v720h84v-720h-84z" />
    <glyph glyph-name="m" unicode="m" horiz-adv-x="895" 
d="M69 0v496h76l6 -72q24 40 64 62t90 22q59 0 101.5 -24t65.5 -73q26 45 71.5 71t98.5 26q89 0 142 -53.5t53 -164.5v-290h-83v281q0 77 -31 116t-89 39q-60 0 -99.5 -46.5t-39.5 -132.5v-257h-84v281q0 77 -31 116t-89 39q-59 0 -98.5 -46.5t-39.5 -132.5v-257h-84z" />
    <glyph glyph-name="n" unicode="n" horiz-adv-x="572" 
d="M69 0v496h76l5 -89q24 47 69 74t102 27q88 0 140.5 -53.5t52.5 -164.5v-290h-84v281q0 155 -128 155q-64 0 -106.5 -46.5t-42.5 -132.5v-257h-84z" />
    <glyph glyph-name="o" unicode="o" horiz-adv-x="592" 
d="M295 -12q-70 0 -126 32t-88.5 90.5t-32.5 137.5t33 137.5t89.5 90.5t126.5 32t126 -32t88.5 -90.5t32.5 -137.5t-33 -137.5t-89.5 -90.5t-126.5 -32zM295 60q43 0 80 21t60 63t23 104t-22.5 104t-59.5 63t-79 21q-43 0 -80 -21t-60 -63t-23 -104t23 -104t59.5 -63
t78.5 -21z" />
    <glyph glyph-name="p" unicode="p" horiz-adv-x="628" 
d="M69 -220v716h76l8 -82q24 36 68.5 65t113.5 29q74 0 129 -34t85.5 -93t30.5 -134t-30.5 -133.5t-86 -92t-129.5 -33.5q-61 0 -108.5 25t-72.5 70v-303h-84zM325 61q50 0 88 23.5t60 65.5t22 98t-22 98t-60 65.5t-88 23.5t-88 -23.5t-60 -65.5t-22 -98t22 -98t60 -65.5
t88 -23.5z" />
    <glyph glyph-name="q" unicode="q" horiz-adv-x="628" 
d="M476 -220v302q-24 -36 -69 -65t-113 -29q-74 0 -129.5 34t-86 93t-30.5 134t31 133.5t86 92t130 33.5q61 0 108 -25t73 -70l8 83h76v-716h-84zM303 61q50 0 88.5 23.5t60 65.5t21.5 98t-21.5 98t-60 65.5t-88.5 23.5q-49 0 -87.5 -23.5t-60 -65.5t-21.5 -98t21.5 -98
t60 -65.5t87.5 -23.5z" />
    <glyph glyph-name="r" unicode="r" horiz-adv-x="363" 
d="M69 0v496h76l7 -95q23 49 70 78t116 29v-88h-23q-44 0 -81 -15.5t-59 -52.5t-22 -102v-250h-84z" />
    <glyph glyph-name="s" unicode="s" horiz-adv-x="500" 
d="M259 -12q-89 0 -148 45t-69 122h86q8 -39 41.5 -67.5t90.5 -28.5q53 0 78 22.5t25 53.5q0 45 -32.5 60t-91.5 27q-40 8 -80 23t-67 42.5t-27 72.5q0 65 48.5 106.5t131.5 41.5q79 0 129.5 -39.5t58.5 -112.5h-83q-5 38 -32.5 59.5t-73.5 21.5q-45 0 -69.5 -19t-24.5 -50
q0 -30 31.5 -47t85.5 -29q46 -10 87.5 -24.5t68 -43t26.5 -82.5q1 -67 -50.5 -110.5t-139.5 -43.5z" />
    <glyph glyph-name="t" unicode="t" horiz-adv-x="387" 
d="M265 0q-68 0 -107 33t-39 119v273h-86v71h86l11 119h73v-119h146v-71h-146v-273q0 -47 19 -63.5t67 -16.5h52v-72h-76z" />
    <glyph glyph-name="u" unicode="u" horiz-adv-x="572" 
d="M250 -12q-88 0 -140 53.5t-52 164.5v290h84v-281q0 -155 127 -155q65 0 107.5 46.5t42.5 132.5v257h84v-496h-76l-6 89q-23 -47 -68.5 -74t-102.5 -27z" />
    <glyph glyph-name="v" unicode="v" horiz-adv-x="521" 
d="M212 0l-188 496h88l149 -415l150 415h86l-188 -496h-97z" />
    <glyph glyph-name="w" unicode="w" horiz-adv-x="754" 
d="M169 0l-145 496h84l105 -389l116 389h95l117 -389l104 389h85l-145 -496h-86l-122 409l-122 -409h-86z" />
    <glyph glyph-name="x" unicode="x" horiz-adv-x="498" 
d="M19 0l172 248l-172 248h91l139 -205l140 205h90l-172 -248l172 -248h-90l-140 205l-139 -205h-91z" />
    <glyph glyph-name="y" unicode="y" horiz-adv-x="556" 
d="M123 -220l123 268h-29l-197 448h91l164 -386l174 386h87l-325 -716h-88z" />
    <glyph glyph-name="z" unicode="z" horiz-adv-x="452" 
d="M35 0v69l276 357h-271v70h365v-69l-276 -357h281v-70h-375z" />
    <glyph glyph-name="braceleft" unicode="{" horiz-adv-x="425" 
d="M320 -152q-68 0 -110 37.5t-42 112.5q0 34 5.5 61.5t11 56.5t5.5 68q0 36 -21 67.5t-82 44.5v68q61 13 82 44t21 68q0 38 -5.5 67t-11 56.5t-5.5 61.5q0 76 42 113t110 37h53v-72h-38q-42 0 -63.5 -19.5t-21.5 -65.5q0 -29 5 -55.5t10.5 -56t5.5 -69.5q0 -53 -26.5 -91
t-84.5 -51v-2q58 -14 84.5 -52t26.5 -91q0 -39 -5.5 -68.5t-10.5 -56t-5 -56.5q0 -45 21.5 -65t63.5 -20h38v-72h-53z" />
    <glyph glyph-name="bar" unicode="|" horiz-adv-x="232" 
d="M74 -100v820h84v-820h-84z" />
    <glyph glyph-name="braceright" unicode="}" horiz-adv-x="425" 
d="M52 -152v72h38q41 0 63 20t22 65q0 30 -5 56.5t-10.5 56t-5.5 68.5q0 53 26 91t85 52v2q-59 13 -85 51t-26 91q0 40 5.5 69.5t10.5 56t5 55.5q0 46 -22 65.5t-63 19.5h-38v72h53q68 0 109.5 -37t41.5 -113q0 -34 -5 -61.5t-10.5 -56.5t-5.5 -67q0 -37 21 -68t82 -44v-68
q-61 -13 -82 -44.5t-21 -67.5q0 -39 5.5 -68t10.5 -56.5t5 -61.5q0 -75 -41.5 -112.5t-109.5 -37.5h-53z" />
    <glyph glyph-name="asciitilde" unicode="~" horiz-adv-x="508" 
d="M337 249q-29 0 -51 10.5t-41 23.5t-38 23t-41 10q-27 0 -44.5 -18.5t-21.5 -47.5h-63q12 72 46.5 106.5t87.5 34.5q28 0 51 -10t42 -23t38 -23t40 -10q27 0 44.5 18t21.5 48h63q-11 -72 -45.5 -107t-88.5 -35z" />
    <glyph glyph-name="uni00A0" unicode="&#xa0;" horiz-adv-x="265" 
 />
    <glyph glyph-name="exclamdown" unicode="&#xa1;" horiz-adv-x="248" 
d="M125 448q-25 0 -41.5 16.5t-16.5 40.5t16.5 41t41.5 17q24 0 40.5 -17t16.5 -41t-16.5 -40.5t-40.5 -16.5zM77 -143l10 506h71l10 -506h-91z" />
    <glyph glyph-name="cent" unicode="&#xa2;" horiz-adv-x="570" 
d="M255 -104v95q-61 9 -107.5 43.5t-73 89t-26.5 124.5t26.5 124.5t73 89t107.5 43.5v95h81v-95q73 -9 122.5 -53.5t63.5 -112.5h-86q-10 46 -49 71.5t-91 25.5q-42 0 -79 -21t-60 -63t-23 -104t23 -104t60 -63.5t79 -21.5q52 0 91 25.5t49 72.5h86q-14 -66 -63 -111
t-123 -55v-95h-81z" />
    <glyph glyph-name="sterling" unicode="&#xa3;" horiz-adv-x="600" 
d="M87 0v54q24 27 43 53.5t29.5 58t10.5 74.5q0 19 -3 36.5t-8 33.5h-114v59h93q-11 30 -20 63.5t-9 74.5q0 62 27 108t75 71.5t111 25.5q71 0 118 -28t71.5 -74.5t27.5 -102.5h-77q-3 58 -38.5 96.5t-101.5 38.5q-35 0 -65.5 -14.5t-49 -45t-18.5 -79.5q0 -35 9.5 -68
t21.5 -66h192v-59h-173q5 -17 7.5 -34t2.5 -34q0 -97 -73 -173h365v-70z" />
    <glyph glyph-name="currency" unicode="&#xa4;" horiz-adv-x="532" 
d="M103 92l-38 38l59 59q-32 45 -32 108q0 33 9 60.5t25 48.5l-61 60l38 38l61 -61q44 30 103 30q58 0 102 -30l60 61l38 -38l-60 -60q16 -21 25 -48.5t9 -60.5q0 -32 -8.5 -59t-24.5 -49l59 -59l-38 -38l-59 60q-45 -31 -104 -31q-60 0 -104 31zM266 186q23 0 45 11
t36.5 35.5t14.5 64.5q0 59 -30.5 85.5t-65.5 26.5q-37 0 -66 -26.5t-29 -85.5t29 -85t66 -26z" />
    <glyph glyph-name="yen" unicode="&#xa5;" horiz-adv-x="601" 
d="M59 167v61h200v38l-27 52l-173 1v60h141l-169 321h95l175 -357l174 357h95l-168 -321h141v-60l-173 -1l-27 -52v-38h200v-61h-200v-167h-84v167h-200z" />
    <glyph glyph-name="brokenbar" unicode="&#xa6;" horiz-adv-x="232" 
d="M74 387v333h84v-333h-84zM74 -100v333h84v-333h-84z" />
    <glyph glyph-name="section" unicode="&#xa7;" horiz-adv-x="584" 
d="M289 -232q-67 0 -116.5 25t-77 69t-28.5 100h88q0 -29 15 -57.5t45.5 -46.5t76.5 -18q57 -1 93.5 29t36.5 83q0 45 -25.5 68.5t-71.5 39t-106 35.5q-50 17 -90 41.5t-62.5 62.5t-22.5 96q0 37 14 71t42 62q-27 37 -27 92q0 56 27 99.5t76.5 68t117.5 24.5q67 0 116.5 -25
t77 -69t28.5 -100h-88q0 29 -15 57.5t-45.5 46.5t-76.5 18q-57 1 -93.5 -29t-36.5 -83q0 -45 25.5 -68.5t71.5 -39t106 -35.5q50 -17 89.5 -41.5t62.5 -62.5t23 -96q0 -37 -14 -71.5t-43 -61.5q27 -39 27 -92q1 -56 -26 -99.5t-76.5 -68t-117.5 -24.5zM422 104q30 30 30 76
q0 40 -17 65t-47 41t-68.5 28.5t-81.5 27.5q-24 7 -42.5 16t-34.5 18q-30 -30 -30 -76q0 -40 17 -65t47 -41t68.5 -28.5t81.5 -27.5q23 -7 42 -16t35 -18z" />
    <glyph glyph-name="dieresis" unicode="&#xa8;" horiz-adv-x="322" 
d="M242 571q-21 0 -35.5 14.5t-14.5 35.5q0 20 14.5 35t35.5 15q20 0 34.5 -15t14.5 -35q0 -21 -14.5 -35.5t-34.5 -14.5zM81 571q-21 0 -35 14.5t-14 35.5q0 20 14 35t35 15t35.5 -15t14.5 -35q0 -21 -14.5 -35.5t-35.5 -14.5z" />
    <glyph glyph-name="copyright" unicode="&#xa9;" horiz-adv-x="794" 
d="M397 -4q-103 0 -181 45.5t-121.5 125.5t-43.5 183q0 104 43.5 184t121.5 125t181 45t181 -45t121.5 -125t43.5 -184q0 -103 -43.5 -183t-121.5 -125.5t-181 -45.5zM397 33q94 0 163 40t106.5 112t37.5 165q0 95 -37.5 166.5t-106.5 111.5t-163 40t-163 -40t-106.5 -111.5
t-37.5 -166.5q0 -93 37.5 -165t106.5 -112t163 -40zM397 119q-60 0 -109 27t-78.5 79.5t-29.5 125.5t29.5 125t78.5 79.5t109 27.5q74 0 130 -39.5t75 -113.5h-77q-14 45 -49 68.5t-80 23.5q-58 0 -100 -43t-42 -129q0 -85 42 -128t100 -43q98 0 129 91h77
q-19 -70 -75 -110.5t-130 -40.5z" />
    <glyph glyph-name="ordfeminine" unicode="&#xaa;" horiz-adv-x="448" 
d="M201 347q-48 0 -86 23.5t-59.5 64.5t-21.5 94q0 54 21.5 94.5t58.5 63t85 22.5q51 0 85 -21.5t49 -53.5l7 69h60v-350h-60l-7 69q-14 -33 -48 -54t-84 -21zM217 400q49 0 82.5 34t33.5 94q0 61 -33.5 94.5t-82.5 33.5q-47 0 -80.5 -33.5t-33.5 -93.5q0 -61 33.5 -95
t80.5 -34z" />
    <glyph glyph-name="guillemotleft" unicode="&#xab;" horiz-adv-x="452" 
d="M319 120l-97 175l97 175h83l-100 -175l100 -175h-83zM141 120l-97 175l97 175h83l-100 -175l100 -175h-83z" />
    <glyph glyph-name="logicalnot" unicode="&#xac;" horiz-adv-x="660" 
d="M531 223v142h-486v67h570v-209h-84z" />
    <glyph glyph-name="uni00AD" unicode="&#xad;" horiz-adv-x="600" 
d="M59 255v71h396v-71h-396z" />
    <glyph glyph-name="registered" unicode="&#xae;" horiz-adv-x="504" 
d="M253 307q-59 0 -104.5 26t-71 72t-25.5 104t25.5 104t71 72.5t104.5 26.5q58 0 103 -26.5t70.5 -72.5t25.5 -104t-25.5 -104t-70.5 -72t-103 -26zM253 343q72 0 116 46.5t44 119.5t-44 119.5t-116 46.5q-74 0 -118 -46.5t-44 -119.5t44 -119.5t118 -46.5zM173 403v215h95
q34 0 53.5 -17.5t19.5 -48.5q0 -24 -13.5 -40.5t-36.5 -22.5l58 -85l-56 -1l-52 84h-21v-84h-47zM220 525h44q13 0 21.5 6t8.5 20q0 13 -8.5 19t-21.5 6h-44v-51z" />
    <glyph glyph-name="macron" unicode="&#xaf;" horiz-adv-x="392" 
d="M22 592v63h348v-63h-348z" />
    <glyph glyph-name="degree" unicode="&#xb0;" horiz-adv-x="343" 
d="M171 444q-54 0 -93 36t-39 97q0 41 18.5 71.5t48.5 47t66 16.5q53 0 92 -36.5t39 -98.5q0 -40 -18 -70t-48 -46.5t-66 -16.5zM171 506q24 0 45.5 18t21.5 54t-21 54t-45 18q-25 0 -46 -18t-21 -54t20.5 -54t45.5 -18z" />
    <glyph glyph-name="plusminus" unicode="&#xb1;" horiz-adv-x="603" 
d="M64 266v71h200v141h75v-141h200v-71h-200v-141h-75v141h-200zM64 0v73h475v-73h-475z" />
    <glyph glyph-name="uni00B2" unicode="&#xb2;" horiz-adv-x="330" 
d="M35 352v48l112 92q29 24 48.5 49t19.5 59q0 30 -16 44.5t-39 14.5q-53 0 -60 -59h-67q3 46 36 78t95 32q57 0 89.5 -31.5t32.5 -75.5q0 -41 -24.5 -72t-71.5 -65l-81 -60h181v-54h-255z" />
    <glyph glyph-name="uni00B3" unicode="&#xb3;" horiz-adv-x="330" 
d="M161 347q-60 0 -95 27.5t-40 79.5h67q4 -32 22.5 -44t44.5 -12q30 0 47.5 14.5t17.5 39.5q0 27 -19.5 41.5t-48.5 14.5h-46v41h45q29 0 47.5 14t18.5 41q0 25 -17 39.5t-46 14.5t-44.5 -12.5t-21.5 -34.5h-63q4 42 39 70.5t96 28.5q54 0 91 -29t37 -73q0 -31 -17.5 -51
t-47.5 -28v-2q29 -9 48.5 -29.5t19.5 -53.5q0 -40 -36 -68.5t-99 -28.5z" />
    <glyph glyph-name="acute" unicode="&#xb4;" horiz-adv-x="254" 
d="M22 537v63l210 127v-73z" />
    <glyph glyph-name="uni00B5" unicode="&#xb5;" horiz-adv-x="583" 
d="M69 -220v716h84v-281q0 -155 128 -155q64 0 106.5 46.5t42.5 132.5v257h84v-496h-76l-5 88q-24 -46 -69.5 -73t-102.5 -27q-66 0 -108 32v-240h-84z" />
    <glyph glyph-name="paragraph" unicode="&#xb6;" horiz-adv-x="586" 
d="M282 -100v395h-10q-82 0 -134 27t-77 72.5t-25 102.5t25.5 103t77.5 73t133 27h240v-800h-74v734h-82v-734h-74z" />
    <glyph glyph-name="periodcentered" unicode="&#xb7;" horiz-adv-x="195" 
d="M98 285q-25 0 -41.5 16.5t-16.5 40.5q0 25 16.5 41t41.5 16q24 0 40.5 -16t16.5 -41q0 -24 -16.5 -40.5t-40.5 -16.5z" />
    <glyph glyph-name="cedilla" unicode="&#xb8;" horiz-adv-x="272" 
d="M22 -259v53h92q68 0 68 48q0 45 -68 45h-49v120h56v-70q57 1 93 -23t36 -73q0 -47 -34 -73.5t-86 -26.5h-108z" />
    <glyph glyph-name="uni00B9" unicode="&#xb9;" horiz-adv-x="204" 
d="M95 352v286l-67 -18v42l90 42h44v-352h-67z" />
    <glyph glyph-name="ordmasculine" unicode="&#xba;" horiz-adv-x="433" 
d="M216 348q-53 0 -94 23t-64.5 64t-23.5 95q0 55 24 96t65.5 63.5t93.5 22.5q53 0 94.5 -22.5t65 -63.5t23.5 -96q0 -54 -24 -95t-66 -64t-94 -23zM216 403q46 0 80.5 32.5t34.5 94.5q0 63 -34 96t-81 33q-46 0 -79.5 -33t-33.5 -96q0 -62 33 -94.5t80 -32.5z" />
    <glyph glyph-name="guillemotright" unicode="&#xbb;" horiz-adv-x="452" 
d="M228 120l100 175l-100 175h83l97 -175l-97 -175h-83zM50 120l100 175l-100 175h83l97 -175l-97 -175h-83z" />
    <glyph glyph-name="onequarter" unicode="&#xbc;" horiz-adv-x="625" 
d="M105 352v286l-67 -18v42l91 42h43v-352h-67zM61 0l370 700h79l-368 -700h-81zM476 0v70h-181v39l160 245h88v-241h48v-43h-48v-70h-67zM362 114h116v178z" />
    <glyph glyph-name="onehalf" unicode="&#xbd;" horiz-adv-x="674" 
d="M105 352v286l-67 -18v42l91 42h43v-352h-67zM57 0l363 700h81l-363 -700h-81zM365 -1v48l113 92q28 24 48 49t20 59q0 30 -16 44.5t-39 14.5q-53 0 -60 -59h-67q3 46 35.5 78t94.5 32q57 0 89.5 -31.5t32.5 -75.5q0 -41 -24 -72t-71 -65l-81 -60h181v-54h-256z" />
    <glyph glyph-name="threequarters" unicode="&#xbe;" horiz-adv-x="716" 
d="M175 347q-61 0 -96 27.5t-39 79.5h66q4 -32 22.5 -44t45.5 -12q29 0 46.5 14.5t17.5 39.5q0 27 -19 41.5t-49 14.5h-46v41h45q29 0 48 14t19 41q0 25 -17 39.5t-46 14.5t-45 -12.5t-21 -34.5h-64q5 42 39.5 70.5t95.5 28.5q55 0 92 -29t37 -73q0 -31 -17.5 -51t-47.5 -28
v-2q29 -9 48 -29.5t19 -53.5q0 -40 -36 -68.5t-98 -28.5zM154 0l378 700h79l-377 -700h-80zM567 0v70h-181v39l159 245h89v-241h48v-43h-48v-70h-67zM453 113h116v180z" />
    <glyph glyph-name="questiondown" unicode="&#xbf;" horiz-adv-x="516" 
d="M328 439q-24 0 -40.5 16.5t-16.5 40.5t16.5 41t40.5 17q25 0 41.5 -17t16.5 -41t-16.5 -40.5t-41.5 -16.5zM264 -164q-65 0 -114.5 25.5t-77.5 71.5t-28 109q0 74 31.5 119.5t86.5 67t126 21.5l3 103h73l4 -162h-31q-56 0 -104.5 -10.5t-78.5 -42.5t-30 -96q0 -62 39 -98
t101 -36q64 0 101 34.5t37 94.5h80q1 -60 -26.5 -105.5t-77 -70.5t-114.5 -25z" />
    <glyph glyph-name="Agrave" unicode="&#xc0;" horiz-adv-x="664" 
d="M30 0l258 700h89l257 -700h-89l-64 180h-298l-65 -180h-88zM208 248h248l-124 346zM377 741l-210 117v73l210 -127v-63z" />
    <glyph glyph-name="Aacute" unicode="&#xc1;" horiz-adv-x="664" 
d="M30 0l258 700h89l257 -700h-89l-64 180h-298l-65 -180h-88zM208 248h248l-124 346zM288 741v63l210 127v-73z" />
    <glyph glyph-name="Acircumflex" unicode="&#xc2;" horiz-adv-x="664" 
d="M30 0l258 700h89l257 -700h-89l-64 180h-298l-65 -180h-88zM208 248h248l-124 346zM196 755v66l137 81l137 -81v-66l-137 84z" />
    <glyph glyph-name="Atilde" unicode="&#xc3;" horiz-adv-x="664" 
d="M30 0l258 700h89l257 -700h-89l-64 180h-298l-65 -180h-88zM208 248h248l-124 346zM397 756q-27 0 -45 12t-33.5 23.5t-36.5 11.5q-36 0 -42 -45h-49q7 51 32 76t63 25q26 0 44 -12t33.5 -23.5t37.5 -11.5q16 0 28 11t15 34h49q-6 -49 -32 -75t-64 -26z" />
    <glyph glyph-name="Adieresis" unicode="&#xc4;" horiz-adv-x="664" 
d="M30 0l258 700h89l257 -700h-89l-64 180h-298l-65 -180h-88zM208 248h248l-124 346zM414 775q-21 0 -35.5 14.5t-14.5 35.5q0 20 14.5 35t35.5 15t35 -15t14 -35q0 -21 -14 -35.5t-35 -14.5zM254 775q-21 0 -35.5 14.5t-14.5 35.5q0 20 14.5 35t35.5 15q20 0 35 -15
t15 -35q0 -21 -15 -35.5t-35 -14.5z" />
    <glyph glyph-name="Aring" unicode="&#xc5;" horiz-adv-x="664" 
d="M30 0l258 700h89l257 -700h-89l-64 180h-298l-65 -180h-88zM208 248h248l-124 346zM333 761q-43 0 -74 27.5t-31 75.5t31 75.5t74 27.5q44 0 74.5 -27.5t30.5 -75.5t-30.5 -75.5t-74.5 -27.5zM333 804q24 0 40.5 16.5t16.5 43.5t-16.5 43t-40.5 16t-40.5 -16t-16.5 -43
t16.5 -43.5t40.5 -16.5z" />
    <glyph glyph-name="AE" unicode="&#xc6;" horiz-adv-x="911" 
d="M30 0l399 700h425v-67h-289v-247h259v-66h-259v-253h289v-67h-373v159h-269l-90 -159h-92zM481 631l-231 -405h231v405z" />
    <glyph glyph-name="Ccedilla" unicode="&#xc7;" horiz-adv-x="720" 
d="M381 -12q-103 0 -177.5 45.5t-115.5 127t-41 189.5q0 107 41 188.5t115.5 127.5t177.5 46q120 0 195.5 -57.5t96.5 -160.5h-93q-16 65 -65.5 104.5t-133.5 39.5q-75 0 -131 -34.5t-86.5 -99t-30.5 -154.5t30.5 -154.5t86.5 -99t131 -34.5q84 0 133.5 38.5t65.5 102.5h93
q-21 -101 -96.5 -158t-195.5 -57zM315 -260v53h92q68 0 68 48q0 45 -68 45h-49v120h56v-70q57 1 93 -23t36 -73q0 -47 -34 -73.5t-87 -26.5h-107z" />
    <glyph glyph-name="Egrave" unicode="&#xc8;" horiz-adv-x="564" 
d="M74 0v700h433v-69h-349v-244h319v-68h-319v-250h349v-69h-433zM340 741l-210 117v73l210 -127v-63z" />
    <glyph glyph-name="Eacute" unicode="&#xc9;" horiz-adv-x="564" 
d="M74 0v700h433v-69h-349v-244h319v-68h-319v-250h349v-69h-433zM251 741v63l210 127v-73z" />
    <glyph glyph-name="Ecircumflex" unicode="&#xca;" horiz-adv-x="564" 
d="M74 0v700h433v-69h-349v-244h319v-68h-319v-250h349v-69h-433zM158 755v66l137 81l137 -81v-66l-137 84z" />
    <glyph glyph-name="Edieresis" unicode="&#xcb;" horiz-adv-x="564" 
d="M74 0v700h433v-69h-349v-244h319v-68h-319v-250h349v-69h-433zM376 775q-21 0 -35.5 14.5t-14.5 35.5q0 20 14.5 35t35.5 15t35 -15t14 -35q0 -21 -14 -35.5t-35 -14.5zM216 775q-21 0 -35.5 14.5t-14.5 35.5q0 20 14.5 35t35.5 15q20 0 35 -15t15 -35q0 -21 -15 -35.5
t-35 -14.5z" />
    <glyph glyph-name="Igrave" unicode="&#xcc;" horiz-adv-x="232" 
d="M74 0v700h84v-700h-84zM161 741l-210 117v73l210 -127v-63z" />
    <glyph glyph-name="Iacute" unicode="&#xcd;" horiz-adv-x="232" 
d="M74 0v700h84v-700h-84zM71 741v63l210 127v-73z" />
    <glyph glyph-name="Icircumflex" unicode="&#xce;" horiz-adv-x="232" 
d="M74 0v700h84v-700h-84zM-21 755v66l137 81l137 -81v-66l-137 84z" />
    <glyph glyph-name="Idieresis" unicode="&#xcf;" horiz-adv-x="232" 
d="M74 0v700h84v-700h-84zM197 775q-21 0 -35.5 14.5t-14.5 35.5q0 20 14.5 35t35.5 15t35 -15t14 -35q0 -21 -14 -35.5t-35 -14.5zM37 775q-21 0 -35.5 14.5t-14.5 35.5q0 20 14.5 35t35.5 15q20 0 35 -15t15 -35q0 -21 -15 -35.5t-35 -14.5z" />
    <glyph glyph-name="Eth" unicode="&#xd0;" horiz-adv-x="717" 
d="M95 0v311h-87v76h87v313h215q185 0 272.5 -94t87.5 -258q0 -161 -87.5 -254.5t-272.5 -93.5h-215zM179 70h130q101 0 161.5 33.5t87 96t26.5 148.5q0 88 -26.5 151t-87 97t-161.5 34h-130v-243h202v-76h-202v-241z" />
    <glyph glyph-name="Ntilde" unicode="&#xd1;" horiz-adv-x="689" 
d="M74 0v700h84l373 -561v561h84v-700h-84l-373 561v-561h-84zM410 756q-27 0 -45 12t-33.5 23.5t-36.5 11.5q-36 0 -42 -45h-49q7 51 32 76t63 25q26 0 44 -12t33.5 -23.5t37.5 -11.5q16 0 28 11t15 34h49q-6 -49 -32 -75t-64 -26z" />
    <glyph glyph-name="Ograve" unicode="&#xd2;" horiz-adv-x="784" 
d="M392 -12q-103 0 -180.5 45.5t-121 127.5t-43.5 189t43.5 188.5t121 127.5t180.5 46q104 0 181.5 -46t120.5 -127.5t43 -188.5t-43 -189t-120.5 -127.5t-181.5 -45.5zM392 62q77 0 135.5 34.5t91 99t32.5 154.5t-32.5 154t-91 98.5t-135.5 34.5t-135.5 -34.5t-91 -98.5
t-32.5 -154t32.5 -154.5t91 -99t135.5 -34.5zM437 741l-210 117v73l210 -127v-63z" />
    <glyph glyph-name="Oacute" unicode="&#xd3;" horiz-adv-x="784" 
d="M392 -12q-103 0 -180.5 45.5t-121 127.5t-43.5 189t43.5 188.5t121 127.5t180.5 46q104 0 181.5 -46t120.5 -127.5t43 -188.5t-43 -189t-120.5 -127.5t-181.5 -45.5zM392 62q77 0 135.5 34.5t91 99t32.5 154.5t-32.5 154t-91 98.5t-135.5 34.5t-135.5 -34.5t-91 -98.5
t-32.5 -154t32.5 -154.5t91 -99t135.5 -34.5zM348 741v63l210 127v-73z" />
    <glyph glyph-name="Ocircumflex" unicode="&#xd4;" horiz-adv-x="784" 
d="M392 -12q-103 0 -180.5 45.5t-121 127.5t-43.5 189t43.5 188.5t121 127.5t180.5 46q104 0 181.5 -46t120.5 -127.5t43 -188.5t-43 -189t-120.5 -127.5t-181.5 -45.5zM392 62q77 0 135.5 34.5t91 99t32.5 154.5t-32.5 154t-91 98.5t-135.5 34.5t-135.5 -34.5t-91 -98.5
t-32.5 -154t32.5 -154.5t91 -99t135.5 -34.5zM255 755v66l137 81l137 -81v-66l-137 84z" />
    <glyph glyph-name="Otilde" unicode="&#xd5;" horiz-adv-x="784" 
d="M392 -12q-103 0 -180.5 45.5t-121 127.5t-43.5 189t43.5 188.5t121 127.5t180.5 46q104 0 181.5 -46t120.5 -127.5t43 -188.5t-43 -189t-120.5 -127.5t-181.5 -45.5zM392 62q77 0 135.5 34.5t91 99t32.5 154.5t-32.5 154t-91 98.5t-135.5 34.5t-135.5 -34.5t-91 -98.5
t-32.5 -154t32.5 -154.5t91 -99t135.5 -34.5zM457 756q-27 0 -45 12t-33.5 23.5t-36.5 11.5q-36 0 -42 -45h-49q7 51 32 76t63 25q26 0 44 -12t33.5 -23.5t37.5 -11.5q16 0 28 11t15 34h49q-6 -49 -32 -75t-64 -26z" />
    <glyph glyph-name="Odieresis" unicode="&#xd6;" horiz-adv-x="784" 
d="M392 -12q-103 0 -180.5 45.5t-121 127.5t-43.5 189t43.5 188.5t121 127.5t180.5 46q104 0 181.5 -46t120.5 -127.5t43 -188.5t-43 -189t-120.5 -127.5t-181.5 -45.5zM392 62q77 0 135.5 34.5t91 99t32.5 154.5t-32.5 154t-91 98.5t-135.5 34.5t-135.5 -34.5t-91 -98.5
t-32.5 -154t32.5 -154.5t91 -99t135.5 -34.5zM473 775q-21 0 -35.5 14.5t-14.5 35.5q0 20 14.5 35t35.5 15t35 -15t14 -35q0 -21 -14 -35.5t-35 -14.5zM313 775q-21 0 -35.5 14.5t-14.5 35.5q0 20 14.5 35t35.5 15q20 0 35 -15t15 -35q0 -21 -15 -35.5t-35 -14.5z" />
    <glyph glyph-name="multiply" unicode="&#xd7;" horiz-adv-x="495" 
d="M113 106l-50 50l134 135l-129 129l51 50l129 -129l134 135l50 -50l-134 -135l129 -129l-51 -50l-129 129z" />
    <glyph glyph-name="Oslash" unicode="&#xd8;" horiz-adv-x="786" 
d="M39 0l91 102q-40 47 -61.5 110t-21.5 138q0 107 43.5 188.5t121 127.5t180.5 46q64 0 118.5 -18t96.5 -51l51 57h89l-92 -104q39 -47 60.5 -109.5t21.5 -136.5q0 -107 -43 -189t-120.5 -127.5t-181.5 -45.5q-63 0 -117 17.5t-96 50.5l-50 -56h-90zM133 350
q0 -57 13.5 -103.5t37.5 -82.5l371 420q-66 53 -163 53q-77 0 -135.5 -34.5t-91 -98.5t-32.5 -154zM392 62q77 0 135.5 34.5t91 99t32.5 154.5q0 56 -13 102.5t-37 81.5l-370 -419q65 -53 161 -53z" />
    <glyph glyph-name="Ugrave" unicode="&#xd9;" horiz-adv-x="656" 
d="M327 -12q-72 0 -130.5 28.5t-93.5 88.5t-35 153v442h84v-443q0 -102 49 -148t128 -46t127 46t48 148v443h84v-442q0 -93 -35 -153t-94 -88.5t-132 -28.5zM372 741l-210 117v73l210 -127v-63z" />
    <glyph glyph-name="Uacute" unicode="&#xda;" horiz-adv-x="656" 
d="M327 -12q-72 0 -130.5 28.5t-93.5 88.5t-35 153v442h84v-443q0 -102 49 -148t128 -46t127 46t48 148v443h84v-442q0 -93 -35 -153t-94 -88.5t-132 -28.5zM282 741v63l210 127v-73z" />
    <glyph glyph-name="Ucircumflex" unicode="&#xdb;" horiz-adv-x="656" 
d="M327 -12q-72 0 -130.5 28.5t-93.5 88.5t-35 153v442h84v-443q0 -102 49 -148t128 -46t127 46t48 148v443h84v-442q0 -93 -35 -153t-94 -88.5t-132 -28.5zM190 755v66l137 81l137 -81v-66l-137 84z" />
    <glyph glyph-name="Udieresis" unicode="&#xdc;" horiz-adv-x="656" 
d="M327 -12q-72 0 -130.5 28.5t-93.5 88.5t-35 153v442h84v-443q0 -102 49 -148t128 -46t127 46t48 148v443h84v-442q0 -93 -35 -153t-94 -88.5t-132 -28.5zM408 775q-21 0 -35.5 14.5t-14.5 35.5q0 20 14.5 35t35.5 15t35 -15t14 -35q0 -21 -14 -35.5t-35 -14.5zM248 775
q-21 0 -35.5 14.5t-14.5 35.5q0 20 14.5 35t35.5 15q20 0 35 -15t15 -35q0 -21 -15 -35.5t-35 -14.5z" />
    <glyph glyph-name="Yacute" unicode="&#xdd;" horiz-adv-x="579" 
d="M248 0v266l-228 434h95l175 -354l175 354h94l-227 -434v-266h-84zM246 741v63l210 127v-73z" />
    <glyph glyph-name="Thorn" unicode="&#xde;" horiz-adv-x="579" 
d="M74 0v700h84v-146h146q82 0 135 -26.5t78.5 -73t25.5 -104.5q0 -57 -25 -103t-78 -73t-136 -27h-146v-147h-84zM158 217h144q84 0 119.5 36t35.5 97q0 64 -35.5 99t-119.5 35h-144v-267z" />
    <glyph glyph-name="germandbls" unicode="&#xdf;" horiz-adv-x="664" 
d="M441 -10q-86 0 -140.5 47.5t-62.5 131.5h83q4 -51 35.5 -82t83.5 -31q48 0 74.5 23.5t26.5 64.5q0 37 -23 60.5t-80 41.5q-79 27 -113.5 55t-34.5 74q0 30 14.5 49.5t35.5 33.5t42.5 27.5t35.5 31.5t14 45q0 46 -35.5 72.5t-96.5 26.5q-75 0 -110.5 -40t-35.5 -109v-512
h-83v520q0 61 26 109t77.5 75.5t127.5 27.5q69 0 117 -22.5t72.5 -59.5t24.5 -81q0 -35 -14 -58t-35 -38.5t-42 -28t-35.5 -26t-14.5 -32.5q0 -23 22.5 -40t91.5 -39q73 -25 105 -62.5t32 -94.5q0 -71 -49.5 -115.5t-135.5 -44.5z" />
    <glyph glyph-name="agrave" unicode="&#xe0;" horiz-adv-x="541" 
d="M234 -12q-62 0 -103 21t-61 56t-20 76q0 76 58 117t158 41h134v6q0 65 -34 98.5t-91 33.5q-49 0 -84.5 -24.5t-44.5 -71.5h-86q5 54 36.5 91t78.5 56.5t100 19.5q104 0 156.5 -55.5t52.5 -147.5v-305h-75l-5 89q-21 -42 -61.5 -71.5t-108.5 -29.5zM247 59q48 0 82.5 25
t52.5 65t18 84v1h-127q-74 0 -104.5 -25.5t-30.5 -63.5q0 -39 28.5 -62.5t80.5 -23.5zM316 537l-210 117v73l210 -127v-63z" />
    <glyph glyph-name="aacute" unicode="&#xe1;" horiz-adv-x="541" 
d="M234 -12q-62 0 -103 21t-61 56t-20 76q0 76 58 117t158 41h134v6q0 65 -34 98.5t-91 33.5q-49 0 -84.5 -24.5t-44.5 -71.5h-86q5 54 36.5 91t78.5 56.5t100 19.5q104 0 156.5 -55.5t52.5 -147.5v-305h-75l-5 89q-21 -42 -61.5 -71.5t-108.5 -29.5zM247 59q48 0 82.5 25
t52.5 65t18 84v1h-127q-74 0 -104.5 -25.5t-30.5 -63.5q0 -39 28.5 -62.5t80.5 -23.5zM249 537v63l210 127v-73z" />
    <glyph glyph-name="acircumflex" unicode="&#xe2;" horiz-adv-x="541" 
d="M234 -12q-62 0 -103 21t-61 56t-20 76q0 76 58 117t158 41h134v6q0 65 -34 98.5t-91 33.5q-49 0 -84.5 -24.5t-44.5 -71.5h-86q5 54 36.5 91t78.5 56.5t100 19.5q104 0 156.5 -55.5t52.5 -147.5v-305h-75l-5 89q-21 -42 -61.5 -71.5t-108.5 -29.5zM247 59q48 0 82.5 25
t52.5 65t18 84v1h-127q-74 0 -104.5 -25.5t-30.5 -63.5q0 -39 28.5 -62.5t80.5 -23.5zM135 551v66l137 81l137 -81v-66l-137 84z" />
    <glyph glyph-name="atilde" unicode="&#xe3;" horiz-adv-x="541" 
d="M234 -12q-62 0 -103 21t-61 56t-20 76q0 76 58 117t158 41h134v6q0 65 -34 98.5t-91 33.5q-49 0 -84.5 -24.5t-44.5 -71.5h-86q5 54 36.5 91t78.5 56.5t100 19.5q104 0 156.5 -55.5t52.5 -147.5v-305h-75l-5 89q-21 -42 -61.5 -71.5t-108.5 -29.5zM247 59q48 0 82.5 25
t52.5 65t18 84v1h-127q-74 0 -104.5 -25.5t-30.5 -63.5q0 -39 28.5 -62.5t80.5 -23.5zM326 552q-27 0 -44.5 12t-33.5 23.5t-36 11.5q-37 0 -43 -45h-49q7 51 32.5 76t62.5 25q27 0 44.5 -12t33.5 -23.5t37 -11.5q17 0 29 11t15 34h48q-5 -49 -31.5 -75t-64.5 -26z" />
    <glyph glyph-name="adieresis" unicode="&#xe4;" horiz-adv-x="541" 
d="M234 -12q-62 0 -103 21t-61 56t-20 76q0 76 58 117t158 41h134v6q0 65 -34 98.5t-91 33.5q-49 0 -84.5 -24.5t-44.5 -71.5h-86q5 54 36.5 91t78.5 56.5t100 19.5q104 0 156.5 -55.5t52.5 -147.5v-305h-75l-5 89q-21 -42 -61.5 -71.5t-108.5 -29.5zM247 59q48 0 82.5 25
t52.5 65t18 84v1h-127q-74 0 -104.5 -25.5t-30.5 -63.5q0 -39 28.5 -62.5t80.5 -23.5zM353 571q-21 0 -35.5 14.5t-14.5 35.5q0 20 14.5 35t35.5 15q20 0 34.5 -15t14.5 -35q0 -21 -14.5 -35.5t-34.5 -14.5zM192 571q-21 0 -35 14.5t-14 35.5q0 20 14 35t35 15t35.5 -15
t14.5 -35q0 -21 -14.5 -35.5t-35.5 -14.5z" />
    <glyph glyph-name="aring" unicode="&#xe5;" horiz-adv-x="541" 
d="M234 -12q-62 0 -103 21t-61 56t-20 76q0 76 58 117t158 41h134v6q0 65 -34 98.5t-91 33.5q-49 0 -84.5 -24.5t-44.5 -71.5h-86q5 54 36.5 91t78.5 56.5t100 19.5q104 0 156.5 -55.5t52.5 -147.5v-305h-75l-5 89q-21 -42 -61.5 -71.5t-108.5 -29.5zM247 59q48 0 82.5 25
t52.5 65t18 84v1h-127q-74 0 -104.5 -25.5t-30.5 -63.5q0 -39 28.5 -62.5t80.5 -23.5zM272 557q-43 0 -74 27.5t-31 75.5t31 75.5t74 27.5q44 0 74.5 -27.5t30.5 -75.5t-30.5 -75.5t-74.5 -27.5zM272 600q24 0 40.5 16.5t16.5 43.5t-16.5 43t-40.5 16q-23 0 -40 -16t-17 -43
t17 -43.5t40 -16.5z" />
    <glyph glyph-name="ae" unicode="&#xe6;" horiz-adv-x="913" 
d="M237 -12q-63 0 -104.5 21t-62 56t-20.5 76q0 76 57.5 116t153.5 40h138v8q0 65 -34.5 98.5t-87.5 33.5q-45 0 -79.5 -24.5t-42.5 -71.5h-87q6 54 37 91t76.5 56.5t95.5 19.5q63 0 108.5 -24t69.5 -67q32 44 80.5 67.5t106.5 23.5q70 0 121.5 -32t79.5 -84.5t28 -113.5
q0 -10 -0.5 -21t-1.5 -25h-385q2 -58 25 -96.5t58.5 -57.5t72.5 -19q56 0 91 28t51 76h81q-18 -75 -76 -125t-146 -50q-66 0 -120 31.5t-85 86.5q-29 -50 -78.5 -84t-120.5 -34zM485 297h303q-4 66 -46 103t-100 37t-103.5 -36t-53.5 -104zM243 59q42 0 75.5 22t54.5 56.5
t25 74.5v20h-129q-71 0 -101 -24t-30 -62q0 -39 28 -63t77 -24z" />
    <glyph glyph-name="ccedilla" unicode="&#xe7;" horiz-adv-x="570" 
d="M297 -12q-71 0 -127.5 32.5t-89 91t-32.5 136.5t32.5 136.5t89 91t127.5 32.5q88 0 148.5 -46t76.5 -123h-86q-10 46 -49 71.5t-91 25.5q-42 0 -79 -21t-60 -63t-23 -104t23 -104t60 -63.5t79 -21.5q52 0 91 25.5t49 72.5h86q-15 -75 -76 -122t-149 -47zM225 -260v53h92
q68 0 68 48q0 45 -68 45h-49v120h56v-70q57 1 93 -23t36 -73q0 -47 -34 -73.5t-86 -26.5h-108z" />
    <glyph glyph-name="egrave" unicode="&#xe8;" horiz-adv-x="569" 
d="M292 -12q-71 0 -126 32.5t-86.5 90.5t-31.5 137q0 78 31 136.5t86.5 91t128.5 32.5q72 0 124.5 -32.5t80.5 -85.5t28 -114q0 -11 -0.5 -22t-0.5 -25h-395q3 -57 26.5 -94.5t59 -56.5t75.5 -19q52 0 87 24t51 65h83q-20 -69 -76.5 -114.5t-144.5 -45.5zM292 437
q-60 0 -106.5 -36.5t-53.5 -106.5h312q-3 67 -46 105t-106 38zM336 537l-210 117v73l210 -127v-63z" />
    <glyph glyph-name="eacute" unicode="&#xe9;" horiz-adv-x="569" 
d="M292 -12q-71 0 -126 32.5t-86.5 90.5t-31.5 137q0 78 31 136.5t86.5 91t128.5 32.5q72 0 124.5 -32.5t80.5 -85.5t28 -114q0 -11 -0.5 -22t-0.5 -25h-395q3 -57 26.5 -94.5t59 -56.5t75.5 -19q52 0 87 24t51 65h83q-20 -69 -76.5 -114.5t-144.5 -45.5zM292 437
q-60 0 -106.5 -36.5t-53.5 -106.5h312q-3 67 -46 105t-106 38zM269 537v63l210 127v-73z" />
    <glyph glyph-name="ecircumflex" unicode="&#xea;" horiz-adv-x="569" 
d="M292 -12q-71 0 -126 32.5t-86.5 90.5t-31.5 137q0 78 31 136.5t86.5 91t128.5 32.5q72 0 124.5 -32.5t80.5 -85.5t28 -114q0 -11 -0.5 -22t-0.5 -25h-395q3 -57 26.5 -94.5t59 -56.5t75.5 -19q52 0 87 24t51 65h83q-20 -69 -76.5 -114.5t-144.5 -45.5zM292 437
q-60 0 -106.5 -36.5t-53.5 -106.5h312q-3 67 -46 105t-106 38zM154 551v66l137 81l137 -81v-66l-137 84z" />
    <glyph glyph-name="edieresis" unicode="&#xeb;" horiz-adv-x="569" 
d="M292 -12q-71 0 -126 32.5t-86.5 90.5t-31.5 137q0 78 31 136.5t86.5 91t128.5 32.5q72 0 124.5 -32.5t80.5 -85.5t28 -114q0 -11 -0.5 -22t-0.5 -25h-395q3 -57 26.5 -94.5t59 -56.5t75.5 -19q52 0 87 24t51 65h83q-20 -69 -76.5 -114.5t-144.5 -45.5zM292 437
q-60 0 -106.5 -36.5t-53.5 -106.5h312q-3 67 -46 105t-106 38zM373 571q-21 0 -35.5 14.5t-14.5 35.5q0 20 14.5 35t35.5 15q20 0 34.5 -15t14.5 -35q0 -21 -14.5 -35.5t-34.5 -14.5zM212 571q-21 0 -35 14.5t-14 35.5q0 20 14 35t35 15t35.5 -15t14.5 -35
q0 -21 -14.5 -35.5t-35.5 -14.5z" />
    <glyph glyph-name="igrave" unicode="&#xec;" horiz-adv-x="222" 
d="M69 0v496h84v-496h-84zM156 537l-210 117v73l210 -127v-63z" />
    <glyph glyph-name="iacute" unicode="&#xed;" horiz-adv-x="222" 
d="M69 0v496h84v-496h-84zM88 537v63l210 127v-73z" />
    <glyph glyph-name="icircumflex" unicode="&#xee;" horiz-adv-x="222" 
d="M69 0v496h84v-496h-84zM-26 551v66l137 81l137 -81v-66l-137 84z" />
    <glyph glyph-name="idieresis" unicode="&#xef;" horiz-adv-x="222" 
d="M69 0v496h84v-496h-84zM192 571q-21 0 -35.5 14.5t-14.5 35.5q0 20 14.5 35t35.5 15q20 0 34.5 -15t14.5 -35q0 -21 -14.5 -35.5t-34.5 -14.5zM31 571q-21 0 -35 14.5t-14 35.5q0 20 14 35t35 15t35.5 -15t14.5 -35q0 -21 -14.5 -35.5t-35.5 -14.5z" />
    <glyph glyph-name="eth" unicode="&#xf0;" horiz-adv-x="626" 
d="M311 -12q-77 0 -136 35t-93 93.5t-34 130.5q0 75 34 134t92.5 92.5t130.5 33.5q49 0 96.5 -18t81.5 -60q-16 44 -39.5 86t-57.5 83l-134 -47v57l95 33q-29 30 -64 59h84q22 -18 41 -37l131 45v-57l-90 -32q129 -151 129 -347q0 -84 -35.5 -148t-96 -100t-135.5 -36z
M313 59q47 0 88 23t66 65.5t25 100.5t-25 100t-66 65t-88 23t-88 -23t-66 -65t-25 -100t25 -100.5t66 -65.5t88 -23z" />
    <glyph glyph-name="ntilde" unicode="&#xf1;" horiz-adv-x="572" 
d="M69 0v496h76l5 -89q24 47 69 74t102 27q88 0 140.5 -53.5t52.5 -164.5v-290h-84v281q0 155 -128 155q-64 0 -106.5 -46.5t-42.5 -132.5v-257h-84zM359 552q-27 0 -44.5 12t-33.5 23.5t-36 11.5q-37 0 -43 -45h-49q7 51 32.5 76t62.5 25q27 0 44.5 -12t33.5 -23.5
t37 -11.5q17 0 29 11t15 34h48q-5 -49 -31.5 -75t-64.5 -26z" />
    <glyph glyph-name="ograve" unicode="&#xf2;" horiz-adv-x="592" 
d="M295 -12q-70 0 -126 32t-88.5 90.5t-32.5 137.5t33 137.5t89.5 90.5t126.5 32t126 -32t88.5 -90.5t32.5 -137.5t-33 -137.5t-89.5 -90.5t-126.5 -32zM295 60q43 0 80 21t60 63t23 104t-22.5 104t-59.5 63t-79 21q-43 0 -80 -21t-60 -63t-23 -104t23 -104t59.5 -63
t78.5 -21zM342 537l-210 117v73l210 -127v-63z" />
    <glyph glyph-name="oacute" unicode="&#xf3;" horiz-adv-x="592" 
d="M295 -12q-70 0 -126 32t-88.5 90.5t-32.5 137.5t33 137.5t89.5 90.5t126.5 32t126 -32t88.5 -90.5t32.5 -137.5t-33 -137.5t-89.5 -90.5t-126.5 -32zM295 60q43 0 80 21t60 63t23 104t-22.5 104t-59.5 63t-79 21q-43 0 -80 -21t-60 -63t-23 -104t23 -104t59.5 -63
t78.5 -21zM274 537v63l210 127v-73z" />
    <glyph glyph-name="ocircumflex" unicode="&#xf4;" horiz-adv-x="592" 
d="M295 -12q-70 0 -126 32t-88.5 90.5t-32.5 137.5t33 137.5t89.5 90.5t126.5 32t126 -32t88.5 -90.5t32.5 -137.5t-33 -137.5t-89.5 -90.5t-126.5 -32zM295 60q43 0 80 21t60 63t23 104t-22.5 104t-59.5 63t-79 21q-43 0 -80 -21t-60 -63t-23 -104t23 -104t59.5 -63
t78.5 -21zM160 551v66l137 81l137 -81v-66l-137 84z" />
    <glyph glyph-name="otilde" unicode="&#xf5;" horiz-adv-x="592" 
d="M295 -12q-70 0 -126 32t-88.5 90.5t-32.5 137.5t33 137.5t89.5 90.5t126.5 32t126 -32t88.5 -90.5t32.5 -137.5t-33 -137.5t-89.5 -90.5t-126.5 -32zM295 60q43 0 80 21t60 63t23 104t-22.5 104t-59.5 63t-79 21q-43 0 -80 -21t-60 -63t-23 -104t23 -104t59.5 -63
t78.5 -21zM352 552q-27 0 -44.5 12t-33.5 23.5t-36 11.5q-37 0 -43 -45h-49q7 51 32.5 76t62.5 25q27 0 44.5 -12t33.5 -23.5t37 -11.5q17 0 29 11t15 34h48q-5 -49 -31.5 -75t-64.5 -26z" />
    <glyph glyph-name="odieresis" unicode="&#xf6;" horiz-adv-x="592" 
d="M295 -12q-70 0 -126 32t-88.5 90.5t-32.5 137.5t33 137.5t89.5 90.5t126.5 32t126 -32t88.5 -90.5t32.5 -137.5t-33 -137.5t-89.5 -90.5t-126.5 -32zM295 60q43 0 80 21t60 63t23 104t-22.5 104t-59.5 63t-79 21q-43 0 -80 -21t-60 -63t-23 -104t23 -104t59.5 -63
t78.5 -21zM378 571q-21 0 -35.5 14.5t-14.5 35.5q0 20 14.5 35t35.5 15q20 0 34.5 -15t14.5 -35q0 -21 -14.5 -35.5t-34.5 -14.5zM217 571q-21 0 -35 14.5t-14 35.5q0 20 14 35t35 15t35.5 -15t14.5 -35q0 -21 -14.5 -35.5t-35.5 -14.5z" />
    <glyph glyph-name="divide" unicode="&#xf7;" horiz-adv-x="524" 
d="M262 378q-25 0 -41.5 17t-16.5 41t16.5 40.5t41.5 16.5q24 0 40.5 -16.5t16.5 -40.5t-16.5 -41t-40.5 -17zM63 255v71h398v-71h-398zM262 89q-25 0 -41.5 16.5t-16.5 40.5t16.5 40.5t41.5 16.5q24 0 40.5 -16.5t16.5 -40.5t-16.5 -40.5t-40.5 -16.5z" />
    <glyph glyph-name="oslash" unicode="&#xf8;" horiz-adv-x="596" 
d="M43 0l64 74q-27 33 -42 77t-15 97q0 79 33 137.5t89.5 90.5t126.5 32q83 0 146 -45l29 33h79l-65 -74q27 -33 42.5 -77t15.5 -97q0 -79 -33 -137.5t-89.5 -90.5t-126.5 -32q-83 0 -146 45l-28 -33h-80zM134 248q0 -34 7 -62t20 -50l234 270q-41 32 -96 32
q-44 0 -81.5 -21t-60.5 -63.5t-23 -105.5zM297 58q43 0 80.5 21t61 63.5t23.5 105.5q0 34 -7.5 62t-19.5 50l-235 -270q42 -32 97 -32z" />
    <glyph glyph-name="ugrave" unicode="&#xf9;" horiz-adv-x="572" 
d="M250 -12q-88 0 -140 53.5t-52 164.5v290h84v-281q0 -155 127 -155q65 0 107.5 46.5t42.5 132.5v257h84v-496h-76l-6 89q-23 -47 -68.5 -74t-102.5 -27zM321 537l-210 117v73l210 -127v-63z" />
    <glyph glyph-name="uacute" unicode="&#xfa;" horiz-adv-x="572" 
d="M250 -12q-88 0 -140 53.5t-52 164.5v290h84v-281q0 -155 127 -155q65 0 107.5 46.5t42.5 132.5v257h84v-496h-76l-6 89q-23 -47 -68.5 -74t-102.5 -27zM232 537v63l210 127v-73z" />
    <glyph glyph-name="ucircumflex" unicode="&#xfb;" horiz-adv-x="572" 
d="M250 -12q-88 0 -140 53.5t-52 164.5v290h84v-281q0 -155 127 -155q65 0 107.5 46.5t42.5 132.5v257h84v-496h-76l-6 89q-23 -47 -68.5 -74t-102.5 -27zM140 551v66l137 81l137 -81v-66l-137 84z" />
    <glyph glyph-name="udieresis" unicode="&#xfc;" horiz-adv-x="572" 
d="M250 -12q-88 0 -140 53.5t-52 164.5v290h84v-281q0 -155 127 -155q65 0 107.5 46.5t42.5 132.5v257h84v-496h-76l-6 89q-23 -47 -68.5 -74t-102.5 -27zM357 571q-21 0 -35.5 14.5t-14.5 35.5q0 20 14.5 35t35.5 15t35 -15t14 -35q0 -21 -14 -35.5t-35 -14.5zM197 571
q-21 0 -35.5 14.5t-14.5 35.5q0 20 14.5 35t35.5 15q20 0 35 -15t15 -35q0 -21 -15 -35.5t-35 -14.5z" />
    <glyph glyph-name="yacute" unicode="&#xfd;" horiz-adv-x="556" 
d="M123 -220l123 268h-29l-197 448h91l164 -386l174 386h87l-325 -716h-88zM232 537v63l210 127v-73z" />
    <glyph glyph-name="thorn" unicode="&#xfe;" horiz-adv-x="628" 
d="M69 -220v940h84v-306q24 36 68.5 65t113.5 29q74 0 129 -34t85.5 -93t30.5 -134t-30.5 -133.5t-86 -92t-129.5 -33.5q-61 0 -108.5 25t-72.5 70v-303h-84zM325 61q50 0 88 23.5t60 65.5t22 98t-22 98t-60 65.5t-88 23.5t-88 -23.5t-60 -65.5t-22 -98t22 -98t60 -65.5
t88 -23.5z" />
    <glyph glyph-name="ydieresis" unicode="&#xff;" horiz-adv-x="556" 
d="M123 -220l123 268h-29l-197 448h91l164 -386l174 386h87l-325 -716h-88zM357 571q-21 0 -35.5 14.5t-14.5 35.5q0 20 14.5 35t35.5 15t35 -15t14 -35q0 -21 -14 -35.5t-35 -14.5zM197 571q-21 0 -35.5 14.5t-14.5 35.5q0 20 14.5 35t35.5 15q20 0 35 -15t15 -35
q0 -21 -15 -35.5t-35 -14.5z" />
    <glyph glyph-name="Amacron" unicode="&#x100;" horiz-adv-x="664" 
d="M30 0l258 700h89l257 -700h-89l-64 180h-298l-65 -180h-88zM208 248h248l-124 346zM159 796v63h347v-63h-347z" />
    <glyph glyph-name="amacron" unicode="&#x101;" horiz-adv-x="541" 
d="M234 -12q-62 0 -103 21t-61 56t-20 76q0 76 58 117t158 41h134v6q0 65 -34 98.5t-91 33.5q-49 0 -84.5 -24.5t-44.5 -71.5h-86q5 54 36.5 91t78.5 56.5t100 19.5q104 0 156.5 -55.5t52.5 -147.5v-305h-75l-5 89q-21 -42 -61.5 -71.5t-108.5 -29.5zM247 59q48 0 82.5 25
t52.5 65t18 84v1h-127q-74 0 -104.5 -25.5t-30.5 -63.5q0 -39 28.5 -62.5t80.5 -23.5zM97 592v63h348v-63h-348z" />
    <glyph glyph-name="Abreve" unicode="&#x102;" horiz-adv-x="664" 
d="M30 0l258 700h89l257 -700h-89l-64 180h-298l-65 -180h-88zM208 248h248l-124 346zM333 757q-69 0 -104.5 37.5t-35.5 92.5v14h50q0 -37 21 -57.5t69 -20.5t69 20.5t21 57.5h51v-14q0 -55 -36.5 -92.5t-104.5 -37.5z" />
    <glyph glyph-name="abreve" unicode="&#x103;" horiz-adv-x="541" 
d="M234 -12q-62 0 -103 21t-61 56t-20 76q0 76 58 117t158 41h134v6q0 65 -34 98.5t-91 33.5q-49 0 -84.5 -24.5t-44.5 -71.5h-86q5 54 36.5 91t78.5 56.5t100 19.5q104 0 156.5 -55.5t52.5 -147.5v-305h-75l-5 89q-21 -42 -61.5 -71.5t-108.5 -29.5zM247 59q48 0 82.5 25
t52.5 65t18 84v1h-127q-74 0 -104.5 -25.5t-30.5 -63.5q0 -39 28.5 -62.5t80.5 -23.5zM272 553q-69 0 -104.5 37.5t-35.5 92.5v14h50q0 -37 21 -57.5t69 -20.5t69 20.5t21 57.5h51v-14q0 -55 -36.5 -92.5t-104.5 -37.5z" />
    <glyph glyph-name="Aogonek" unicode="&#x104;" horiz-adv-x="668" 
d="M30 0l258 700h89l257 -700l-57 -28q-37 -17 -50.5 -35t-13.5 -37q0 -23 16.5 -36t42.5 -13q31 0 67 15v-56q-18 -6 -37.5 -9.5t-38.5 -3.5q-46 0 -82 22t-36 73q0 33 21.5 62.5t74.5 56.5l-60 169h-298l-65 -180h-88zM208 248h248l-124 346z" />
    <glyph glyph-name="aogonek" unicode="&#x105;" horiz-adv-x="541" 
d="M234 -12q-62 0 -103 21t-61 56t-20 76q0 76 58 117t158 41h134v6q0 65 -34 98.5t-91 33.5q-49 0 -84.5 -24.5t-44.5 -71.5h-86q5 54 36.5 91t78.5 56.5t100 19.5q104 0 156.5 -55.5t52.5 -147.5v-305h-75l-5 89q-21 -42 -61.5 -71.5t-108.5 -29.5zM247 59q48 0 82.5 25
t52.5 65t18 84v1h-127q-74 0 -104.5 -25.5t-30.5 -63.5q0 -39 28.5 -62.5t80.5 -23.5zM412 -203q-31 0 -57.5 9.5t-43.5 30.5t-17 55q0 35 25.5 67t90.5 61l52 23l22 -43l-58 -28q-36 -18 -50 -35.5t-14 -36.5q0 -23 16.5 -36t43.5 -13q30 0 65 15v-56q-37 -13 -75 -13z" />
    <glyph glyph-name="Cacute" unicode="&#x106;" horiz-adv-x="720" 
d="M381 -12q-103 0 -177.5 45.5t-115.5 127t-41 189.5q0 107 41 188.5t115.5 127.5t177.5 46q120 0 195.5 -57.5t96.5 -160.5h-93q-16 65 -65.5 104.5t-133.5 39.5q-75 0 -131 -34.5t-86.5 -99t-30.5 -154.5t30.5 -154.5t86.5 -99t131 -34.5q84 0 133.5 38.5t65.5 102.5h93
q-21 -101 -96.5 -158t-195.5 -57zM337 741v63l210 127v-73z" />
    <glyph glyph-name="cacute" unicode="&#x107;" horiz-adv-x="570" 
d="M297 -12q-71 0 -127.5 32.5t-89 91t-32.5 136.5t32.5 136.5t89 91t127.5 32.5q88 0 148.5 -46t76.5 -123h-86q-10 46 -49 71.5t-91 25.5q-42 0 -79 -21t-60 -63t-23 -104t23 -104t60 -63.5t79 -21.5q52 0 91 25.5t49 72.5h86q-15 -75 -76 -122t-149 -47zM275 538v63
l210 127v-73z" />
    <glyph glyph-name="Cdotaccent" unicode="&#x10a;" horiz-adv-x="720" 
d="M381 -12q-103 0 -177.5 45.5t-115.5 127t-41 189.5q0 107 41 188.5t115.5 127.5t177.5 46q120 0 195.5 -57.5t96.5 -160.5h-93q-16 65 -65.5 104.5t-133.5 39.5q-75 0 -131 -34.5t-86.5 -99t-30.5 -154.5t30.5 -154.5t86.5 -99t131 -34.5q84 0 133.5 38.5t65.5 102.5h93
q-21 -101 -96.5 -158t-195.5 -57zM382 766q-21 0 -35.5 15t-14.5 35q0 21 14.5 35.5t35.5 14.5q20 0 35 -14.5t15 -35.5q0 -20 -15 -35t-35 -15z" />
    <glyph glyph-name="cdotaccent" unicode="&#x10b;" horiz-adv-x="570" 
d="M297 -12q-71 0 -127.5 32.5t-89 91t-32.5 136.5t32.5 136.5t89 91t127.5 32.5q88 0 148.5 -46t76.5 -123h-86q-10 46 -49 71.5t-91 25.5q-42 0 -79 -21t-60 -63t-23 -104t23 -104t60 -63.5t79 -21.5q52 0 91 25.5t49 72.5h86q-15 -75 -76 -122t-149 -47zM297 563
q-20 0 -34.5 15t-14.5 35q0 21 14.5 35.5t34.5 14.5q21 0 35.5 -14.5t14.5 -35.5q0 -20 -14.5 -35t-35.5 -15z" />
    <glyph glyph-name="Ccaron" unicode="&#x10c;" horiz-adv-x="720" 
d="M381 -12q-103 0 -177.5 45.5t-115.5 127t-41 189.5q0 107 41 188.5t115.5 127.5t177.5 46q120 0 195.5 -57.5t96.5 -160.5h-93q-16 65 -65.5 104.5t-133.5 39.5q-75 0 -131 -34.5t-86.5 -99t-30.5 -154.5t30.5 -154.5t86.5 -99t131 -34.5q84 0 133.5 38.5t65.5 102.5h93
q-21 -101 -96.5 -158t-195.5 -57zM382 754l-137 82v65l137 -84l137 84v-65z" />
    <glyph glyph-name="ccaron" unicode="&#x10d;" horiz-adv-x="570" 
d="M297 -12q-71 0 -127.5 32.5t-89 91t-32.5 136.5t32.5 136.5t89 91t127.5 32.5q88 0 148.5 -46t76.5 -123h-86q-10 46 -49 71.5t-91 25.5q-42 0 -79 -21t-60 -63t-23 -104t23 -104t60 -63.5t79 -21.5q52 0 91 25.5t49 72.5h86q-15 -75 -76 -122t-149 -47zM297 551l-137 82
v65l137 -84l137 84v-65z" />
    <glyph glyph-name="Dcaron" unicode="&#x10e;" horiz-adv-x="696" 
d="M74 0v700h215q185 0 272.5 -94t87.5 -258q0 -161 -87.5 -254.5t-272.5 -93.5h-215zM158 70h129q102 0 162.5 33.5t86.5 96t26 148.5q0 88 -26 151t-86.5 97t-162.5 34h-129v-560zM286 754l-137 82v65l137 -84l137 84v-65z" />
    <glyph glyph-name="dcaron" unicode="&#x10f;" horiz-adv-x="744" 
d="M635 541v40q26 0 36.5 13.5t10.5 39.5v23h-48v83h88q6 -26 8.5 -48t2.5 -42q0 -57 -25 -83t-73 -26zM294 -12q-74 0 -129.5 34t-86 93t-30.5 134t31 133.5t86 92t130 33.5q61 0 108 -25t73 -70v307h84v-720h-76l-8 82q-24 -36 -69 -65t-113 -29zM303 61q50 0 88.5 23.5
t60 65.5t21.5 98t-21.5 98t-60 65.5t-88.5 23.5q-49 0 -87.5 -23.5t-60 -65.5t-21.5 -98t21.5 -98t60 -65.5t87.5 -23.5z" />
    <glyph glyph-name="Dcroat" unicode="&#x110;" horiz-adv-x="717" 
d="M95 0v311h-87v76h87v313h215q185 0 272.5 -94t87.5 -258q0 -161 -87.5 -254.5t-272.5 -93.5h-215zM179 70h130q101 0 161.5 33.5t87 96t26.5 148.5q0 88 -26.5 151t-87 97t-161.5 34h-130v-243h202v-76h-202v-241z" />
    <glyph glyph-name="dcroat" unicode="&#x111;" horiz-adv-x="674" 
d="M294 -12q-74 0 -129.5 34t-86 93t-30.5 134t31 133.5t86 92t130 33.5q61 0 108 -25t73 -70v157h-145v65h145v85h84v-85h75v-65h-75v-570h-76l-8 82q-24 -36 -69 -65t-113 -29zM303 61q50 0 88.5 23.5t60 65.5t21.5 98t-21.5 98t-60 65.5t-88.5 23.5q-49 0 -87.5 -23.5
t-60 -65.5t-21.5 -98t21.5 -98t60 -65.5t87.5 -23.5z" />
    <glyph glyph-name="Emacron" unicode="&#x112;" horiz-adv-x="564" 
d="M74 0v700h433v-69h-349v-244h319v-68h-319v-250h349v-69h-433zM121 796v63h347v-63h-347z" />
    <glyph glyph-name="emacron" unicode="&#x113;" horiz-adv-x="569" 
d="M292 -12q-71 0 -126 32.5t-86.5 90.5t-31.5 137q0 78 31 136.5t86.5 91t128.5 32.5q72 0 124.5 -32.5t80.5 -85.5t28 -114q0 -11 -0.5 -22t-0.5 -25h-395q3 -57 26.5 -94.5t59 -56.5t75.5 -19q52 0 87 24t51 65h83q-20 -69 -76.5 -114.5t-144.5 -45.5zM292 437
q-60 0 -106.5 -36.5t-53.5 -106.5h312q-3 67 -46 105t-106 38zM117 592v63h348v-63h-348z" />
    <glyph glyph-name="Ebreve" unicode="&#x114;" horiz-adv-x="564" 
d="M74 0v700h433v-69h-349v-244h319v-68h-319v-250h349v-69h-433zM295 757q-69 0 -104.5 37.5t-35.5 92.5v14h50q0 -37 21 -57.5t69 -20.5t69 20.5t21 57.5h51v-14q0 -55 -36.5 -92.5t-104.5 -37.5z" />
    <glyph glyph-name="ebreve" unicode="&#x115;" horiz-adv-x="569" 
d="M292 -12q-71 0 -126 32.5t-86.5 90.5t-31.5 137q0 78 31 136.5t86.5 91t128.5 32.5q72 0 124.5 -32.5t80.5 -85.5t28 -114q0 -11 -0.5 -22t-0.5 -25h-395q3 -57 26.5 -94.5t59 -56.5t75.5 -19q52 0 87 24t51 65h83q-20 -69 -76.5 -114.5t-144.5 -45.5zM292 437
q-60 0 -106.5 -36.5t-53.5 -106.5h312q-3 67 -46 105t-106 38zM291 553q-69 0 -104.5 37.5t-35.5 92.5v14h50q0 -37 21 -57.5t69 -20.5t69 20.5t21 57.5h51v-14q0 -55 -36.5 -92.5t-104.5 -37.5z" />
    <glyph glyph-name="Edotaccent" unicode="&#x116;" horiz-adv-x="564" 
d="M74 0v700h433v-69h-349v-244h319v-68h-319v-250h349v-69h-433zM295 766q-21 0 -35.5 15t-14.5 35q0 21 14.5 35.5t35.5 14.5q20 0 35 -14.5t15 -35.5q0 -20 -15 -35t-35 -15z" />
    <glyph glyph-name="edotaccent" unicode="&#x117;" horiz-adv-x="569" 
d="M292 -12q-71 0 -126 32.5t-86.5 90.5t-31.5 137q0 78 31 136.5t86.5 91t128.5 32.5q72 0 124.5 -32.5t80.5 -85.5t28 -114q0 -11 -0.5 -22t-0.5 -25h-395q3 -57 26.5 -94.5t59 -56.5t75.5 -19q52 0 87 24t51 65h83q-20 -69 -76.5 -114.5t-144.5 -45.5zM292 437
q-60 0 -106.5 -36.5t-53.5 -106.5h312q-3 67 -46 105t-106 38zM291 562q-20 0 -34.5 15t-14.5 35q0 21 14.5 35.5t34.5 14.5q21 0 35.5 -14.5t14.5 -35.5q0 -20 -14.5 -35t-35.5 -15z" />
    <glyph glyph-name="Eogonek" unicode="&#x118;" horiz-adv-x="564" 
d="M74 0v700h433v-69h-349v-244h319v-68h-319v-250h349v-69h-433zM435 -203q-30 0 -57 9.5t-44 30.5t-17 55q0 35 25.5 67t90.5 61l53 23l21 -43l-58 -28q-36 -18 -50 -35.5t-14 -36.5q0 -23 16.5 -36t43.5 -13q30 0 65 15v-56q-37 -13 -75 -13z" />
    <glyph glyph-name="eogonek" unicode="&#x119;" horiz-adv-x="569" 
d="M292 -12q-71 0 -126 32.5t-86.5 90.5t-31.5 137q0 78 31 136.5t86.5 91t128.5 32.5q72 0 124.5 -32.5t80.5 -85.5t28 -114q0 -11 -0.5 -22t-0.5 -25h-395q3 -57 26.5 -94.5t59 -56.5t75.5 -19q52 0 87 24t51 65h83q-20 -69 -76.5 -114.5t-144.5 -45.5zM292 437
q-60 0 -106.5 -36.5t-53.5 -106.5h312q-3 67 -46 105t-106 38zM323 -191q-31 0 -57.5 9.5t-43.5 30.5t-17 55q0 35 25.5 67t90.5 61l52 23l22 -43l-58 -28q-36 -18 -50 -35.5t-14 -36.5q0 -23 16.5 -36t43.5 -13q30 0 65 15v-56q-37 -13 -75 -13z" />
    <glyph glyph-name="Ecaron" unicode="&#x11a;" horiz-adv-x="564" 
d="M74 0v700h433v-69h-349v-244h319v-68h-319v-250h349v-69h-433zM295 754l-137 82v65l137 -84l137 84v-65z" />
    <glyph glyph-name="ecaron" unicode="&#x11b;" horiz-adv-x="569" 
d="M292 -12q-71 0 -126 32.5t-86.5 90.5t-31.5 137q0 78 31 136.5t86.5 91t128.5 32.5q72 0 124.5 -32.5t80.5 -85.5t28 -114q0 -11 -0.5 -22t-0.5 -25h-395q3 -57 26.5 -94.5t59 -56.5t75.5 -19q52 0 87 24t51 65h83q-20 -69 -76.5 -114.5t-144.5 -45.5zM292 437
q-60 0 -106.5 -36.5t-53.5 -106.5h312q-3 67 -46 105t-106 38zM291 550l-137 82v65l137 -84l137 84v-65z" />
    <glyph glyph-name="Gbreve" unicode="&#x11e;" horiz-adv-x="757" 
d="M375 -12q-98 0 -172 45.5t-115 127t-41 188.5t41.5 189t118 128t180.5 46q118 0 196.5 -57t101.5 -157h-97q-14 63 -66.5 100t-134.5 37q-77 0 -134 -34.5t-88.5 -98.5t-31.5 -153t31 -153t86 -98.5t128 -34.5q112 0 169 65.5t65 179.5h-202v66h288v-374h-77l-7 115
q-38 -61 -93 -94t-146 -33zM387 757q-69 0 -104.5 37.5t-35.5 92.5v14h50q0 -37 21 -57.5t69 -20.5t69 20.5t21 57.5h51v-14q0 -55 -36.5 -92.5t-104.5 -37.5z" />
    <glyph glyph-name="gbreve" unicode="&#x11f;" horiz-adv-x="552" 
d="M265 156q-42 0 -77 11l-50 -47q11 -8 27.5 -13.5t47.5 -10t87 -9.5q100 -7 143 -46t43 -102q0 -43 -23.5 -82t-72 -64t-124.5 -25q-67 0 -119 17.5t-81 53t-29 89.5q0 28 15 60.5t56 61.5q-22 9 -37.5 19.5t-28.5 23.5v23l85 84q-59 50 -59 132q0 49 23 89t67 63.5
t107 23.5q43 0 78 -12h183v-63l-93 -4q29 -42 29 -97q0 -49 -23.5 -89t-67 -63.5t-106.5 -23.5zM265 225q53 0 84.5 27.5t31.5 79.5q0 51 -31.5 78.5t-84.5 27.5q-54 0 -85.5 -27.5t-31.5 -78.5q0 -52 31.5 -79.5t85.5 -27.5zM119 -64q0 -50 42 -74.5t105 -24.5
q62 0 99.5 27t37.5 72q0 32 -26 55.5t-96 27.5q-55 4 -95 10q-41 -22 -54 -47.5t-13 -45.5zM265 553q-69 0 -104.5 37.5t-35.5 92.5v14h50q0 -37 21 -57.5t69 -20.5t69 20.5t21 57.5h51v-14q0 -55 -36.5 -92.5t-104.5 -37.5z" />
    <glyph glyph-name="Gdotaccent" unicode="&#x120;" horiz-adv-x="757" 
d="M375 -12q-98 0 -172 45.5t-115 127t-41 188.5t41.5 189t118 128t180.5 46q118 0 196.5 -57t101.5 -157h-97q-14 63 -66.5 100t-134.5 37q-77 0 -134 -34.5t-88.5 -98.5t-31.5 -153t31 -153t86 -98.5t128 -34.5q112 0 169 65.5t65 179.5h-202v66h288v-374h-77l-7 115
q-38 -61 -93 -94t-146 -33zM387 766q-21 0 -35.5 15t-14.5 35q0 21 14.5 35.5t35.5 14.5q20 0 35 -14.5t15 -35.5q0 -20 -15 -35t-35 -15z" />
    <glyph glyph-name="gdotaccent" unicode="&#x121;" horiz-adv-x="552" 
d="M265 156q-42 0 -77 11l-50 -47q11 -8 27.5 -13.5t47.5 -10t87 -9.5q100 -7 143 -46t43 -102q0 -43 -23.5 -82t-72 -64t-124.5 -25q-67 0 -119 17.5t-81 53t-29 89.5q0 28 15 60.5t56 61.5q-22 9 -37.5 19.5t-28.5 23.5v23l85 84q-59 50 -59 132q0 49 23 89t67 63.5
t107 23.5q43 0 78 -12h183v-63l-93 -4q29 -42 29 -97q0 -49 -23.5 -89t-67 -63.5t-106.5 -23.5zM265 225q53 0 84.5 27.5t31.5 79.5q0 51 -31.5 78.5t-84.5 27.5q-54 0 -85.5 -27.5t-31.5 -78.5q0 -52 31.5 -79.5t85.5 -27.5zM119 -64q0 -50 42 -74.5t105 -24.5
q62 0 99.5 27t37.5 72q0 32 -26 55.5t-96 27.5q-55 4 -95 10q-41 -22 -54 -47.5t-13 -45.5zM265 562q-21 0 -35.5 15t-14.5 35q0 21 14.5 35.5t35.5 14.5q20 0 35 -14.5t15 -35.5q0 -20 -15 -35t-35 -15z" />
    <glyph glyph-name="uni0122" unicode="&#x122;" horiz-adv-x="757" 
d="M375 -12q-98 0 -172 45.5t-115 127t-41 188.5t41.5 189t118 128t180.5 46q118 0 196.5 -57t101.5 -157h-97q-14 63 -66.5 100t-134.5 37q-77 0 -134 -34.5t-88.5 -98.5t-31.5 -153t31 -153t86 -98.5t128 -34.5q112 0 169 65.5t65 179.5h-202v66h288v-374h-77l-7 115
q-38 -61 -93 -94t-146 -33zM347 -238v40q46 0 46 57v14h-45v77h86q9 -41 9 -74q0 -60 -25 -87t-71 -27z" />
    <glyph glyph-name="uni0123" unicode="&#x123;" horiz-adv-x="552" 
d="M225 595q-10 51 -10 90q0 57 25 83.5t73 26.5v-40q-48 0 -48 -53v-23h48v-84h-88zM265 156q-42 0 -77 11l-50 -47q11 -8 27.5 -13.5t47.5 -10t87 -9.5q100 -7 143 -46t43 -102q0 -43 -23.5 -82t-72 -64t-124.5 -25q-67 0 -119 17.5t-81 53t-29 89.5q0 28 15 60.5t56 61.5
q-22 9 -37.5 19.5t-28.5 23.5v23l85 84q-59 50 -59 132q0 49 23 89t67 63.5t107 23.5q43 0 78 -12h183v-63l-93 -4q29 -42 29 -97q0 -49 -23.5 -89t-67 -63.5t-106.5 -23.5zM265 225q53 0 84.5 27.5t31.5 79.5q0 51 -31.5 78.5t-84.5 27.5q-54 0 -85.5 -27.5t-31.5 -78.5
q0 -52 31.5 -79.5t85.5 -27.5zM119 -64q0 -50 42 -74.5t105 -24.5q62 0 99.5 27t37.5 72q0 32 -26 55.5t-96 27.5q-55 4 -95 10q-41 -22 -54 -47.5t-13 -45.5z" />
    <glyph glyph-name="Itilde" unicode="&#x128;" horiz-adv-x="232" 
d="M74 0v700h84v-700h-84zM181 756q-27 0 -45 12t-33.5 23.5t-36.5 11.5q-36 0 -42 -45h-49q7 51 32 76t63 25q26 0 44 -12t33.5 -23.5t37.5 -11.5q16 0 28 11t15 34h49q-6 -49 -32 -75t-64 -26z" />
    <glyph glyph-name="itilde" unicode="&#x129;" horiz-adv-x="222" 
d="M69 0v496h84v-496h-84zM166 552q-27 0 -44.5 12t-33.5 23.5t-36 11.5q-37 0 -43 -45h-49q7 51 32.5 76t62.5 25q27 0 44.5 -12t33.5 -23.5t37 -11.5q17 0 29 11t15 34h48q-5 -49 -31.5 -75t-64.5 -26z" />
    <glyph glyph-name="Imacron" unicode="&#x12a;" horiz-adv-x="232" 
d="M74 0v700h84v-700h-84zM-58 796v63h347v-63h-347z" />
    <glyph glyph-name="imacron" unicode="&#x12b;" horiz-adv-x="222" 
d="M69 0v496h84v-496h-84zM-63 592v63h348v-63h-348z" />
    <glyph glyph-name="Ibreve" unicode="&#x12c;" horiz-adv-x="232" 
d="M74 0v700h84v-700h-84zM116 757q-69 0 -104.5 37.5t-35.5 92.5v14h50q0 -37 21 -57.5t69 -20.5t69 20.5t21 57.5h51v-14q0 -55 -36.5 -92.5t-104.5 -37.5z" />
    <glyph glyph-name="ibreve" unicode="&#x12d;" horiz-adv-x="222" 
d="M69 0v496h84v-496h-84zM111 553q-69 0 -104.5 37.5t-35.5 92.5v14h50q0 -37 21 -57.5t69 -20.5t69 20.5t21 57.5h51v-14q0 -55 -36.5 -92.5t-104.5 -37.5z" />
    <glyph glyph-name="Iogonek" unicode="&#x12e;" horiz-adv-x="232" 
d="M74 0v700h84v-700h-84zM86 -202q-30 0 -57 9.5t-44 30.5t-17 55q0 35 25.5 67t90.5 61l53 23l21 -43l-58 -28q-36 -18 -50 -35.5t-14 -36.5q0 -23 16.5 -36t43.5 -13q30 0 65 15v-56q-37 -13 -75 -13z" />
    <glyph glyph-name="iogonek" unicode="&#x12f;" horiz-adv-x="239" 
d="M120 606q-25 0 -41.5 16.5t-16.5 41.5q0 24 16.5 40t41.5 16q24 0 41 -16t17 -40q0 -25 -17 -41.5t-41 -16.5zM78 0v496h84v-496h-84zM90 -202q-31 0 -57.5 9.5t-43.5 30.5t-17 55q0 35 25.5 67t90.5 61l52 23l22 -43l-58 -28q-36 -18 -50 -35.5t-14 -36.5
q0 -23 16.5 -36t43.5 -13q30 0 65 15v-56q-37 -13 -75 -13z" />
    <glyph glyph-name="Idotaccent" unicode="&#x130;" horiz-adv-x="232" 
d="M74 0v700h84v-700h-84zM116 766q-21 0 -35.5 15t-14.5 35q0 21 14.5 35.5t35.5 14.5q20 0 35 -14.5t15 -35.5q0 -20 -15 -35t-35 -15z" />
    <glyph glyph-name="dotlessi" unicode="&#x131;" horiz-adv-x="222" 
d="M69 0v496h84v-496h-84z" />
    <glyph glyph-name="uni0136" unicode="&#x136;" horiz-adv-x="582" 
d="M74 0v700h84v-317l292 317h106l-260 -279l264 -421h-102l-222 356l-78 -83v-273h-84zM247 -238v40q47 0 47 57v14h-46v77h86q10 -41 10 -74q0 -60 -25.5 -87t-71.5 -27z" />
    <glyph glyph-name="uni0137" unicode="&#x137;" horiz-adv-x="504" 
d="M69 0v720h84v-433l203 209h103l-220 -224l248 -272h-107l-227 257v-257h-84zM206 -238v40q47 0 47 57v14h-46v77h86q10 -42 10 -74q0 -60 -25.5 -87t-71.5 -27z" />
    <glyph glyph-name="Lacute" unicode="&#x139;" horiz-adv-x="525" 
d="M74 0v700h84v-633h326v-67h-410zM78 741v63l210 127v-73z" />
    <glyph glyph-name="lacute" unicode="&#x13a;" horiz-adv-x="222" 
d="M69 0v720h84v-720h-84zM88 761v63l210 127v-73z" />
    <glyph glyph-name="uni013B" unicode="&#x13b;" horiz-adv-x="525" 
d="M74 0v700h84v-633h326v-67h-410zM198 -238v40q47 0 47 57v14h-45v77h86q10 -40 10 -74q0 -60 -25.5 -87t-72.5 -27z" />
    <glyph glyph-name="uni013C" unicode="&#x13c;" horiz-adv-x="238" 
d="M69 0v720h84v-720h-84zM66 -238v40q48 0 48 57v14h-46v77h86q10 -41 10 -74q0 -60 -25.5 -87t-72.5 -27z" />
    <glyph glyph-name="Lcaron" unicode="&#x13d;" horiz-adv-x="525" 
d="M277 501v40q48 0 48 54v22h-49v83h88q11 -51 11 -90q0 -56 -25.5 -82.5t-72.5 -26.5zM74 0v700h84v-633h326v-67h-410z" />
    <glyph glyph-name="lcaron" unicode="&#x13e;" horiz-adv-x="338" 
d="M230 541v40q47 0 47 53v23h-48v83h88q6 -26 8 -48t2 -42q0 -57 -25 -83t-72 -26zM69 0v720h84v-720h-84z" />
    <glyph glyph-name="Ldot" unicode="&#x13f;" horiz-adv-x="525" 
d="M74 0v700h84v-633h326v-67h-410zM357 293q-25 0 -41.5 16.5t-16.5 40.5q0 25 16.5 41t41.5 16q24 0 40.5 -16t16.5 -41q0 -24 -16.5 -40.5t-40.5 -16.5z" />
    <glyph glyph-name="ldot" unicode="&#x140;" horiz-adv-x="346" 
d="M78 0v720h84v-720h-84zM266 318q-21 0 -35.5 14.5t-14.5 34.5q0 21 14.5 35.5t35.5 14.5t35.5 -14.5t14.5 -35.5q0 -20 -14.5 -34.5t-35.5 -14.5z" />
    <glyph glyph-name="Lslash" unicode="&#x141;" horiz-adv-x="551" 
d="M100 0v314l-80 -30v67l80 30v319h84v-287l122 46v-67l-122 -46v-279h326v-67h-410z" />
    <glyph glyph-name="lslash" unicode="&#x142;" horiz-adv-x="251" 
d="M83 0v361l-74 -30v67l74 31v291h84v-257l75 31v-68l-75 -30v-396h-84z" />
    <glyph glyph-name="Nacute" unicode="&#x143;" horiz-adv-x="689" 
d="M74 0v700h84l373 -561v561h84v-700h-84l-373 561v-561h-84zM300 741v63l210 127v-73z" />
    <glyph glyph-name="nacute" unicode="&#x144;" horiz-adv-x="572" 
d="M69 0v496h76l5 -89q24 47 69 74t102 27q88 0 140.5 -53.5t52.5 -164.5v-290h-84v281q0 155 -128 155q-64 0 -106.5 -46.5t-42.5 -132.5v-257h-84zM282 537v63l210 127v-73z" />
    <glyph glyph-name="uni0145" unicode="&#x145;" horiz-adv-x="689" 
d="M74 0v700h84l373 -561v561h84v-700h-84l-373 561v-561h-84zM304 -238v40q46 0 46 57v14h-45v77h85q11 -40 11 -74q0 -60 -25.5 -87t-71.5 -27z" />
    <glyph glyph-name="uni0146" unicode="&#x146;" horiz-adv-x="572" 
d="M69 0v496h76l5 -89q24 47 69 74t102 27q88 0 140.5 -53.5t52.5 -164.5v-290h-84v281q0 155 -128 155q-64 0 -106.5 -46.5t-42.5 -132.5v-257h-84zM257 -238v40q47 0 47 57v14h-45v77h86q9 -41 9 -74q0 -60 -25 -87t-72 -27z" />
    <glyph glyph-name="Ncaron" unicode="&#x147;" horiz-adv-x="689" 
d="M74 0v700h84l373 -561v561h84v-700h-84l-373 561v-561h-84zM345 754l-137 82v65l137 -84l137 84v-65z" />
    <glyph glyph-name="ncaron" unicode="&#x148;" horiz-adv-x="572" 
d="M69 0v496h76l5 -89q24 47 69 74t102 27q88 0 140.5 -53.5t52.5 -164.5v-290h-84v281q0 155 -128 155q-64 0 -106.5 -46.5t-42.5 -132.5v-257h-84zM305 550l-137 82v65l137 -84l137 84v-65z" />
    <glyph glyph-name="Omacron" unicode="&#x14c;" horiz-adv-x="784" 
d="M392 -12q-103 0 -180.5 45.5t-121 127.5t-43.5 189t43.5 188.5t121 127.5t180.5 46q104 0 181.5 -46t120.5 -127.5t43 -188.5t-43 -189t-120.5 -127.5t-181.5 -45.5zM392 62q77 0 135.5 34.5t91 99t32.5 154.5t-32.5 154t-91 98.5t-135.5 34.5t-135.5 -34.5t-91 -98.5
t-32.5 -154t32.5 -154.5t91 -99t135.5 -34.5zM218 796v63h347v-63h-347z" />
    <glyph glyph-name="omacron" unicode="&#x14d;" horiz-adv-x="592" 
d="M295 -12q-70 0 -126 32t-88.5 90.5t-32.5 137.5t33 137.5t89.5 90.5t126.5 32t126 -32t88.5 -90.5t32.5 -137.5t-33 -137.5t-89.5 -90.5t-126.5 -32zM295 60q43 0 80 21t60 63t23 104t-22.5 104t-59.5 63t-79 21q-43 0 -80 -21t-60 -63t-23 -104t23 -104t59.5 -63
t78.5 -21zM123 592v63h348v-63h-348z" />
    <glyph glyph-name="Obreve" unicode="&#x14e;" horiz-adv-x="784" 
d="M392 -12q-103 0 -180.5 45.5t-121 127.5t-43.5 189t43.5 188.5t121 127.5t180.5 46q104 0 181.5 -46t120.5 -127.5t43 -188.5t-43 -189t-120.5 -127.5t-181.5 -45.5zM392 62q77 0 135.5 34.5t91 99t32.5 154.5t-32.5 154t-91 98.5t-135.5 34.5t-135.5 -34.5t-91 -98.5
t-32.5 -154t32.5 -154.5t91 -99t135.5 -34.5zM392 757q-69 0 -104.5 37.5t-35.5 92.5v14h50q0 -37 21 -57.5t69 -20.5t69 20.5t21 57.5h51v-14q0 -55 -36.5 -92.5t-104.5 -37.5z" />
    <glyph glyph-name="obreve" unicode="&#x14f;" horiz-adv-x="592" 
d="M295 -12q-70 0 -126 32t-88.5 90.5t-32.5 137.5t33 137.5t89.5 90.5t126.5 32t126 -32t88.5 -90.5t32.5 -137.5t-33 -137.5t-89.5 -90.5t-126.5 -32zM295 60q43 0 80 21t60 63t23 104t-22.5 104t-59.5 63t-79 21q-43 0 -80 -21t-60 -63t-23 -104t23 -104t59.5 -63
t78.5 -21zM297 553q-69 0 -104.5 37.5t-35.5 92.5v14h50q0 -37 21 -57.5t69 -20.5t69 20.5t21 57.5h51v-14q0 -55 -36.5 -92.5t-104.5 -37.5z" />
    <glyph glyph-name="Ohungarumlaut" unicode="&#x150;" horiz-adv-x="784" 
d="M392 -12q-103 0 -180.5 45.5t-121 127.5t-43.5 189t43.5 188.5t121 127.5t180.5 46q104 0 181.5 -46t120.5 -127.5t43 -188.5t-43 -189t-120.5 -127.5t-181.5 -45.5zM392 62q77 0 135.5 34.5t91 99t32.5 154.5t-32.5 154t-91 98.5t-135.5 34.5t-135.5 -34.5t-91 -98.5
t-32.5 -154t32.5 -154.5t91 -99t135.5 -34.5zM428 753l72 149h73l-89 -149h-56zM282 753l66 149h73l-82 -149h-57z" />
    <glyph glyph-name="ohungarumlaut" unicode="&#x151;" horiz-adv-x="592" 
d="M295 -12q-70 0 -126 32t-88.5 90.5t-32.5 137.5t33 137.5t89.5 90.5t126.5 32t126 -32t88.5 -90.5t32.5 -137.5t-33 -137.5t-89.5 -90.5t-126.5 -32zM295 60q43 0 80 21t60 63t23 104t-22.5 104t-59.5 63t-79 21q-43 0 -80 -21t-60 -63t-23 -104t23 -104t59.5 -63
t78.5 -21zM333 549l72 149h73l-89 -149h-56zM187 549l66 149h73l-82 -149h-57z" />
    <glyph glyph-name="OE" unicode="&#x152;" horiz-adv-x="1118" 
d="M393 -12q-74 0 -137 26t-109.5 74.5t-73 114.5t-26.5 147q0 80 26.5 146.5t73 114.5t109.5 74.5t137 26.5q82 0 151.5 -35t114.5 -102v125h402v-69h-318v-244h288v-68h-288v-250h318v-69h-402v124q-45 -66 -114.5 -101t-151.5 -35zM395 62q72 0 131.5 34.5t95 99
t35.5 154.5t-35.5 154t-95 98.5t-131.5 34.5t-131.5 -34.5t-95 -98.5t-35.5 -154t35.5 -154.5t95 -99t131.5 -34.5z" />
    <glyph glyph-name="oe" unicode="&#x153;" horiz-adv-x="979" 
d="M295 -12q-70 0 -126 32t-88.5 90.5t-32.5 137.5t33 137.5t89.5 90.5t126.5 32q67 0 118.5 -29.5t80.5 -84.5q31 54 84.5 84t123.5 30q72 0 124 -32.5t80.5 -85.5t28.5 -114q0 -11 -0.5 -22t-1.5 -25h-395q3 -57 26.5 -94.5t59.5 -56.5t76 -19q56 0 93 28t53 76h81
q-18 -75 -76.5 -125t-150.5 -50q-68 0 -121 30t-84 84q-30 -54 -82 -84t-120 -30zM542 294h312q-3 67 -46 105t-107 38q-60 0 -106.5 -36.5t-52.5 -106.5zM295 60q43 0 80 21t60 63t23 104t-22.5 104t-59.5 63t-79 21q-43 0 -80 -21t-60 -63t-23 -104t23 -104t59.5 -63
t78.5 -21z" />
    <glyph glyph-name="Racute" unicode="&#x154;" horiz-adv-x="593" 
d="M74 0v700h226q82 0 134 -27t77 -74t25 -104q0 -66 -35.5 -119t-110.5 -75l153 -301h-99l-142 289h-6h-138v-289h-84zM158 355h136q81 0 118 39t37 100q0 62 -36.5 98.5t-119.5 36.5h-135v-274zM224 741v63l210 127v-73z" />
    <glyph glyph-name="racute" unicode="&#x155;" horiz-adv-x="363" 
d="M69 0v496h76l7 -95q23 49 70 78t116 29v-88h-23q-44 0 -81 -15.5t-59 -52.5t-22 -102v-250h-84zM174 537v63l210 127v-73z" />
    <glyph glyph-name="uni0156" unicode="&#x156;" horiz-adv-x="593" 
d="M74 0v700h226q82 0 134 -27t77 -74t25 -104q0 -66 -35.5 -119t-110.5 -75l153 -301h-99l-142 289h-6h-138v-289h-84zM158 355h136q81 0 118 39t37 100q0 62 -36.5 98.5t-119.5 36.5h-135v-274zM251 -238v40q46 0 46 57v14h-45v77h86q10 -41 10 -74q0 -60 -25.5 -87
t-71.5 -27z" />
    <glyph glyph-name="uni0157" unicode="&#x157;" horiz-adv-x="363" 
d="M69 0v496h76l7 -95q23 49 70 78t116 29v-88h-23q-44 0 -81 -15.5t-59 -52.5t-22 -102v-250h-84zM72 -238v40q47 0 47 57v14h-46v77h86q6 -20 8 -39t2 -35q0 -60 -25 -87t-72 -27z" />
    <glyph glyph-name="Rcaron" unicode="&#x158;" horiz-adv-x="593" 
d="M74 0v700h226q82 0 134 -27t77 -74t25 -104q0 -66 -35.5 -119t-110.5 -75l153 -301h-99l-142 289h-6h-138v-289h-84zM158 355h136q81 0 118 39t37 100q0 62 -36.5 98.5t-119.5 36.5h-135v-274zM268 754l-137 82v65l137 -84l137 84v-65z" />
    <glyph glyph-name="rcaron" unicode="&#x159;" horiz-adv-x="363" 
d="M69 0v496h76l7 -95q23 49 70 78t116 29v-88h-23q-44 0 -81 -15.5t-59 -52.5t-22 -102v-250h-84zM219 550l-137 82v65l137 -84l137 84v-65z" />
    <glyph glyph-name="Sacute" unicode="&#x15a;" horiz-adv-x="578" 
d="M297 -12q-77 0 -134 28t-88 78t-31 116h88q0 -41 19 -75.5t55.5 -55t90.5 -20.5q71 0 110 34t39 85q0 42 -18 67.5t-48.5 41.5t-70 28t-82.5 27q-81 28 -120 69.5t-39 108.5q-1 56 26 99.5t76.5 68t117.5 24.5q67 0 116.5 -25t77 -69t28.5 -100h-88q0 29 -15 57.5
t-45.5 46.5t-76.5 18q-57 1 -93.5 -29t-36.5 -83q0 -45 25.5 -69t71.5 -39.5t106 -35.5q50 -18 90 -42t62.5 -62t22.5 -97q0 -50 -26 -94.5t-78.5 -72.5t-131.5 -28zM242 741v63l210 127v-73z" />
    <glyph glyph-name="sacute" unicode="&#x15b;" horiz-adv-x="500" 
d="M259 -12q-89 0 -148 45t-69 122h86q8 -39 41.5 -67.5t90.5 -28.5q53 0 78 22.5t25 53.5q0 45 -32.5 60t-91.5 27q-40 8 -80 23t-67 42.5t-27 72.5q0 65 48.5 106.5t131.5 41.5q79 0 129.5 -39.5t58.5 -112.5h-83q-5 38 -32.5 59.5t-73.5 21.5q-45 0 -69.5 -19t-24.5 -50
q0 -30 31.5 -47t85.5 -29q46 -10 87.5 -24.5t68 -43t26.5 -82.5q1 -67 -50.5 -110.5t-139.5 -43.5zM202 537v63l210 127v-73z" />
    <glyph glyph-name="Scedilla" unicode="&#x15e;" horiz-adv-x="578" 
d="M297 -12q-77 0 -134 28t-88 78t-31 116h88q0 -41 19 -75.5t55.5 -55t90.5 -20.5q71 0 110 34t39 85q0 42 -18 67.5t-48.5 41.5t-70 28t-82.5 27q-81 28 -120 69.5t-39 108.5q-1 56 26 99.5t76.5 68t117.5 24.5q67 0 116.5 -25t77 -69t28.5 -100h-88q0 29 -15 57.5
t-45.5 46.5t-76.5 18q-57 1 -93.5 -29t-36.5 -83q0 -45 25.5 -69t71.5 -39.5t106 -35.5q50 -18 90 -42t62.5 -62t22.5 -97q0 -50 -26 -94.5t-78.5 -72.5t-131.5 -28zM228 -260v53h92q68 0 68 48q0 45 -68 45h-49v120h56v-70q57 1 93 -23t36 -73q0 -47 -34 -73.5t-87 -26.5
h-107z" />
    <glyph glyph-name="scedilla" unicode="&#x15f;" horiz-adv-x="500" 
d="M259 -12q-89 0 -148 45t-69 122h86q8 -39 41.5 -67.5t90.5 -28.5q53 0 78 22.5t25 53.5q0 45 -32.5 60t-91.5 27q-40 8 -80 23t-67 42.5t-27 72.5q0 65 48.5 106.5t131.5 41.5q79 0 129.5 -39.5t58.5 -112.5h-83q-5 38 -32.5 59.5t-73.5 21.5q-45 0 -69.5 -19t-24.5 -50
q0 -30 31.5 -47t85.5 -29q46 -10 87.5 -24.5t68 -43t26.5 -82.5q1 -67 -50.5 -110.5t-139.5 -43.5zM181 -260v53h92q68 0 68 48q0 45 -68 45h-49v120h56v-70q57 1 93 -23t36 -73q0 -47 -34 -73.5t-87 -26.5h-107z" />
    <glyph glyph-name="Scaron" unicode="&#x160;" horiz-adv-x="578" 
d="M297 -12q-77 0 -134 28t-88 78t-31 116h88q0 -41 19 -75.5t55.5 -55t90.5 -20.5q71 0 110 34t39 85q0 42 -18 67.5t-48.5 41.5t-70 28t-82.5 27q-81 28 -120 69.5t-39 108.5q-1 56 26 99.5t76.5 68t117.5 24.5q67 0 116.5 -25t77 -69t28.5 -100h-88q0 29 -15 57.5
t-45.5 46.5t-76.5 18q-57 1 -93.5 -29t-36.5 -83q0 -45 25.5 -69t71.5 -39.5t106 -35.5q50 -18 90 -42t62.5 -62t22.5 -97q0 -50 -26 -94.5t-78.5 -72.5t-131.5 -28zM287 754l-137 82v65l137 -84l137 84v-65z" />
    <glyph glyph-name="scaron" unicode="&#x161;" horiz-adv-x="500" 
d="M259 -12q-89 0 -148 45t-69 122h86q8 -39 41.5 -67.5t90.5 -28.5q53 0 78 22.5t25 53.5q0 45 -32.5 60t-91.5 27q-40 8 -80 23t-67 42.5t-27 72.5q0 65 48.5 106.5t131.5 41.5q79 0 129.5 -39.5t58.5 -112.5h-83q-5 38 -32.5 59.5t-73.5 21.5q-45 0 -69.5 -19t-24.5 -50
q0 -30 31.5 -47t85.5 -29q46 -10 87.5 -24.5t68 -43t26.5 -82.5q1 -67 -50.5 -110.5t-139.5 -43.5zM247 550l-137 82v65l137 -84l137 84v-65z" />
    <glyph glyph-name="uni0162" unicode="&#x162;" horiz-adv-x="560" 
d="M238 0v631h-209v69h502v-69h-209v-631h-84zM211 -260v53h92q68 0 68 48q0 45 -68 45h-49v120h56v-70q57 1 93 -23t36 -73q0 -47 -34 -73.5t-86 -26.5h-108z" />
    <glyph glyph-name="uni0163" unicode="&#x163;" horiz-adv-x="387" 
d="M169 -260v54h92q68 0 68 47q0 45 -68 45h-49v119q-44 11 -68.5 45t-24.5 102v273h-86v71h86l11 119h73v-119h146v-71h-146v-273q0 -47 19 -63.5t67 -16.5h52v-72h-73v-63q57 1 93 -23.5t36 -72.5t-34 -74.5t-86 -26.5h-108z" />
    <glyph glyph-name="Tcaron" unicode="&#x164;" horiz-adv-x="560" 
d="M238 0v631h-209v69h502v-69h-209v-631h-84zM280 754l-137 82v65l137 -84l137 84v-65z" />
    <glyph glyph-name="tcaron" unicode="&#x165;" horiz-adv-x="387" 
d="M257 592v40q47 0 47 38v21h-48v83h88q5 -26 8 -45t3 -39q0 -52 -25.5 -75t-72.5 -23zM265 0q-68 0 -107 33t-39 119v273h-86v71h86l11 119h73v-119h146v-71h-146v-273q0 -47 19 -63.5t67 -16.5h52v-72h-76z" />
    <glyph glyph-name="Utilde" unicode="&#x168;" horiz-adv-x="656" 
d="M327 -12q-72 0 -130.5 28.5t-93.5 88.5t-35 153v442h84v-443q0 -102 49 -148t128 -46t127 46t48 148v443h84v-442q0 -93 -35 -153t-94 -88.5t-132 -28.5zM392 756q-27 0 -45 12t-33.5 23.5t-36.5 11.5q-36 0 -42 -45h-49q7 51 32 76t63 25q26 0 44 -12t33.5 -23.5
t37.5 -11.5q16 0 28 11t15 34h49q-6 -49 -32 -75t-64 -26z" />
    <glyph glyph-name="utilde" unicode="&#x169;" horiz-adv-x="572" 
d="M250 -12q-88 0 -140 53.5t-52 164.5v290h84v-281q0 -155 127 -155q65 0 107.5 46.5t42.5 132.5v257h84v-496h-76l-6 89q-23 -47 -68.5 -74t-102.5 -27zM341 552q-27 0 -45 12t-33.5 23.5t-36.5 11.5q-36 0 -42 -45h-49q7 51 32 76t63 25q26 0 44 -12t33.5 -23.5
t37.5 -11.5q16 0 28 11t15 34h49q-6 -49 -32 -75t-64 -26z" />
    <glyph glyph-name="Umacron" unicode="&#x16a;" horiz-adv-x="656" 
d="M327 -12q-72 0 -130.5 28.5t-93.5 88.5t-35 153v442h84v-443q0 -102 49 -148t128 -46t127 46t48 148v443h84v-442q0 -93 -35 -153t-94 -88.5t-132 -28.5zM153 796v63h347v-63h-347z" />
    <glyph glyph-name="umacron" unicode="&#x16b;" horiz-adv-x="572" 
d="M250 -12q-88 0 -140 53.5t-52 164.5v290h84v-281q0 -155 127 -155q65 0 107.5 46.5t42.5 132.5v257h84v-496h-76l-6 89q-23 -47 -68.5 -74t-102.5 -27zM102 592v63h347v-63h-347z" />
    <glyph glyph-name="Ubreve" unicode="&#x16c;" horiz-adv-x="656" 
d="M327 -12q-72 0 -130.5 28.5t-93.5 88.5t-35 153v442h84v-443q0 -102 49 -148t128 -46t127 46t48 148v443h84v-442q0 -93 -35 -153t-94 -88.5t-132 -28.5zM327 757q-69 0 -104.5 37.5t-35.5 92.5v14h50q0 -37 21 -57.5t69 -20.5t69 20.5t21 57.5h51v-14q0 -55 -36.5 -92.5
t-104.5 -37.5z" />
    <glyph glyph-name="ubreve" unicode="&#x16d;" horiz-adv-x="572" 
d="M250 -12q-88 0 -140 53.5t-52 164.5v290h84v-281q0 -155 127 -155q65 0 107.5 46.5t42.5 132.5v257h84v-496h-76l-6 89q-23 -47 -68.5 -74t-102.5 -27zM277 553q-69 0 -104.5 37.5t-35.5 92.5v14h50q0 -37 21 -57.5t69 -20.5t69 20.5t21 57.5h51v-14q0 -55 -36.5 -92.5
t-104.5 -37.5z" />
    <glyph glyph-name="Uring" unicode="&#x16e;" horiz-adv-x="656" 
d="M327 -12q-72 0 -130.5 28.5t-93.5 88.5t-35 153v442h84v-443q0 -102 49 -148t128 -46t127 46t48 148v443h84v-442q0 -93 -35 -153t-94 -88.5t-132 -28.5zM327 761q-43 0 -74 27.5t-31 75.5t31 75.5t74 27.5q44 0 74.5 -27.5t30.5 -75.5t-30.5 -75.5t-74.5 -27.5zM327 804
q24 0 40.5 16.5t16.5 43.5t-16.5 43t-40.5 16t-40.5 -16t-16.5 -43t16.5 -43.5t40.5 -16.5z" />
    <glyph glyph-name="uring" unicode="&#x16f;" horiz-adv-x="572" 
d="M250 -12q-88 0 -140 53.5t-52 164.5v290h84v-281q0 -155 127 -155q65 0 107.5 46.5t42.5 132.5v257h84v-496h-76l-6 89q-23 -47 -68.5 -74t-102.5 -27zM277 557q-43 0 -74 27.5t-31 75.5t31 75.5t74 27.5q44 0 74.5 -27.5t30.5 -75.5t-30.5 -75.5t-74.5 -27.5zM277 600
q24 0 40.5 16.5t16.5 43.5t-16.5 43t-40.5 16t-40.5 -16t-16.5 -43t16.5 -43.5t40.5 -16.5z" />
    <glyph glyph-name="Uhungarumlaut" unicode="&#x170;" horiz-adv-x="656" 
d="M327 -12q-72 0 -130.5 28.5t-93.5 88.5t-35 153v442h84v-443q0 -102 49 -148t128 -46t127 46t48 148v443h84v-442q0 -93 -35 -153t-94 -88.5t-132 -28.5zM363 753l72 149h73l-89 -149h-56zM217 753l66 149h73l-82 -149h-57z" />
    <glyph glyph-name="uhungarumlaut" unicode="&#x171;" horiz-adv-x="572" 
d="M250 -12q-88 0 -140 53.5t-52 164.5v290h84v-281q0 -155 127 -155q65 0 107.5 46.5t42.5 132.5v257h84v-496h-76l-6 89q-23 -47 -68.5 -74t-102.5 -27zM312 549l72 149h73l-89 -149h-56zM166 549l66 149h73l-82 -149h-57z" />
    <glyph glyph-name="Uogonek" unicode="&#x172;" horiz-adv-x="656" 
d="M327 -12q-72 0 -130.5 28.5t-93.5 88.5t-35 153v442h84v-443q0 -102 49 -148t128 -46t127 46t48 148v443h84v-442q0 -93 -35 -153t-94 -88.5t-132 -28.5zM326 -203q-31 0 -57.5 9.5t-43.5 30.5t-17 55q0 35 25.5 67t90.5 61l52 23l22 -43l-58 -28q-36 -18 -50 -35.5
t-14 -36.5q0 -23 16.5 -36t43.5 -13q30 0 65 15v-56q-37 -13 -75 -13z" />
    <glyph glyph-name="uogonek" unicode="&#x173;" horiz-adv-x="572" 
d="M250 -12q-88 0 -140 53.5t-52 164.5v290h84v-281q0 -155 127 -155q65 0 107.5 46.5t42.5 132.5v257h84v-496h-76l-6 89q-23 -47 -68.5 -74t-102.5 -27zM431 -203q-30 0 -57 9.5t-44 30.5t-17 55q0 35 25.5 67t90.5 61l53 23l21 -43l-58 -28q-36 -18 -50 -35.5t-14 -36.5
q0 -23 16.5 -36t43.5 -13q30 0 65 15v-56q-37 -13 -75 -13z" />
    <glyph glyph-name="Wcircumflex" unicode="&#x174;" horiz-adv-x="967" 
d="M218 -1l-192 701h90l151 -601l172 601h93l167 -601l153 601h90l-196 -700h-96l-167 578l-171 -578zM348 755v66l137 81l137 -81v-66l-137 84z" />
    <glyph glyph-name="wcircumflex" unicode="&#x175;" horiz-adv-x="754" 
d="M169 0l-145 496h84l105 -389l116 389h95l117 -389l104 389h85l-145 -496h-86l-122 409l-122 -409h-86zM240 551v66l137 81l137 -81v-66l-137 84z" />
    <glyph glyph-name="Ycircumflex" unicode="&#x176;" horiz-adv-x="579" 
d="M248 0v266l-228 434h95l175 -354l175 354h94l-227 -434v-266h-84zM153 755v66l137 81l137 -81v-66l-137 84z" />
    <glyph glyph-name="ycircumflex" unicode="&#x177;" horiz-adv-x="556" 
d="M123 -220l123 268h-29l-197 448h91l164 -386l174 386h87l-325 -716h-88zM139 551v66l137 81l137 -81v-66l-137 84z" />
    <glyph glyph-name="Ydieresis" unicode="&#x178;" horiz-adv-x="579" 
d="M248 0v266l-228 434h95l175 -354l175 354h94l-227 -434v-266h-84zM371 775q-21 0 -35.5 14.5t-14.5 35.5q0 20 14.5 35t35.5 15t35 -15t14 -35q0 -21 -14 -35.5t-35 -14.5zM211 775q-21 0 -35.5 14.5t-14.5 35.5q0 20 14.5 35t35.5 15q20 0 35 -15t15 -35
q0 -21 -15 -35.5t-35 -14.5z" />
    <glyph glyph-name="Zacute" unicode="&#x179;" horiz-adv-x="535" 
d="M44 0v66l345 561h-340v73h438v-66l-346 -561h350v-73h-447zM223 741v63l210 127v-73z" />
    <glyph glyph-name="zacute" unicode="&#x17a;" horiz-adv-x="452" 
d="M35 0v69l276 357h-271v70h365v-69l-276 -357h281v-70h-375zM180 537v63l210 127v-73z" />
    <glyph glyph-name="Zdotaccent" unicode="&#x17b;" horiz-adv-x="535" 
d="M44 0v66l345 561h-340v73h438v-66l-346 -561h350v-73h-447zM268 766q-21 0 -35.5 15t-14.5 35q0 21 14.5 35.5t35.5 14.5q20 0 35 -14.5t15 -35.5q0 -20 -15 -35t-35 -15z" />
    <glyph glyph-name="zdotaccent" unicode="&#x17c;" horiz-adv-x="452" 
d="M35 0v69l276 357h-271v70h365v-69l-276 -357h281v-70h-375zM224 562q-21 0 -35.5 15t-14.5 35q0 21 14.5 35.5t35.5 14.5q20 0 35 -14.5t15 -35.5q0 -20 -15 -35t-35 -15z" />
    <glyph glyph-name="Zcaron" unicode="&#x17d;" horiz-adv-x="535" 
d="M44 0v66l345 561h-340v73h438v-66l-346 -561h350v-73h-447zM268 754l-137 82v65l137 -84l137 84v-65z" />
    <glyph glyph-name="zcaron" unicode="&#x17e;" horiz-adv-x="452" 
d="M35 0v69l276 357h-271v70h365v-69l-276 -357h281v-70h-375zM224 550l-137 82v65l137 -84l137 84v-65z" />
    <glyph glyph-name="uni018F" unicode="&#x18f;" horiz-adv-x="755" 
d="M372 -12q-95 0 -168.5 39t-115 112t-41.5 177q0 27 3 59h568q-3 82 -35 140t-86 89.5t-122 31.5q-81 0 -143 -41.5t-85 -115.5h-95q21 70 66.5 122.5t111 81.5t145.5 29q99 0 174 -46t117 -128t42 -192q0 -107 -42 -187.5t-117.5 -125.5t-176.5 -45zM372 64
q67 0 121.5 28t87.5 81.5t37 129.5h-483q-1 -72 28 -126t83 -83.5t126 -29.5z" />
    <glyph glyph-name="florin" unicode="&#x192;" horiz-adv-x="333" 
d="M-44 -191l6 70h22q30 0 45 14t20 53l56 532h-72l6 70h74l5 48q9 89 62 129.5t152 40.5l-6 -71q-60 0 -89.5 -23t-34.5 -76l-5 -48h120l-6 -70h-122l-56 -532q-8 -73 -45 -105t-107 -32h-25z" />
    <glyph glyph-name="AEacute" unicode="&#x1fc;" horiz-adv-x="911" 
d="M30 0l399 700h425v-67h-289v-247h259v-66h-259v-253h289v-67h-373v159h-269l-90 -159h-92zM481 631l-231 -405h231v405zM521 741v63l210 127v-73z" />
    <glyph glyph-name="aeacute" unicode="&#x1fd;" horiz-adv-x="913" 
d="M237 -12q-63 0 -104.5 21t-62 56t-20.5 76q0 76 57.5 116t153.5 40h138v8q0 65 -34.5 98.5t-87.5 33.5q-45 0 -79.5 -24.5t-42.5 -71.5h-87q6 54 37 91t76.5 56.5t95.5 19.5q63 0 108.5 -24t69.5 -67q32 44 80.5 67.5t106.5 23.5q70 0 121.5 -32t79.5 -84.5t28 -113.5
q0 -10 -0.5 -21t-1.5 -25h-385q2 -58 25 -96.5t58.5 -57.5t72.5 -19q56 0 91 28t51 76h81q-18 -75 -76 -125t-146 -50q-66 0 -120 31.5t-85 86.5q-29 -50 -78.5 -84t-120.5 -34zM485 297h303q-4 66 -46 103t-100 37t-103.5 -36t-53.5 -104zM243 59q42 0 75.5 22t54.5 56.5
t25 74.5v20h-129q-71 0 -101 -24t-30 -62q0 -39 28 -63t77 -24zM438 537v63l210 127v-73z" />
    <glyph glyph-name="uni0218" unicode="&#x218;" horiz-adv-x="578" 
d="M297 -12q-77 0 -134 28t-88 78t-31 116h88q0 -41 19 -75.5t55.5 -55t90.5 -20.5q71 0 110 34t39 85q0 42 -18 67.5t-48.5 41.5t-70 28t-82.5 27q-81 28 -120 69.5t-39 108.5q-1 56 26 99.5t76.5 68t117.5 24.5q67 0 116.5 -25t77 -69t28.5 -100h-88q0 29 -15 57.5
t-45.5 46.5t-76.5 18q-57 1 -93.5 -29t-36.5 -83q0 -45 25.5 -69t71.5 -39.5t106 -35.5q50 -18 90 -42t62.5 -62t22.5 -97q0 -50 -26 -94.5t-78.5 -72.5t-131.5 -28zM255 -238v40q48 0 48 57v14h-46v77h86q10 -41 10 -74q0 -60 -25.5 -87t-72.5 -27z" />
    <glyph glyph-name="uni0219" unicode="&#x219;" horiz-adv-x="500" 
d="M259 -12q-89 0 -148 45t-69 122h86q8 -39 41.5 -67.5t90.5 -28.5q53 0 78 22.5t25 53.5q0 45 -32.5 60t-91.5 27q-40 8 -80 23t-67 42.5t-27 72.5q0 65 48.5 106.5t131.5 41.5q79 0 129.5 -39.5t58.5 -112.5h-83q-5 38 -32.5 59.5t-73.5 21.5q-45 0 -69.5 -19t-24.5 -50
q0 -30 31.5 -47t85.5 -29q46 -10 87.5 -24.5t68 -43t26.5 -82.5q1 -67 -50.5 -110.5t-139.5 -43.5zM221 -238v40q47 0 47 57v14h-46v77h86q10 -41 10 -74q0 -60 -25.5 -87t-71.5 -27z" />
    <glyph glyph-name="uni021A" unicode="&#x21a;" horiz-adv-x="560" 
d="M238 0v631h-209v69h502v-69h-209v-631h-84zM232 -238v40q47 0 47 57v14h-46v77h87q9 -42 9 -74q0 -60 -25.5 -87t-71.5 -27z" />
    <glyph glyph-name="uni021B" unicode="&#x21b;" horiz-adv-x="387" 
d="M265 0q-68 0 -107 33t-39 119v273h-86v71h86l11 119h73v-119h146v-71h-146v-273q0 -47 19 -63.5t67 -16.5h52v-72h-76zM193 -238v40q47 0 47 57v14h-46v77h86q6 -20 8 -39t2 -35q0 -60 -25.5 -87t-71.5 -27z" />
    <glyph glyph-name="uni0259" unicode="&#x259;" horiz-adv-x="569" 
d="M275 -12q-72 0 -124.5 32.5t-80.5 85.5t-28 114q0 11 0.5 22t1.5 25h395q-3 57 -26.5 94.5t-59.5 56.5t-76 19q-51 0 -86.5 -24t-51.5 -65h-83q20 69 76.5 114.5t144.5 45.5q71 0 126 -32.5t86.5 -90.5t31.5 -137q0 -78 -31 -136.5t-86.5 -91t-128.5 -32.5zM277 59
q61 0 107 36.5t54 106.5h-313q3 -67 46 -105t106 -38z" />
    <glyph glyph-name="circumflex" unicode="&#x2c6;" horiz-adv-x="318" 
d="M22 551v66l137 81l137 -81v-66l-137 84z" />
    <glyph glyph-name="caron" unicode="&#x2c7;" horiz-adv-x="318" 
d="M159 550l-137 82v65l137 -84l137 84v-65z" />
    <glyph glyph-name="breve" unicode="&#x2d8;" horiz-adv-x="325" 
d="M162 553q-69 0 -104.5 37.5t-35.5 92.5v14h50q0 -37 21 -57.5t69 -20.5t69 20.5t21 57.5h51v-14q0 -55 -36.5 -92.5t-104.5 -37.5z" />
    <glyph glyph-name="dotaccent" unicode="&#x2d9;" horiz-adv-x="151" 
d="M75 562q-20 0 -34.5 15t-14.5 35q0 21 14.5 35.5t34.5 14.5q21 0 35.5 -14.5t14.5 -35.5q0 -20 -14.5 -35t-35.5 -15z" />
    <glyph glyph-name="ring" unicode="&#x2da;" horiz-adv-x="250" 
d="M125 557q-43 0 -74 27.5t-31 75.5t31 75.5t74 27.5q44 0 74.5 -27.5t30.5 -75.5t-30.5 -75.5t-74.5 -27.5zM125 600q24 0 40.5 16.5t16.5 43.5t-16.5 43t-40.5 16q-23 0 -40 -16t-17 -43t17 -43.5t40 -16.5z" />
    <glyph glyph-name="ogonek" unicode="&#x2db;" horiz-adv-x="251" 
d="M145 -203q-31 0 -57.5 9.5t-43.5 30.5t-17 55q0 35 25.5 67t90.5 61l52 23l22 -43l-58 -28q-36 -18 -50 -35.5t-14 -36.5q0 -23 16.5 -36t43.5 -13q30 0 65 15v-56q-37 -13 -75 -13z" />
    <glyph glyph-name="tilde" unicode="&#x2dc;" horiz-adv-x="345" 
d="M227 552q-27 0 -44.5 12t-33.5 23.5t-36 11.5q-37 0 -43 -45h-49q7 51 32.5 76t62.5 25q27 0 44.5 -12t33.5 -23.5t37 -11.5q17 0 29 11t15 34h48q-5 -49 -31.5 -75t-64.5 -26z" />
    <glyph glyph-name="hungarumlaut" unicode="&#x2dd;" horiz-adv-x="341" 
d="M168 549l72 149h73l-89 -149h-56zM22 549l66 149h73l-82 -149h-57z" />
    <glyph glyph-name="gravecomb" unicode="&#x300;" 
d="M210 537l-210 117v73l210 -127v-63z" />
    <glyph glyph-name="acutecomb" unicode="&#x301;" 
d="M0 537v63l210 127v-73z" />
    <glyph glyph-name="uni0302" unicode="&#x302;" 
d="M0 551v66l137 81l137 -81v-66l-137 84z" />
    <glyph glyph-name="tildecomb" unicode="&#x303;" 
d="M206 552q-27 0 -45 12t-33.5 23.5t-36.5 11.5q-36 0 -42 -45h-49q7 51 32 76t63 25q26 0 44 -12t33.5 -23.5t37.5 -11.5q16 0 28 11t15 34h49q-6 -49 -32 -75t-64 -26z" />
    <glyph glyph-name="uni0304" unicode="&#x304;" 
d="M0 592v63h347v-63h-347z" />
    <glyph glyph-name="uni0306" unicode="&#x306;" 
d="M140 553q-69 0 -104.5 37.5t-35.5 92.5v14h50q0 -37 21 -57.5t69 -20.5t69 20.5t21 57.5h51v-14q0 -55 -36.5 -92.5t-104.5 -37.5z" />
    <glyph glyph-name="uni0307" unicode="&#x307;" 
d="M50 562q-21 0 -35.5 15t-14.5 35q0 21 14.5 35.5t35.5 14.5q20 0 35 -14.5t15 -35.5q0 -20 -15 -35t-35 -15z" />
    <glyph glyph-name="uni0308" unicode="&#x308;" 
d="M210 571q-21 0 -35.5 14.5t-14.5 35.5q0 20 14.5 35t35.5 15t35 -15t14 -35q0 -21 -14 -35.5t-35 -14.5zM50 571q-21 0 -35.5 14.5t-14.5 35.5q0 20 14.5 35t35.5 15q20 0 35 -15t15 -35q0 -21 -15 -35.5t-35 -14.5z" />
    <glyph glyph-name="uni030A" unicode="&#x30a;" 
d="M105 557q-43 0 -74 27.5t-31 75.5t31 75.5t74 27.5q44 0 74.5 -27.5t30.5 -75.5t-30.5 -75.5t-74.5 -27.5zM105 600q24 0 40.5 16.5t16.5 43.5t-16.5 43t-40.5 16t-40.5 -16t-16.5 -43t16.5 -43.5t40.5 -16.5z" />
    <glyph glyph-name="uni030B" unicode="&#x30b;" 
d="M146 549l72 149h73l-89 -149h-56zM0 549l66 149h73l-82 -149h-57z" />
    <glyph glyph-name="uni030C" unicode="&#x30c;" 
d="M137 550l-137 82v65l137 -84l137 84v-65z" />
    <glyph glyph-name="uni0327" unicode="&#x327;" 
d="M0 -259v53h92q68 0 68 48q0 45 -68 45h-49v120h56v-70q57 1 93 -23t36 -73q0 -47 -34 -73.5t-87 -26.5h-107z" />
    <glyph glyph-name="uni0328" unicode="&#x328;" 
d="M118 -203q-30 0 -57 9.5t-44 30.5t-17 55q0 35 25.5 67t90.5 61l53 23l21 -43l-58 -28q-36 -18 -50 -35.5t-14 -36.5q0 -23 16.5 -36t43.5 -13q30 0 65 15v-56q-37 -13 -75 -13z" />
    <glyph glyph-name="pi" unicode="&#x3c0;" horiz-adv-x="646" 
d="M125 0v430h-79v66h554v-66h-79v-430h-84v430h-228v-430h-84z" />
    <glyph glyph-name="Wgrave" unicode="&#x1e80;" horiz-adv-x="967" 
d="M218 -1l-192 701h90l151 -601l172 601h93l167 -601l153 601h90l-196 -700h-96l-167 578l-171 -578zM529 741l-210 117v73l210 -127v-63z" />
    <glyph glyph-name="wgrave" unicode="&#x1e81;" horiz-adv-x="754" 
d="M169 0l-145 496h84l105 -389l116 389h95l117 -389l104 389h85l-145 -496h-86l-122 409l-122 -409h-86zM421 537l-210 117v73l210 -127v-63z" />
    <glyph glyph-name="Wacute" unicode="&#x1e82;" horiz-adv-x="967" 
d="M218 -1l-192 701h90l151 -601l172 601h93l167 -601l153 601h90l-196 -700h-96l-167 578l-171 -578zM440 741v63l210 127v-73z" />
    <glyph glyph-name="wacute" unicode="&#x1e83;" horiz-adv-x="754" 
d="M169 0l-145 496h84l105 -389l116 389h95l117 -389l104 389h85l-145 -496h-86l-122 409l-122 -409h-86zM332 537v63l210 127v-73z" />
    <glyph glyph-name="Wdieresis" unicode="&#x1e84;" horiz-adv-x="967" 
d="M218 -1l-192 701h90l151 -601l172 601h93l167 -601l153 601h90l-196 -700h-96l-167 578l-171 -578zM565 775q-21 0 -35.5 14.5t-14.5 35.5q0 20 14.5 35t35.5 15t35 -15t14 -35q0 -21 -14 -35.5t-35 -14.5zM405 775q-21 0 -35.5 14.5t-14.5 35.5q0 20 14.5 35t35.5 15
q20 0 35 -15t15 -35q0 -21 -15 -35.5t-35 -14.5z" />
    <glyph glyph-name="wdieresis" unicode="&#x1e85;" horiz-adv-x="754" 
d="M169 0l-145 496h84l105 -389l116 389h95l117 -389l104 389h85l-145 -496h-86l-122 409l-122 -409h-86zM458 571q-21 0 -35.5 14.5t-14.5 35.5q0 20 14.5 35t35.5 15t35 -15t14 -35q0 -21 -14 -35.5t-35 -14.5zM298 571q-21 0 -35.5 14.5t-14.5 35.5q0 20 14.5 35t35.5 15
q20 0 35 -15t15 -35q0 -21 -15 -35.5t-35 -14.5z" />
    <glyph glyph-name="uni1EBC" unicode="&#x1ebc;" horiz-adv-x="564" 
d="M74 0v700h433v-69h-349v-244h319v-68h-319v-250h349v-69h-433zM360 756q-27 0 -45 12t-33.5 23.5t-36.5 11.5q-36 0 -42 -45h-49q7 51 32 76t63 25q26 0 44 -12t33.5 -23.5t37.5 -11.5q16 0 28 11t15 34h49q-6 -49 -32 -75t-64 -26z" />
    <glyph glyph-name="uni1EBD" unicode="&#x1ebd;" horiz-adv-x="569" 
d="M292 -12q-71 0 -126 32.5t-86.5 90.5t-31.5 137q0 78 31 136.5t86.5 91t128.5 32.5q72 0 124.5 -32.5t80.5 -85.5t28 -114q0 -11 -0.5 -22t-0.5 -25h-395q3 -57 26.5 -94.5t59 -56.5t75.5 -19q52 0 87 24t51 65h83q-20 -69 -76.5 -114.5t-144.5 -45.5zM292 437
q-60 0 -106.5 -36.5t-53.5 -106.5h312q-3 67 -46 105t-106 38zM346 552q-27 0 -44.5 12t-33.5 23.5t-36 11.5q-37 0 -43 -45h-49q7 51 32.5 76t62.5 25q27 0 44.5 -12t33.5 -23.5t37 -11.5q17 0 29 11t15 34h48q-5 -49 -31.5 -75t-64.5 -26z" />
    <glyph glyph-name="Ygrave" unicode="&#x1ef2;" horiz-adv-x="579" 
d="M248 0v266l-228 434h95l175 -354l175 354h94l-227 -434v-266h-84zM335 741l-210 117v73l210 -127v-63z" />
    <glyph glyph-name="ygrave" unicode="&#x1ef3;" horiz-adv-x="556" 
d="M123 -220l123 268h-29l-197 448h91l164 -386l174 386h87l-325 -716h-88zM321 537l-210 117v73l210 -127v-63z" />
    <glyph glyph-name="uni1EF8" unicode="&#x1ef8;" horiz-adv-x="579" 
d="M248 0v266l-228 434h95l175 -354l175 354h94l-227 -434v-266h-84zM355 756q-27 0 -45 12t-33.5 23.5t-36.5 11.5q-36 0 -42 -45h-49q7 51 32 76t63 25q26 0 44 -12t33.5 -23.5t37.5 -11.5q16 0 28 11t15 34h49q-6 -49 -32 -75t-64 -26z" />
    <glyph glyph-name="uni1EF9" unicode="&#x1ef9;" horiz-adv-x="556" 
d="M123 -220l123 268h-29l-197 448h91l164 -386l174 386h87l-325 -716h-88zM341 552q-27 0 -45 12t-33.5 23.5t-36.5 11.5q-36 0 -42 -45h-49q7 51 32 76t63 25q26 0 44 -12t33.5 -23.5t37.5 -11.5q16 0 28 11t15 34h49q-6 -49 -32 -75t-64 -26z" />
    <glyph glyph-name="endash" unicode="&#x2013;" horiz-adv-x="641" 
d="M59 255v71h524v-71h-524z" />
    <glyph glyph-name="emdash" unicode="&#x2014;" horiz-adv-x="846" 
d="M59 255v71h728v-71h-728z" />
    <glyph glyph-name="quoteleft" unicode="&#x2018;" horiz-adv-x="212" 
d="M29 477l90 223h60l-56 -223h-94z" />
    <glyph glyph-name="quoteright" unicode="&#x2019;" horiz-adv-x="213" 
d="M33 477l58 223h94l-92 -223h-60z" />
    <glyph glyph-name="quotesinglbase" unicode="&#x201a;" horiz-adv-x="184" 
d="M2 -121l57 223h94l-91 -223h-60z" />
    <glyph glyph-name="quotedblleft" unicode="&#x201c;" horiz-adv-x="370" 
d="M29 477l90 223h60l-56 -223h-94zM185 477l91 223h60l-57 -223h-94z" />
    <glyph glyph-name="quotedblright" unicode="&#x201d;" horiz-adv-x="370" 
d="M190 477l57 223h94l-91 -223h-60zM33 477l58 223h94l-92 -223h-60z" />
    <glyph glyph-name="quotedblbase" unicode="&#x201e;" horiz-adv-x="342" 
d="M2 -121l57 223h94l-91 -223h-60zM161 -121l56 223h94l-90 -223h-60z" />
    <glyph glyph-name="dagger" unicode="&#x2020;" horiz-adv-x="531" 
d="M224 -259l8 747l-191 -7v67l191 -8l-8 240h83l-8 -240l190 8v-67l-190 7l8 -747h-83z" />
    <glyph glyph-name="daggerdbl" unicode="&#x2021;" horiz-adv-x="532" 
d="M224 -259l9 240l-191 -7v67l191 -8v455l-191 -7v67l191 -8l-9 240h83l-8 -240l191 8v-67l-191 7v-455l191 8v-67l-191 7l8 -240h-83z" />
    <glyph glyph-name="bullet" unicode="&#x2022;" horiz-adv-x="358" 
d="M178 213q-32 0 -59.5 16t-43.5 43.5t-16 60.5q0 34 16 61.5t43.5 43.5t59.5 16q34 0 61.5 -16t43.5 -43.5t16 -61.5q0 -33 -16 -60.5t-43.5 -43.5t-61.5 -16z" />
    <glyph glyph-name="ellipsis" unicode="&#x2026;" horiz-adv-x="563" 
d="M282 -5q-25 0 -41.5 16.5t-16.5 40.5t16.5 40.5t41.5 16.5q24 0 40.5 -16.5t16.5 -40.5t-16.5 -40.5t-40.5 -16.5zM466 -5q-25 0 -41.5 16.5t-16.5 40.5t16.5 40.5t41.5 16.5q24 0 40.5 -16.5t16.5 -40.5t-16.5 -40.5t-40.5 -16.5zM98 -5q-25 0 -41.5 16.5t-16.5 40.5
t16.5 40.5t41.5 16.5q24 0 40.5 -16.5t16.5 -40.5t-16.5 -40.5t-40.5 -16.5z" />
    <glyph glyph-name="perthousand" unicode="&#x2030;" horiz-adv-x="1123" 
d="M200 375q-45 0 -81.5 20.5t-57.5 58t-21 89.5t21.5 89.5t58 58t81.5 20.5t81 -20.5t57 -58t21 -89.5t-21.5 -89.5t-57.5 -58t-81 -20.5zM138 0l407 700h84l-407 -700h-84zM200 438q35 0 62.5 26.5t27.5 78.5q0 53 -27 79.5t-62 26.5q-36 0 -63.5 -26.5t-27.5 -79.5
q0 -52 27 -78.5t63 -26.5zM574 -12q-45 0 -81.5 20.5t-57.5 58t-21 89.5t21.5 89.5t57.5 58t81 20.5t81 -20.5t57 -58t21 -89.5t-21 -89.5t-57 -58t-81 -20.5zM923 -12q-45 0 -81 20.5t-57.5 58t-21.5 89.5t21.5 89.5t58 58t81.5 20.5t81 -20.5t57 -58t21 -89.5t-21 -89.5
t-57.5 -58t-81.5 -20.5zM573 51q36 0 63.5 26.5t27.5 78.5q0 53 -27 79.5t-63 26.5q-35 0 -63 -26.5t-28 -79.5q0 -52 27.5 -78.5t62.5 -26.5zM923 51q36 0 63 26.5t27 78.5q0 53 -26.5 79.5t-62.5 26.5t-63.5 -26.5t-27.5 -79.5q0 -52 27 -78.5t63 -26.5z" />
    <glyph glyph-name="guilsinglleft" unicode="&#x2039;" horiz-adv-x="274" 
d="M141 120l-97 175l97 175h83l-100 -175l100 -175h-83z" />
    <glyph glyph-name="guilsinglright" unicode="&#x203a;" horiz-adv-x="274" 
d="M50 120l100 175l-100 175h83l97 -175l-97 -175h-83z" />
    <glyph glyph-name="fraction" unicode="&#x2044;" horiz-adv-x="431" 
d="M-24 0l407 700h85l-408 -700h-84z" />
    <glyph glyph-name="uni2074" unicode="&#x2074;" horiz-adv-x="321" 
d="M193 352v66h-172v50l164 232h74v-228h46v-54h-46v-66h-66zM91 472h107v156z" />
    <glyph glyph-name="uni20A8" unicode="&#x20a8;" horiz-adv-x="1090" 
d="M78 0v699h221q82 0 135 -27t78.5 -73.5t25.5 -104.5q0 -76 -44.5 -131.5t-140.5 -68.5l194 -294h-101l-187 290h-97v-290h-84zM162 356h136q83 0 118.5 38t35.5 99q0 63 -35.5 101t-118.5 38h-136v-276zM824 -8q-93 0 -152 45.5t-67 128.5h85q5 -47 39.5 -77.5
t95.5 -30.5q54 0 82.5 26t28.5 64q0 32 -18 50.5t-47 29t-64.5 18t-70.5 17t-64 25t-47 42t-18 69.5q0 44 24 79.5t68.5 56.5t105.5 21q90 0 145 -47t61 -127h-84q-5 46 -36.5 77t-89.5 31q-54 0 -83.5 -25.5t-29.5 -64.5q0 -31 18 -49t47 -28t64.5 -17.5t70.5 -17
t64.5 -25.5t47 -44t17.5 -72q0 -46 -24 -81t-67.5 -54.5t-101.5 -19.5z" />
    <glyph glyph-name="Euro" unicode="&#x20ac;" horiz-adv-x="775" 
d="M23 242v63h81q-2 22 -2 45t2 46h-81v62h91q27 116 111 185t210 69q121 0 196 -57.5t96 -160.5h-93q-16 65 -65 104.5t-134 39.5q-88 0 -149 -47t-84 -133h253v-62h-265q-2 -22 -2 -46t2 -45h265v-63h-254q24 -85 85 -132.5t149 -47.5q85 0 134 38.5t65 102.5h93
q-21 -101 -96 -158t-196 -57q-127 0 -211 69t-111 185h-90z" />
    <glyph glyph-name="uni20BD" unicode="&#x20bd;" horiz-adv-x="621" 
d="M127 0v126h-87v67h87v101h-87v69h87v336h220q82 0 135 -26.5t78.5 -72.5t25.5 -104q0 -56 -25 -102t-78 -73t-136 -27h-136v-101h223v-67h-223v-126h-84zM346 633h-135v-270h135q83 0 119 36.5t36 96.5q0 64 -36 100.5t-119 36.5z" />
    <glyph glyph-name="uni2113" unicode="&#x2113;" horiz-adv-x="232" 
d="M74 -100v820h84v-820h-84z" />
    <glyph glyph-name="trademark" unicode="&#x2122;" horiz-adv-x="772" 
d="M326 348v352h85l113 -274l118 274h80v-352h-62l-1 260l-113 -260h-48l-112 264v-264h-60zM116 348l1 299h-90v53h245v-53h-90l1 -299h-67z" />
    <glyph glyph-name="uni2126" unicode="&#x2126;" horiz-adv-x="789" 
d="M56 0v66h143q-77 42 -116.5 120.5t-39.5 170.5q0 79 27 144t75 112.5t112 73t137 25.5q74 0 138 -25.5t112.5 -73t75.5 -112.5t27 -144q0 -92 -40 -170.5t-117 -120.5h142v-66h-274v69q59 15 105 53.5t72.5 97t26.5 132.5q0 86 -35.5 150t-96 99t-136.5 35
q-77 0 -137.5 -35.5t-95 -99.5t-34.5 -149q0 -74 26.5 -132.5t72.5 -97t105 -53.5v-69h-275z" />
    <glyph glyph-name="estimated" unicode="&#x212e;" horiz-adv-x="762" 
d="M390 -7q-98 0 -175.5 39t-122 114.5t-44.5 183.5q0 103 38.5 186.5t113 133t181.5 49.5q80 0 142 -26.5t104.5 -72.5t64.5 -104t22 -121v-61h-536v-166q39 -48 89 -73t123 -25q76 0 136 34t121 95l39 -42q-62 -67 -136 -105.5t-160 -38.5zM178 376h396v177q-31 43 -81 66
t-112 23q-63 0 -115.5 -24t-87.5 -76v-166z" />
    <glyph glyph-name="partialdiff" unicode="&#x2202;" horiz-adv-x="567" 
d="M234 -10q-54 0 -98 25t-70.5 76t-26.5 130q0 66 19 126.5t54.5 107.5t84.5 74.5t108 27.5q48 0 85.5 -24t53.5 -89q-2 70 -17.5 125t-50.5 87.5t-95 32.5q-19 0 -38.5 -3.5t-41.5 -9.5v50q50 14 95 14q110 0 171 -84t61 -243q0 -130 -38.5 -225t-105 -146.5t-150.5 -51.5
zM242 62q56 0 98.5 37t66.5 97t24 130q0 82 -33 121t-88 39t-96.5 -35t-65.5 -95.5t-24 -134.5q0 -83 34.5 -121t83.5 -38z" />
    <glyph glyph-name="uni2206" unicode="&#x2206;" horiz-adv-x="695" 
d="M30 0v65l282 635h70l283 -635v-65h-635zM115 65h465l-233 539z" />
    <glyph glyph-name="product" unicode="&#x220f;" horiz-adv-x="725" 
d="M117 0v634h-80v66h651v-66h-79v-634h-84v634h-324v-634h-84z" />
    <glyph glyph-name="summation" unicode="&#x2211;" horiz-adv-x="450" 
d="M41 -49v96l262 279l-262 278v96h390v-65h-322l270 -275v-65l-268 -279h320v-65h-390z" />
    <glyph glyph-name="minus" unicode="&#x2212;" horiz-adv-x="522" 
d="M63 255v71h396v-71h-396z" />
    <glyph glyph-name="uni2215" unicode="&#x2215;" horiz-adv-x="391" 
d="M28 -95l251 859h83l-251 -859h-83z" />
    <glyph glyph-name="radical" unicode="&#x221a;" horiz-adv-x="712" 
d="M230 -44l-122 215l-64 -36l-26 44l136 79l113 -200l431 807h60l-487 -909h-41z" />
    <glyph glyph-name="infinity" unicode="&#x221e;" horiz-adv-x="703" 
d="M185 141q-63 0 -105.5 38t-42.5 107q0 70 43.5 109t105.5 39q59 0 98 -31.5t70 -71.5q23 43 64.5 73.5t98.5 29.5q63 0 106 -38t43 -107q0 -70 -44.5 -109t-108.5 -39q-57 0 -96 30t-70 69q-24 -41 -64.5 -70.5t-97.5 -28.5zM107 286q0 -39 22.5 -61.5t60.5 -22.5t70 23
t53 60q-27 36 -56 62.5t-68 26.5q-36 0 -59 -24t-23 -64zM513 373q-39 0 -71.5 -24t-53.5 -63q26 -35 54 -60t67 -25q40 0 63.5 24t23.5 63t-23 62t-60 23z" />
    <glyph glyph-name="integral" unicode="&#x222b;" horiz-adv-x="258" 
d="M-38 -191l7 70h21q28 0 39.5 14.5t15.5 52.5l93 836q8 72 44.5 102.5t100.5 30.5h22l-7 -71h-19q-25 0 -39 -13t-18 -49l-93 -836q-8 -73 -42.5 -105t-100.5 -32h-24z" />
    <glyph glyph-name="approxequal" unicode="&#x2248;" horiz-adv-x="508" 
d="M337 112q-29 0 -51 10.5t-41 23.5t-38 23t-41 10q-27 0 -44.5 -18.5t-21.5 -47.5h-63q12 72 46.5 106.5t87.5 34.5q28 0 51 -10t42 -23t38 -23t40 -10q27 0 44.5 18t21.5 48h63q-11 -72 -45.5 -107t-88.5 -35zM337 319q-29 0 -51 10.5t-41 23.5t-38 23t-41 10
q-27 0 -44.5 -18.5t-21.5 -47.5h-63q12 72 46.5 106.5t87.5 34.5q28 0 51 -10t42 -23t38 -23t40 -10q27 0 44.5 18t21.5 48h63q-11 -72 -45.5 -107t-88.5 -35z" />
    <glyph glyph-name="notequal" unicode="&#x2260;" horiz-adv-x="525" 
d="M115 84l36 67h-88v72h126l72 135h-198v73h236l35 66h76l-35 -66h87v-73h-126l-72 -135h198v-72h-236l-36 -67h-75z" />
    <glyph glyph-name="lessequal" unicode="&#x2264;" horiz-adv-x="481" 
d="M307 213l-245 192l245 193h110l-243 -193l243 -192h-110zM68 89v64h349v-64h-349z" />
    <glyph glyph-name="greaterequal" unicode="&#x2265;" horiz-adv-x="482" 
d="M65 213l242 192l-242 193h109l246 -193l-246 -192h-109zM64 89v64h349v-64h-349z" />
    <glyph glyph-name="lozenge" unicode="&#x25ca;" horiz-adv-x="553" 
d="M276 110l-239 240l240 239l239 -239zM276 198l151 152l-150 151l-150 -151z" />
    <glyph glyph-name="a.ss02" horiz-adv-x="628" 
d="M294 -12q-74 0 -129.5 34t-86 93t-30.5 134t31 133.5t86 92t130 33.5q61 0 108 -25t73 -70l4 83h80v-496h-79l-5 82q-24 -36 -69 -65t-113 -29zM303 61q50 0 88.5 23.5t60 65.5t21.5 98t-21.5 98t-60 65.5t-88.5 23.5q-49 0 -87.5 -23.5t-60 -65.5t-21.5 -98t21.5 -98
t60 -65.5t87.5 -23.5z" />
    <glyph glyph-name="aacute.ss02" horiz-adv-x="628" 
d="M294 -12q-74 0 -129.5 34t-86 93t-30.5 134t31 133.5t86 92t130 33.5q61 0 108 -25t73 -70l4 83h80v-496h-79l-5 82q-24 -36 -69 -65t-113 -29zM303 61q50 0 88.5 23.5t60 65.5t21.5 98t-21.5 98t-60 65.5t-88.5 23.5q-49 0 -87.5 -23.5t-60 -65.5t-21.5 -98t21.5 -98
t60 -65.5t87.5 -23.5zM256 534v63l210 127v-73z" />
    <glyph glyph-name="abreve.ss02" horiz-adv-x="628" 
d="M294 -12q-74 0 -129.5 34t-86 93t-30.5 134t31 133.5t86 92t130 33.5q61 0 108 -25t73 -70l4 83h80v-496h-79l-5 82q-24 -36 -69 -65t-113 -29zM303 61q50 0 88.5 23.5t60 65.5t21.5 98t-21.5 98t-60 65.5t-88.5 23.5q-49 0 -87.5 -23.5t-60 -65.5t-21.5 -98t21.5 -98
t60 -65.5t87.5 -23.5zM300 550q-69 0 -104.5 37.5t-35.5 92.5v14h50q0 -37 21 -57.5t69 -20.5t69 20.5t21 57.5h51v-14q0 -55 -36.5 -92.5t-104.5 -37.5z" />
    <glyph glyph-name="acircumflex.ss02" horiz-adv-x="628" 
d="M294 -12q-74 0 -129.5 34t-86 93t-30.5 134t31 133.5t86 92t130 33.5q61 0 108 -25t73 -70l4 83h80v-496h-79l-5 82q-24 -36 -69 -65t-113 -29zM303 61q50 0 88.5 23.5t60 65.5t21.5 98t-21.5 98t-60 65.5t-88.5 23.5q-49 0 -87.5 -23.5t-60 -65.5t-21.5 -98t21.5 -98
t60 -65.5t87.5 -23.5zM163 548v66l137 81l137 -81v-66l-137 84z" />
    <glyph glyph-name="adieresis.ss02" horiz-adv-x="628" 
d="M294 -12q-74 0 -129.5 34t-86 93t-30.5 134t31 133.5t86 92t130 33.5q61 0 108 -25t73 -70l4 83h80v-496h-79l-5 82q-24 -36 -69 -65t-113 -29zM303 61q50 0 88.5 23.5t60 65.5t21.5 98t-21.5 98t-60 65.5t-88.5 23.5q-49 0 -87.5 -23.5t-60 -65.5t-21.5 -98t21.5 -98
t60 -65.5t87.5 -23.5zM381 568q-21 0 -35.5 14.5t-14.5 35.5q0 20 14.5 35t35.5 15t35 -15t14 -35q0 -21 -14 -35.5t-35 -14.5zM221 568q-21 0 -35.5 14.5t-14.5 35.5q0 20 14.5 35t35.5 15q20 0 35 -15t15 -35q0 -21 -15 -35.5t-35 -14.5z" />
    <glyph glyph-name="agrave.ss02" horiz-adv-x="628" 
d="M294 -12q-74 0 -129.5 34t-86 93t-30.5 134t31 133.5t86 92t130 33.5q61 0 108 -25t73 -70l4 83h80v-496h-79l-5 82q-24 -36 -69 -65t-113 -29zM303 61q50 0 88.5 23.5t60 65.5t21.5 98t-21.5 98t-60 65.5t-88.5 23.5q-49 0 -87.5 -23.5t-60 -65.5t-21.5 -98t21.5 -98
t60 -65.5t87.5 -23.5zM345 534l-210 117v73l210 -127v-63z" />
    <glyph glyph-name="amacron.ss02" horiz-adv-x="628" 
d="M294 -12q-74 0 -129.5 34t-86 93t-30.5 134t31 133.5t86 92t130 33.5q61 0 108 -25t73 -70l4 83h80v-496h-79l-5 82q-24 -36 -69 -65t-113 -29zM303 61q50 0 88.5 23.5t60 65.5t21.5 98t-21.5 98t-60 65.5t-88.5 23.5q-49 0 -87.5 -23.5t-60 -65.5t-21.5 -98t21.5 -98
t60 -65.5t87.5 -23.5zM126 589v63h347v-63h-347z" />
    <glyph glyph-name="aogonek.ss02" horiz-adv-x="628" 
d="M294 -12q-74 0 -129.5 34t-86 93t-30.5 134t31 133.5t86 92t130 33.5q61 0 108 -25t73 -70l4 83h80v-496h-79l-5 82q-24 -36 -69 -65t-113 -29zM303 61q50 0 88.5 23.5t60 65.5t21.5 98t-21.5 98t-60 65.5t-88.5 23.5q-49 0 -87.5 -23.5t-60 -65.5t-21.5 -98t21.5 -98
t60 -65.5t87.5 -23.5zM488 -203q-30 0 -57 9.5t-44 30.5t-17 55q0 35 25.5 67t90.5 61l53 23l21 -43l-58 -28q-36 -18 -50 -35.5t-14 -36.5q0 -23 16.5 -36t43.5 -13q30 0 65 15v-56q-37 -13 -75 -13z" />
    <glyph glyph-name="aring.ss02" horiz-adv-x="628" 
d="M294 -12q-74 0 -129.5 34t-86 93t-30.5 134t31 133.5t86 92t130 33.5q61 0 108 -25t73 -70l4 83h80v-496h-79l-5 82q-24 -36 -69 -65t-113 -29zM303 61q50 0 88.5 23.5t60 65.5t21.5 98t-21.5 98t-60 65.5t-88.5 23.5q-49 0 -87.5 -23.5t-60 -65.5t-21.5 -98t21.5 -98
t60 -65.5t87.5 -23.5zM300 554q-43 0 -74 27.5t-31 75.5t31 75.5t74 27.5q44 0 74.5 -27.5t30.5 -75.5t-30.5 -75.5t-74.5 -27.5zM300 597q24 0 40.5 16.5t16.5 43.5t-16.5 43t-40.5 16t-40.5 -16t-16.5 -43t16.5 -43.5t40.5 -16.5z" />
    <glyph glyph-name="atilde.ss02" horiz-adv-x="628" 
d="M294 -12q-74 0 -129.5 34t-86 93t-30.5 134t31 133.5t86 92t130 33.5q61 0 108 -25t73 -70l4 83h80v-496h-79l-5 82q-24 -36 -69 -65t-113 -29zM303 61q50 0 88.5 23.5t60 65.5t21.5 98t-21.5 98t-60 65.5t-88.5 23.5q-49 0 -87.5 -23.5t-60 -65.5t-21.5 -98t21.5 -98
t60 -65.5t87.5 -23.5zM365 549q-27 0 -45 12t-33.5 23.5t-36.5 11.5q-36 0 -42 -45h-49q7 51 32 76t63 25q26 0 44 -12t33.5 -23.5t37.5 -11.5q16 0 28 11t15 34h49q-6 -49 -32 -75t-64 -26z" />
    <glyph glyph-name="ae.ss02" horiz-adv-x="999" 
d="M295 -12q-74 0 -129.5 34t-86.5 93t-31 134t31 133.5t86 92t130 33.5q58 0 103.5 -23t72.5 -64l6 75h74v-61q67 73 175 73q72 0 123.5 -32.5t79.5 -85.5t28 -114v-22t-1 -25h-395q3 -57 26.5 -94.5t59.5 -56.5t75 -19q56 0 93 28t53 76h81q-18 -75 -76 -125t-150 -50
q-52 0 -96 19t-76 52v-59h-74l-6 61q-39 -44 -84 -58.5t-92 -14.5zM562 294h312q-3 67 -45.5 105t-106.5 38q-60 0 -106.5 -36.5t-53.5 -106.5zM303 61q50 0 88.5 23.5t60 65.5t21.5 98t-21.5 98t-60 65.5t-88.5 23.5q-49 0 -87.5 -23.5t-60 -65.5t-21.5 -98t21.5 -98
t60 -65.5t87.5 -23.5z" />
    <glyph glyph-name="aeacute.ss02" horiz-adv-x="999" 
d="M295 -12q-74 0 -129.5 34t-86.5 93t-31 134t31 133.5t86 92t130 33.5q58 0 103.5 -23t72.5 -64l6 75h74v-61q67 73 175 73q72 0 123.5 -32.5t79.5 -85.5t28 -114v-22t-1 -25h-395q3 -57 26.5 -94.5t59.5 -56.5t75 -19q56 0 93 28t53 76h81q-18 -75 -76 -125t-150 -50
q-52 0 -96 19t-76 52v-59h-74l-6 61q-39 -44 -84 -58.5t-92 -14.5zM562 294h312q-3 67 -45.5 105t-106.5 38q-60 0 -106.5 -36.5t-53.5 -106.5zM303 61q50 0 88.5 23.5t60 65.5t21.5 98t-21.5 98t-60 65.5t-88.5 23.5q-49 0 -87.5 -23.5t-60 -65.5t-21.5 -98t21.5 -98
t60 -65.5t87.5 -23.5zM473 537v63l210 127v-73z" />
    <glyph glyph-name="g.ss03" horiz-adv-x="644" 
d="M319 -232q-65 0 -119 22.5t-89.5 64.5t-46.5 102h83q16 -52 61.5 -84t109.5 -32q73 0 123 47t50 140v72q-24 -42 -72 -76t-121 -34q-70 0 -126.5 34t-90 93t-33.5 133t33.5 132.5t90.5 92t127 33.5q66 0 116 -29.5t76 -71.5l8 89h76v-467q0 -81 -33 -139.5t-91 -90
t-132 -31.5zM311 63q51 0 90.5 24t63 66t23.5 97t-23.5 97t-63 65t-90.5 23q-50 0 -90 -23t-63.5 -65t-23.5 -97t23.5 -97t63.5 -66t90 -24z" />
    <glyph glyph-name="gbreve.ss03" horiz-adv-x="644" 
d="M319 -232q-65 0 -119 22.5t-89.5 64.5t-46.5 102h83q16 -52 61.5 -84t109.5 -32q73 0 123 47t50 140v72q-24 -42 -72 -76t-121 -34q-70 0 -126.5 34t-90 93t-33.5 133t33.5 132.5t90.5 92t127 33.5q66 0 116 -29.5t76 -71.5l8 89h76v-467q0 -81 -33 -139.5t-91 -90
t-132 -31.5zM311 63q51 0 90.5 24t63 66t23.5 97t-23.5 97t-63 65t-90.5 23q-50 0 -90 -23t-63.5 -65t-23.5 -97t23.5 -97t63.5 -66t90 -24zM309 553q-69 0 -104.5 37.5t-35.5 92.5v14h50q0 -37 21 -57.5t69 -20.5t69 20.5t21 57.5h51v-14q0 -55 -36.5 -92.5t-104.5 -37.5z
" />
    <glyph glyph-name="uni0123.ss03" horiz-adv-x="644" 
d="M258 595q-10 51 -10 90q0 57 25 83.5t72 26.5v-40q-47 0 -47 -53v-23h48v-84h-88zM319 -232q-65 0 -119 22.5t-89.5 64.5t-46.5 102h83q16 -52 61.5 -84t109.5 -32q73 0 123 47t50 140v72q-24 -42 -72 -76t-121 -34q-70 0 -126.5 34t-90 93t-33.5 133t33.5 132.5t90.5 92
t127 33.5q66 0 116 -29.5t76 -71.5l8 89h76v-467q0 -81 -33 -139.5t-91 -90t-132 -31.5zM311 63q51 0 90.5 24t63 66t23.5 97t-23.5 97t-63 65t-90.5 23q-50 0 -90 -23t-63.5 -65t-23.5 -97t23.5 -97t63.5 -66t90 -24z" />
    <glyph glyph-name="gdotaccent.ss03" horiz-adv-x="644" 
d="M319 -232q-65 0 -119 22.5t-89.5 64.5t-46.5 102h83q16 -52 61.5 -84t109.5 -32q73 0 123 47t50 140v72q-24 -42 -72 -76t-121 -34q-70 0 -126.5 34t-90 93t-33.5 133t33.5 132.5t90.5 92t127 33.5q66 0 116 -29.5t76 -71.5l8 89h76v-467q0 -81 -33 -139.5t-91 -90
t-132 -31.5zM311 63q51 0 90.5 24t63 66t23.5 97t-23.5 97t-63 65t-90.5 23q-50 0 -90 -23t-63.5 -65t-23.5 -97t23.5 -97t63.5 -66t90 -24zM309 562q-21 0 -35.5 15t-14.5 35q0 21 14.5 35.5t35.5 14.5q20 0 35 -14.5t15 -35.5q0 -20 -15 -35t-35 -15z" />
    <glyph glyph-name="three.ss04" horiz-adv-x="597" 
d="M297 -5q-101 0 -168.5 54t-76.5 159h83q8 -61 48.5 -102t114.5 -41q73 0 115 40t42 111q0 72 -41.5 112.5t-114.5 40.5h-100v59l203 201h-305v71h409v-64l-207 -203h4q110 0 172 -57t62 -161q0 -101 -64.5 -160.5t-175.5 -59.5z" />
    <glyph glyph-name="six.ss04" horiz-adv-x="591" 
d="M296 -12q-75 0 -131 32.5t-86.5 87.5t-30.5 124q0 53 17.5 103.5t55.5 105.5l174 259h99l-168 -246q19 6 39 10t42 4q71 0 123.5 -29.5t82.5 -83t30 -123.5q0 -72 -31.5 -127t-87 -86t-128.5 -31zM296 65q75 0 119 45.5t44 120.5t-44 121t-119 46q-74 0 -118.5 -45.5
t-44.5 -120.5t44.5 -121t118.5 -46z" />
    <glyph glyph-name="nine.ss04" horiz-adv-x="591" 
d="M197 0l168 246q-19 -6 -39 -10t-42 -4q-71 0 -124 29.5t-82.5 83t-29.5 123.5q0 72 31.5 127t87 86t127.5 31q76 0 132 -32.5t86.5 -87.5t30.5 -124q0 -53 -17.5 -103.5t-55.5 -105.5l-174 -259h-99zM294 302q75 0 119.5 45.5t44.5 120.5t-44.5 121t-119.5 46
q-74 0 -118 -45.5t-44 -120.5t44 -121t118 -46z" />
    <glyph glyph-name="comma.ss01" horiz-adv-x="172" 
d="M34 -98v39q26 0 36.5 13.5t10.5 40.5v24h-48v82h88q6 -26 8.5 -48.5t2.5 -41.5q0 -57 -25 -83t-73 -26z" />
    <glyph glyph-name="quotesinglbase.ss01" horiz-adv-x="172" 
d="M34 -98v39q26 0 36.5 13.5t10.5 40.5v24h-48v82h88q6 -26 8.5 -48.5t2.5 -41.5q0 -57 -25 -83t-73 -26z" />
    <glyph glyph-name="quotedblbase.ss01" horiz-adv-x="304" 
d="M34 -98v39q26 0 36.5 13.5t10.5 40.5v24h-48v82h88q6 -26 8.5 -48.5t2.5 -41.5q0 -57 -25 -83t-73 -26zM166 -98v39q25 0 36 13.5t11 40.5v24h-49v82h88q6 -26 9 -48.5t3 -41.5q0 -57 -25.5 -83t-72.5 -26z" />
    <glyph glyph-name="quotedblleft.ss01" horiz-adv-x="293" 
d="M172 582q-11 51 -11 90q0 57 25.5 83t73.5 26v-40q-26 0 -37.5 -13.5t-11.5 -39.5v-23h49v-83h-88zM42 582q-6 26 -8.5 48t-2.5 42q0 57 25 83t72 26v-40q-25 0 -36 -13.5t-11 -39.5v-23h49v-83h-88z" />
    <glyph glyph-name="quotedblright.ss01" horiz-adv-x="292" 
d="M163 582v39q47 0 47 54v24h-47v82h88q10 -50 10 -90q0 -57 -25.5 -83t-72.5 -26zM33 582v39q25 0 36 14t11 40v24h-49v82h88q6 -25 9 -48t3 -42q0 -57 -25.5 -83t-72.5 -26z" />
    <glyph glyph-name="quoteleft.ss01" horiz-adv-x="161" 
d="M42 582q-6 26 -8.5 48t-2.5 42q0 57 25 83t72 26v-40q-25 0 -36 -13.5t-11 -39.5v-23h49v-83h-88z" />
    <glyph glyph-name="quoteright.ss01" horiz-adv-x="161" 
d="M33 582v39q25 0 36 14t11 40v24h-49v82h88q6 -25 9 -48t3 -42q0 -57 -25.5 -83t-72.5 -26z" />
    <glyph glyph-name="uni0308.cap" 
d="M210 775q-21 0 -35.5 14.5t-14.5 35.5q0 20 14.5 35t35.5 15t35 -15t14 -35q0 -21 -14 -35.5t-35 -14.5zM50 775q-21 0 -35.5 14.5t-14.5 35.5q0 20 14.5 35t35.5 15q20 0 35 -15t15 -35q0 -21 -15 -35.5t-35 -14.5z" />
    <glyph glyph-name="uni0307.cap" 
d="M50 766q-21 0 -35.5 15t-14.5 35q0 21 14.5 35.5t35.5 14.5q20 0 35 -14.5t15 -35.5q0 -20 -15 -35t-35 -15z" />
    <glyph glyph-name="gravecomb.cap" 
d="M210 741l-210 117v73l210 -127v-63z" />
    <glyph glyph-name="acutecomb.cap" 
d="M0 741v63l210 127v-73z" />
    <glyph glyph-name="uni030B.cap" 
d="M146 753l72 149h73l-89 -149h-56zM0 753l66 149h73l-82 -149h-57z" />
    <glyph glyph-name="uni0302.cap" 
d="M0 755v66l137 81l137 -81v-66l-137 84z" />
    <glyph glyph-name="uni030C.cap" 
d="M137 754l-137 82v65l137 -84l137 84v-65z" />
    <glyph glyph-name="uni0306.cap" 
d="M140 757q-69 0 -104.5 37.5t-35.5 92.5v14h50q0 -37 21 -57.5t69 -20.5t69 20.5t21 57.5h51v-14q0 -55 -36.5 -92.5t-104.5 -37.5z" />
    <glyph glyph-name="uni030A.cap" 
d="M105 761q-43 0 -74 27.5t-31 75.5t31 75.5t74 27.5q44 0 74.5 -27.5t30.5 -75.5t-30.5 -75.5t-74.5 -27.5zM105 804q24 0 40.5 16.5t16.5 43.5t-16.5 43t-40.5 16t-40.5 -16t-16.5 -43t16.5 -43.5t40.5 -16.5z" />
    <glyph glyph-name="tildecomb.cap" 
d="M206 756q-27 0 -45 12t-33.5 23.5t-36.5 11.5q-36 0 -42 -45h-49q7 51 32 76t63 25q26 0 44 -12t33.5 -23.5t37.5 -11.5q16 0 28 11t15 34h49q-6 -49 -32 -75t-64 -26z" />
    <glyph glyph-name="uni0304.cap" 
d="M0 796v63h347v-63h-347z" />
    <glyph glyph-name="uni0327.cap" 
d="M0 -259v53h92q68 0 68 48q0 45 -68 45h-49v120h56v-70q57 1 93 -23t36 -73q0 -47 -34 -73.5t-87 -26.5h-107z" />
    <glyph glyph-name="uni0328.cap" 
d="M118 -203q-30 0 -57 9.5t-44 30.5t-17 55q0 35 25.5 67t90.5 61l53 23l21 -43l-58 -28q-36 -18 -50 -35.5t-14 -36.5q0 -23 16.5 -36t43.5 -13q30 0 65 15v-56q-37 -13 -75 -13z" />
    </font>
</defs>
</svg>
